osu file format v14

[General]
AudioFilename: audio.mp3
AudioLeadIn: 0
PreviewTime: 110959
Countdown: 0
SampleSet: Normal
StackLeniency: 0.5
Mode: 0
LetterboxInBreaks: 0
WidescreenStoryboard: 1

[Editor]
DistanceSpacing: 1
BeatDivisor: 4
GridSize: 32
TimelineZoom: 3.4

[Metadata]
Title:Trashed, Lost & Strungout
TitleUnicode:Trashed, Lost & Strungout
Artist:Children Of Bodom
ArtistUnicode:Children Of Bodom
Creator:FCL
Version:Deppy's Normal
Source:
Tags:are you dead yet? melodic death metal cob wajinshu deppyforce Maakkeli mkl themefisto feb Makeli english
BeatmapID:1116516
BeatmapSetID:497378

[Difficulty]
HPDrainRate:4
CircleSize:3.6
OverallDifficulty:4
ApproachRate:5
SliderMultiplier:0.899999999999999
SliderTickRate:1

[Events]
//Background and Video events
0,0,"children_of_bodom_obraz_vesele_telefon_flamingo_1920x1080.jpg",0,0
//Break Periods
2,130431,133900
//Storyboard Layer 0 (Background)
//Storyboard Layer 1 (Fail)
//Storyboard Layer 2 (Pass)
//Storyboard Layer 3 (Foreground)
//Storyboard Layer 4 (Overlay)
//Storyboard Sound Samples

[TimingPoints]
55,317.460317460317,4,2,1,60,1,0
658,298.507462686567,4,2,1,60,1,0
956,289.855072463768,4,2,1,60,1,0
1535,306.122448979592,4,2,1,60,1,0
1841,304.568527918782,4,2,1,60,1,0
3053,299.475917144996,4,2,1,60,1,0
5442,318.302387267905,4,2,1,60,1,0
5760,295.566502463054,4,2,1,60,1,0
6351,306.122448979592,4,2,1,60,1,0
6657,291.26213592233,4,2,1,60,1,0
7239,300,4,2,1,60,1,0
7839,304.568527918781,4,2,1,60,1,0
9050,297.766749379653,4,2,1,60,1,0
10250,300,4,2,1,60,1,0
12045,289.855072463768,4,1,1,60,1,0
12638,300.751879699248,4,1,1,60,1,0
13841,283.687943262411,4,1,1,60,1,0
14408,301.507537688442,4,1,1,60,1,0
15029,303.030303030303,4,1,1,60,1,0
17451,300,4,1,1,60,1,0
23601,293.398533007335,4,1,1,60,1,0
24651,300,4,1,1,60,1,0
33051,297.029702970297,4,1,1,60,1,0
36370,288.461538461538,4,1,1,60,1,0
36658,300,4,2,1,60,1,0
39058,300,4,1,1,60,1,0
46252,295.566502463054,4,1,1,60,1,0
47729,307.692307692308,4,1,1,60,1,0
48036,303.030303030303,4,1,1,60,1,0
48642,306.122448979592,4,1,1,60,1,0
49101,291.26213592233,4,1,1,60,1,0
49537,309.278350515464,4,1,1,60,1,0
50155,303.030303030303,4,1,1,60,1,0
51059,298.507462686567,4,1,1,60,1,0
53453,296.296296296296,4,1,1,60,1,0
54333,300,4,1,1,60,1,0
54783,326.086956521739,4,1,1,60,1,0
54946,300,4,1,1,60,1,0
55246,304.568527918782,4,1,1,60,1,0
55851,298.507462686567,4,1,1,60,1,0
57039,300,4,1,1,60,1,0
57339,315.78947368421,4,1,1,60,1,0
57812,304.568527918782,4,1,1,60,1,0
58256,300,4,1,1,60,1,0
59156,289.855072463768,4,1,1,60,1,0
59445,300,4,1,1,60,1,0
63045,309.278350515464,4,1,1,60,1,0
63354,300,4,1,1,60,1,0
64254,300,4,1,1,60,1,0
66498,272.727272727273,4,1,1,60,1,0
66770,288.461538461538,4,1,1,60,1,0
67058,315.78947368421,4,1,1,60,1,0
67215,317.460317460317,4,1,1,60,1,0
67849,294.117647058824,4,1,1,60,1,0
68143,306.122448979592,4,1,1,60,1,0
68296,288.461538461538,4,1,1,60,1,0
68728,314.13612565445,4,1,1,60,1,0
69199,309.278350515464,4,1,1,60,1,0
69353,312.5,4,1,1,60,1,0
69665,297.029702970297,4,1,1,60,1,0
69962,284.36018957346,4,1,1,60,1,0
70246,303.79746835443,4,1,1,60,1,0
71461,295.566502463054,4,1,1,60,1,0
72639,300,4,1,1,60,1,0
73839,305.732484076433,4,1,1,60,1,0
74450,297.029702970297,4,1,1,60,1,0
74747,298.507462686567,4,1,1,60,1,0
75045,299.550673989016,4,1,1,60,1,0
79837,310.880829015544,4,1,1,60,1,0
80147,301.507537688443,4,1,1,60,1,0
81051,301.507537688442,4,1,1,60,1,0
82257,295.566502463054,4,1,1,60,1,0
83439,303.030303030303,4,1,1,60,1,0
84651,299.850074962519,4,1,1,60,1,0
88239,300,4,1,1,60,1,0
89439,309.278350515464,4,1,1,60,1,0
90057,300,4,1,1,60,1,0
90657,299.850074962519,4,1,1,60,1,0
98003,297.176820208024,4,1,1,60,1,0
99045,300,4,1,1,60,1,0
102489,291.26213592233,4,1,1,60,1,0
102489,-101.6,4,1,1,60,0,0
102634,298.507462686567,4,1,1,60,1,0
103684,309.278350515464,4,1,1,60,1,0
103684,-98.6,4,1,1,60,0,0
103838,303.030303030303,4,1,1,60,1,0
104141,299.25187032419,4,1,1,60,1,0
105936,301.507537688442,4,1,1,60,1,0
106237,306.122448979592,4,1,1,60,1,0
106849,304.568527918782,4,1,1,60,1,0
107458,297.029702970297,4,1,1,60,1,0
108646,298.507462686567,4,1,1,60,1,0
110138,294.117647058824,4,1,1,60,1,0
110432,301.507537688442,4,1,1,60,1,0
111035,329.67032967033,4,1,1,60,1,1
111364,289.855072463768,4,1,1,60,1,1
111653,-101.010101010101,4,1,1,60,0,1
111943,301.507537688442,4,1,1,60,1,1
112244,300,4,1,1,60,1,1
115844,303.030303030303,4,1,1,60,1,1
117056,300,4,1,1,60,1,1
124850,298.507462686567,4,1,1,60,1,1
125447,300,4,1,1,60,1,1
128146,297.029702970297,4,1,1,60,1,1
129037,297.029702970297,4,1,1,60,1,1
130231,307.692307692308,4,2,1,60,1,0
132691,295.566502463054,4,2,1,60,1,0
133577,304.568527918782,4,2,1,60,1,0
133881,304.568527918782,4,2,1,60,1,0
134490,305.343511450382,4,2,1,60,1,0
135100,312.5,4,3,1,60,1,0
135725,307.534597642235,4,3,1,60,1,0
136340,301.507537688442,4,3,1,60,1,0
136943,304.568527918782,4,3,1,60,1,0
137552,319.148936170213,4,3,1,60,1,0
138190,295.566502463054,4,3,1,60,1,0
138781,301.507537688442,4,3,1,60,1,0
139993,309.278350515464,4,3,1,60,1,0
141230,304.568527918782,4,3,1,60,1,0
142448,298.507462686567,4,3,1,60,1,0
143045,306.122448979592,4,3,1,60,1,0
143657,298.507462686567,4,3,1,60,1,0
144254,317.460317460317,4,3,1,60,1,0
144569,279.069767441861,4,3,1,60,1,0
144848,312.5,4,3,1,60,1,0
145470,304.568527918782,4,3,1,60,1,0
146079,307.692307692308,4,3,1,60,1,0
147309,306.122448979592,4,3,1,60,1,0
148533,300,4,3,1,60,1,0
149133,294.117647058824,4,3,1,60,1,0
149427,310.880829015544,4,3,1,60,1,0
149737,310.880829015544,4,3,1,60,1,0
150358,304.568527918782,4,3,1,60,1,0
151576,303.030303030303,4,3,1,60,1,0
152182,314.13612565445,4,3,1,60,1,0
152339,303.030303030303,4,1,1,60,1,0
152642,312.5,4,1,1,60,1,0
152798,289.855072463768,4,1,1,60,1,0
153092,303.030303030303,4,1,1,60,1,0
154001,298.507462686567,4,1,1,60,1,0
154598,324.324324324324,4,1,1,60,1,0
154598,-97.0873786407767,4,1,1,60,0,0
154922,297.029702970297,4,1,1,60,1,0
155516,300,4,1,1,60,1,0
155816,300,4,1,1,60,1,0
157913,303.030303030303,4,1,1,60,1,0
158216,303.030303030303,4,1,1,60,1,0
159424,298.507462686567,4,1,1,60,1,0
160319,312.5,4,1,1,60,1,0
160631,300,4,1,1,60,1,0
161231,291.26213592233,4,1,1,60,1,0
161522,303.030303030303,4,1,1,60,1,0
161825,300,4,1,1,60,1,0
161825,-99.009900990099,4,1,1,60,0,0
162125,291.26213592233,4,1,1,60,1,0
162707,294.117647058824,4,1,1,60,1,0
163005,302.267002518892,4,1,1,60,1,0
164236,295.566502463054,4,1,1,60,1,0
166009,303.030303030303,4,1,1,60,1,0
166615,301.507537688442,4,1,1,60,1,0
169027,297.029702970297,4,1,1,60,1,0
170215,300,4,1,1,60,1,0
171115,310.880829015544,4,1,1,60,1,0
171425,298.507462686567,4,1,1,60,1,0
172616,298.06259314456,4,1,1,60,1,0
173808,301.507537688442,4,1,1,60,1,0
177426,-98.0392156862745,4,1,1,60,0,0
177722,296.296296296297,4,1,1,60,1,0
178314,303.030303030303,4,1,1,60,1,0
178617,303.030303030303,4,1,1,60,1,0
179829,297.029702970297,4,1,1,60,1,0
180429,291.26213592233,4,1,1,60,1,0
181005,303.030303030303,4,1,1,60,1,0
181308,317.460317460317,4,1,1,60,1,0
181466,-95.2380952380952,4,1,1,60,0,0
181625,287.081339712919,4,1,1,60,1,0
181912,300,4,1,1,60,1,0
182212,300,4,1,1,60,1,0
183409,312.5,4,1,1,60,1,0
183873,285.714285714286,4,1,1,60,1,0
184301,300,4,1,1,60,1,0
184901,314.13612565445,4,1,1,60,1,0
185215,301.507537688442,4,1,1,60,1,0
185818,298.507462686567,4,1,1,60,1,0
187012,292.682926829268,4,1,1,60,1,0
187158,309.278350515464,4,1,1,60,1,0
187312,294.117647058824,4,1,1,60,1,0
187606,300,4,1,1,60,1,0
188206,298.507462686567,4,1,1,60,1,0
188653,-99.009900990099,4,1,1,60,0,0
188803,294.117647058824,4,1,1,60,1,0
189097,309.278350515464,4,1,1,60,1,0
190014,298.507462686567,4,1,1,60,1,0
190611,298.507462686567,4,1,1,60,1,0
191208,300,4,1,1,60,1,0
191808,300,4,1,1,60,1,0
192415,292.682926829268,4,1,1,60,1,0
192707,288.461538461538,4,1,1,60,1,0
192995,306.122448979592,4,1,1,60,1,0
193454,312.5,4,1,1,60,1,0
193766,-98.0392156862745,4,1,1,60,0,0
193922,300,4,1,1,60,1,0
194222,300,4,1,1,60,1,0
195431,295.566502463054,4,1,1,60,1,0
197499,285.714285714286,4,1,1,60,1,0
197784,304.568527918782,4,1,1,60,1,0
197784,-102.040816326531,4,1,1,60,0,0
198088,329.67032967033,4,1,1,60,1,0
198252,295.566502463054,4,1,1,60,1,0
198547,306.122448979592,4,1,1,60,1,0
198853,307.692307692308,4,1,1,60,1,0
199160,287.081339712919,4,1,1,60,1,0
199447,304.568527918782,4,1,1,60,1,0
200208,304.568527918782,4,1,1,60,1,0
201426,298.507462686567,4,1,1,60,1,0
203814,297.029702970297,4,1,1,60,1,0
205002,300,4,1,1,60,1,0
207402,303.030303030303,4,1,1,30,1,0
208008,-100,4,1,1,40,0,0
208614,301.507537688442,4,1,1,50,1,0
209217,-100,4,1,1,60,0,0
209840,295.566502463054,4,1,1,60,1,1
212204,300,4,1,1,60,1,1
213411,301.507537688442,4,1,1,60,1,1
214617,300,4,1,1,60,1,1
219424,301.507537688442,4,1,1,60,1,1
220630,295.566502463054,4,1,1,60,1,1
221368,-101.010101010101,4,1,1,60,0,1
221516,303.030303030303,4,1,1,60,1,1
221819,297.029702970297,4,1,1,60,1,1
223007,301.507537688442,4,1,1,60,1,1
223911,288.461538461538,4,1,1,60,1,1
224199,314.13612565445,4,1,1,60,1,1
224513,294.117647058824,4,1,1,60,1,1
225101,312.5,4,1,1,60,1,1
225413,301.507537688442,4,1,1,60,1,1
226613,300,4,1,1,60,1,1
227813,301.507537688442,4,1,1,60,1,1
229026,298.507462686567,4,1,1,60,1,0
233503,307.692307692308,4,1,1,60,1,0
233810,298.507462686567,4,1,1,60,1,0
235004,302.267002518892,4,1,1,60,1,0
236213,295.566502463054,4,1,1,60,1,0
236802,295.566502463054,4,1,1,60,1,0
237540,-101.010101010101,4,1,1,60,0,0
237688,303.951367781155,4,1,1,60,1,0
238295,289.855072463768,4,1,1,60,1,0

[Colours]
Combo1 : 103,103,192
Combo2 : 248,102,39
Combo3 : 252,200,20
Combo4 : 57,152,208

[HitObjects]
46,283,55,5,4,1:0:0:0:
46,283,372,1,4,1:0:0:0:
45,282,658,6,0,P|85:262|129:255,1,89.9999999999999,4|0,1:0|1:0,0:0:0:0:
200,310,1245,2,0,P|240:329|284:336,1,89.9999999999999,0|0,1:0|1:0,0:0:0:0:
361,290,1841,2,0,B|354:222|354:222|366:156,1,135,0|0,1:0|1:0,0:0:0:0:
395,121,2450,2,0,B|327:128|327:128|261:115,1,135,0|0,1:0|1:0,0:0:0:0:
235,78,3053,6,0,P|206:43|166:23,1,89.9999999999999,0|0,1:0|1:0,0:0:0:0:
82,56,3651,2,0,P|69:99|76:144,1,89.9999999999999,0|0,1:0|1:0,0:0:0:0:
144,201,4250,2,0,B|213:194|213:194|276:208,1,135,0|0,1:0|1:0,0:0:0:0:
309,239,4849,2,0,L|313:286,2,45,0|2|2,1:0|2:0|1:2,0:0:0:0:
374,177,5442,6,0,P|418:172|463:180,1,89.9999999999999,4|0,1:0|1:0,0:0:0:0:
508,258,6055,2,0,P|512:302|504:347,1,89.9999999999999,0|0,1:0|1:0,0:0:0:0:
418,374,6657,2,0,B|354:355|354:355|286:362,1,135,0|0,1:0|2:0,0:0:0:0:
243,348,7239,2,0,B|292:300|292:300|318:239,1,135,0|0,1:0|2:0,0:0:0:0:
331,196,7839,6,0,P|302:161|291:117,1,89.9999999999999,4|0,1:0|1:0,0:0:0:0:
242,42,8448,2,0,P|213:76|202:120,1,89.9999999999999,0|0,1:0|1:0,0:0:0:0:
153,196,9050,2,0,B|114:140|114:140|101:74,1,135,6|0,1:3|2:0,0:0:0:0:
110,30,9645,2,0,B|174:50|174:50|242:42,1,135,4|2,1:3|2:3,0:0:0:0:
282,22,10250,6,0,P|283:66|305:105,1,89.9999999999999,4|0,1:0|1:0,0:0:0:0:
385,146,10850,2,0,P|407:184|408:229,1,89.9999999999999,0|0,1:0|1:0,0:0:0:0:
332,277,11450,2,0,B|299:217|299:217|246:176,1,135,0|0,1:0|2:0,0:0:0:0:
201,165,12045,1,8,1:3:0:0:
256,192,12189,12,8,13841,1:0:0:0:
143,253,15029,6,0,B|100:239|54:252|54:252|33:264|21:282,2,135,12|2|10,1:0|1:2|1:2,0:0:0:0:
211,309,16241,2,0,P|231:270|227:226,1,89.9999999999999,10|10,1:2|1:2,0:0:0:0:
161,164,16847,2,0,P|157:119|176:79,1,89.9999999999999,10|10,1:2|1:2,0:0:0:0:
265,60,17451,6,0,B|300:88|314:134|314:134|315:158|306:177,2,135,10|2|10,1:2|1:2|1:2,0:0:0:0:
175,79,18651,2,0,P|130:82|90:63,2,89.9999999999999,10|10|10,1:2|1:2|1:2,0:0:0:0:
265,60,19551,1,10,1:2:0:0:
333,116,19851,6,0,B|376:130|422:117|422:117|443:105|455:87,2,135,12|2|10,1:0|1:2|1:2,0:0:0:0:
265,60,21051,2,0,P|245:99|249:143,1,89.9999999999999,10|10,1:2|1:2,0:0:0:0:
315,205,21651,2,0,P|319:250|300:290,1,89.9999999999999,10|10,1:2|1:2,0:0:0:0:
211,309,22251,6,0,B|176:281|162:235|162:235|161:211|170:192,2,135,12|2|10,1:0|1:2|1:2,0:0:0:0:
300,289,23451,1,12,1:0:0:0:
300,289,23601,2,0,L|328:157,1,135,8|8,1:3|1:3,0:0:0:0:
331,111,24187,2,0,P|298:79|256:67,1,89.9999999999999,8|8,1:3|1:3,0:0:0:0:
215,86,24651,6,0,B|154:113|154:113|83:106,2,135,6|2|10,1:0|1:0|1:0,0:0:0:0:
290,35,25851,2,0,P|300:78|331:111,1,89.9999999999999,2|8,1:0|1:0,0:0:0:0:
418,116,26451,2,0,L|404:205,1,89.9999999999999,2|10,1:0|1:0,0:0:0:0:
322,241,27051,6,0,B|310:175|310:175|328:109,2,135,6|2|10,1:0|1:0|1:0,0:0:0:0:
258,305,28251,2,0,P|216:324|171:319,1,89.9999999999999,2|8,1:0|1:0,0:0:0:0:
103,263,28851,2,0,L|124:175,1,89.9999999999999,2|10,1:0|1:0,0:0:0:0:
81,97,29451,6,0,B|37:148|37:148|28:215,2,135,6|2|10,1:0|1:0|1:0,0:0:0:0:
122,176,30651,2,0,P|152:209|195:221,1,89.9999999999999,2|8,1:0|1:0,0:0:0:0:
284,195,31251,2,0,L|297:105,1,89.9999999999999,2|10,1:0|1:0,0:0:0:0:
365,51,31851,6,0,B|386:115|386:115|369:180,2,135,6|2|10,1:0|1:0|1:0,0:0:0:0:
296,108,33051,2,0,P|252:95|222:63,1,89.9999999999999,12|12,1:3|1:3,0:0:0:0:
137,88,33645,2,0,L|123:177,1,89.9999999999999,4|4,1:3|1:3,0:0:0:0:
38,210,34239,6,0,P|32:179|32:163,1,45,2|2,1:0|2:0,0:0:0:0:
176,330,36658,6,0,L|41:343,2,135,2|2|2,2:0|2:0|2:0,0:0:0:0:
259,297,37858,2,0,L|348:305,2,89.9999999999999,2|2|2,2:0|2:0|2:0,0:0:0:0:
188,241,38758,1,2,2:0:0:0:
235,164,39058,6,0,P|242:119|235:75,1,89.9999999999999,4|8,1:0|1:0,0:0:0:0:
306,20,39658,2,0,B|351:30|351:30|387:55,1,89.9999999999999,0|10,1:0|1:2,0:0:0:0:
444,125,40258,2,0,B|468:86|468:86|476:42,2,89.9999999999999,2|10|2,1:2|1:2|1:2,0:0:0:0:
354,139,41158,1,10,1:0:0:0:
307,216,41458,6,0,P|299:260|307:304,1,89.9999999999999,0|8,1:0|1:0,0:0:0:0:
372,366,42058,2,0,P|416:373|460:365,1,89.9999999999999,2|8,1:2|1:0,0:0:0:0:
496,338,42508,2,0,B|482:271|482:271|487:204,1,135,6|8,1:0|1:0,0:0:0:0:
441,128,43258,2,0,B|396:124|396:124|353:138,1,89.9999999999999,2|10,1:2|1:2,0:0:0:0:
312,160,43708,6,0,P|325:94|298:34,1,135,4|8,1:0|1:0,0:0:0:0:
211,62,44458,2,0,B|166:72|166:72|124:61,1,89.9999999999999,0|10,1:0|1:2,0:0:0:0:
70,133,45058,2,0,B|60:178|60:178|71:220,2,89.9999999999999,2|10|2,1:2|1:2|1:2,0:0:0:0:
124,61,45958,1,10,1:0:0:0:
209,89,46252,6,0,P|221:131|217:176,1,89.9999999999999,2|8,1:2|1:0,0:0:0:0:
158,245,46843,2,0,P|152:289|162:332,1,89.9999999999999,2|8,1:2|1:0,0:0:0:0:
191,368,47286,2,0,B|257:351|257:351|324:354,1,135,6|8,1:0|1:0,0:0:0:0:
411,372,48036,2,0,L|417:282,1,89.9999999999999,12|12,1:3|1:3,0:0:0:0:
480,218,48642,6,0,P|440:196|393:196,1,89.9999999999999,6|8,1:0|1:0,0:0:0:0:
357,218,49101,2,0,B|364:122,1,89.9999999999999,6|0,1:0|1:0,0:0:0:0:
348,86,49537,2,0,P|303:84|264:63,1,89.9999999999999,14|0,1:0|1:0,0:0:0:0:
200,125,50155,1,0,0:0:0:0:
109,129,50458,2,0,P|89:88|86:43,1,89.9999999999999,6|8,1:0|1:0,0:0:0:0:
7,91,51059,6,0,B|12:133|12:133|-1:178,2,89.9999999999999,4|8|2,1:0|1:0|1:2,0:0:0:0:
85,44,51954,2,0,B|120:18|120:18|166:7,2,89.9999999999999,8|2|10,1:0|1:2|1:2,0:0:0:0:
105,132,52850,2,0,B|123:171|123:171|157:204,1,89.9999999999999,2|10,1:2|1:2,0:0:0:0:
97,273,53453,6,0,P|92:317|103:360,1,89.9999999999999,6|8,1:0|1:0,0:0:0:0:
142,384,53897,2,0,B|174:374|181:361|181:361|234:353,1,89.9999999999999,6|0,1:0|1:0,0:0:0:0:
268,360,54333,2,0,P|279:316|274:272,1,89.9999999999999,14|0,1:0|1:0,0:0:0:0:
194,229,54946,1,0,0:0:0:0:
114,270,55246,2,0,P|80:274|36:231,1,89.9999999999999,6|8,1:0|1:0,0:0:0:0:
10,153,55851,6,0,B|19:109|19:109|43:70,1,89.9999999999999,8|8,1:0|1:0,0:0:0:0:
130,95,56448,2,0,B|150:135|150:135|183:166,1,89.9999999999999,10|10,1:2|1:2,0:0:0:0:
263,189,57039,1,2,1:2:0:0:
512,67,58256,6,0,P|470:84|440:117,1,89.9999999999999,4|10,1:0|1:2,0:0:0:0:
429,207,58856,2,0,P|387:189|357:156,1,89.9999999999999,0|10,1:0|1:2,0:0:0:0:
365,66,59445,2,0,B|320:60|320:60|277:37,2,89.9999999999999,2|10|2,1:2|1:2|1:2,0:0:0:0:
440,117,60345,1,10,1:0:0:0:
440,117,60495,6,0,L|450:255,1,135,0|8,0:0|1:0,0:0:0:0:
394,322,61245,2,0,B|351:333|351:333|305:326,1,89.9999999999999,2|10,1:2|1:2,0:0:0:0:
274,293,61695,2,0,P|325:250|351:188,1,135,6|8,1:0|1:0,0:0:0:0:
348,97,62445,2,0,P|313:71|269:63,1,89.9999999999999,2|10,1:2|1:2,0:0:0:0:
232,90,62895,6,0,L|169:94,1,45,4|0,1:0|0:0,0:0:0:0:
94,99,63354,1,10,1:2:0:0:
20,151,63654,2,0,P|8:194|17:238,1,89.9999999999999,0|10,1:0|1:2,0:0:0:0:
105,259,64254,2,0,B|124:218|124:218|159:190,2,89.9999999999999,2|10|2,1:2|1:2|1:2,0:0:0:0:
111,303,65004,1,0,1:0:0:0:
137,339,65154,1,2,1:0:0:0:
224,318,65454,6,0,P|241:277|240:232,1,89.9999999999999,2|10,1:2|1:2,0:0:0:0:
260,192,65904,2,0,P|302:177|346:183,1,89.9999999999999,2|2,1:2|1:2,0:0:0:0:
411,244,66498,1,6,1:0:0:0:
12,193,67849,6,0,P|52:215|99:215,1,89.9999999999999,6|8,1:0|1:0,0:0:0:0:
135,193,68296,2,0,B|116:258|116:258|126:325,1,135,6|14,1:0|1:0,0:0:0:0:
261,343,69199,1,6,1:0:0:0:
261,343,69353,1,0,0:0:0:0:
309,266,69665,2,0,P|350:286|395:289,1,89.9999999999999,6|8,1:0|1:0,0:0:0:0:
469,251,70246,6,0,B|464:209|464:209|477:164,2,89.9999999999999,4|8|2,1:0|1:0|1:2,0:0:0:0:
393,289,71157,1,8,1:0:0:0:
394,290,71461,2,0,B|383:244|383:244|357:209,1,89.9999999999999,2|10,1:2|1:2,0:0:0:0:
276,169,72052,2,0,B|294:130|294:130|328:97,1,89.9999999999999,2|10,1:2|1:2,0:0:0:0:
415,99,72639,6,0,P|420:55|409:12,1,89.9999999999999,6|8,1:0|1:0,0:0:0:0:
364,0,73089,2,0,B|325:7|317:24|317:24|270:33,1,89.9999999999999,6|0,1:0|1:0,0:0:0:0:
241,50,73539,2,0,P|229:93|234:137,1,89.9999999999999,14|0,1:0|1:0,0:0:0:0:
290,207,74144,1,0,0:0:0:0:
382,213,74450,2,0,P|405:250|410:295,1,89.9999999999999,6|8,1:0|1:0,0:0:0:0:
371,376,75045,6,0,B|415:387|415:387|457:375,2,89.9999999999999,12|8|8,1:0|1:0|1:0,0:0:0:0:
281,370,75943,1,8,1:0:0:0:
210,314,76243,2,0,B|166:303|166:303|124:315,1,89.9999999999999,8|8,1:0|1:0,0:0:0:0:
43,356,76842,2,0,B|32:312|32:312|44:270,1,89.9999999999999,8|8,1:0|1:0,0:0:0:0:
122,224,77441,6,0,B|134:182|134:182|123:138,2,89.9999999999999,8|8|8,1:0|1:0|1:0,0:0:0:0:
44,269,78340,1,8,1:0:0:0:
123,315,78639,2,0,B|167:326|167:326|209:314,1,89.9999999999999,8|8,1:0|1:0,0:0:0:0:
282,259,79238,2,0,P|303:297|340:323,1,89.9999999999999,8|8,1:0|1:0,0:0:0:0:
386,318,79688,1,8,1:3:0:0:
415,283,79837,6,0,P|390:221|366:196,1,89.9999999999999,6|8,1:0|1:0,0:0:0:0:
334,186,80297,2,0,P|327:151|413:127,1,135,2|10,1:0|1:0,0:0:0:0:
493,109,81051,2,0,P|495:64|487:20,1,89.9999999999999,2|8,1:0|1:0,0:0:0:0:
397,8,81654,2,0,B|356:29|356:29|311:26,1,89.9999999999999,2|10,1:0|1:0,0:0:0:0:
259,101,82257,6,0,P|217:152|214:219,1,135,2|2,1:0|1:0,0:0:0:0:
282,336,83143,1,10,1:0:0:0:
192,332,83439,2,0,P|173:291|143:258,1,89.9999999999999,2|8,1:0|1:0,0:0:0:0:
86,187,84045,2,0,B|93:163|90:142|90:142|104:129|115:106,1,89.9999999999999,2|8,1:0|1:0,0:0:0:0:
205,102,84651,6,0,P|266:77|302:21,2,135,6|2|10,1:0|1:0|1:0,0:0:0:0:
211,192,85850,2,0,P|254:201|294:220,1,89.9999999999999,2|8,1:0|1:0,0:0:0:0:
362,282,86450,2,0,B|385:242|385:242|420:215,1,89.9999999999999,2|10,1:0|1:0,0:0:0:0:
390,130,87049,6,0,P|393:63|435:12,2,135,6|2|10,1:0|1:0|1:0,0:0:0:0:
419,215,88239,2,0,B|396:255|396:255|361:282,1,89.9999999999999,14|12,1:3|1:3,0:0:0:0:
276,311,88839,2,0,B|250:269|250:269|215:242,1,89.9999999999999,12|14,1:3|1:3,0:0:0:0:
130,252,89439,6,0,P|114:316|62:358,1,135,6|2,1:0|1:0,0:0:0:0:
23,332,90057,2,0,L|34:235,1,89.9999999999999
99,181,90657,2,0,P|102:137|85:95,1,89.9999999999999,2|8,1:0|1:0,0:0:0:0:
170,67,91256,2,0,B|214:75|214:75|247:105,1,89.9999999999999,0|12,1:0|1:0,0:0:0:0:
292,107,91706,6,0,P|330:54|394:37,1,135,0|10,1:0|1:0,0:0:0:0:
471,85,92456,2,0,L|466:174,1,89.9999999999999,2|10,1:0|1:2,0:0:0:0:
474,219,92905,2,0,B|409:204|409:204|342:221,1,135,6|8,1:0|1:0,0:0:0:0:
277,283,93655,2,0,B|232:270|232:270|201:239,1,89.9999999999999,6|10,1:3|1:2,0:0:0:0:
212,196,94105,6,0,P|263:153|329:145,1,135,6|8,1:0|1:0,0:0:0:0:
375,223,94854,2,0,B|406:190|406:190|419:148,1,89.9999999999999,6|10,1:3|1:0,0:0:0:0:
494,90,95454,2,0,B|464:56|464:56|422:40,1,89.9999999999999,2|10,1:3|1:0,0:0:0:0:
335,16,96054,1,6,1:3:0:0:
267,75,96354,1,10,1:0:0:0:
187,40,96654,6,0,P|142:35|99:47,1,89.9999999999999,6|8,1:0|1:0,0:0:0:0:
118,134,97253,2,0,P|159:151|191:182,1,89.9999999999999,2|8,1:0|1:0,0:0:0:0:
198,226,97703,2,0,B|252:188|252:188|320:189,1,135,6|8,1:0|1:0,0:0:0:0:
402,229,98448,2,0,L|400:276,2,45,8|8|8,1:0|1:0|1:0,0:0:0:0:
425,190,98894,5,6,1:0:0:0:
395,109,99195,1,0,1:0:0:0:
395,109,99345,2,0,L|392:58,1,45,10|0,1:2|0:0,0:0:0:0:
357,35,99645,2,0,P|320:60|298:99,1,89.9999999999999,0|10,1:0|1:2,0:0:0:0:
213,129,100245,2,0,B|173:107|173:107|149:68,2,89.9999999999999,2|10|2,1:2|1:2|1:2,0:0:0:0:
298,98,101145,1,10,1:0:0:0:
386,116,101445,6,0,B|426:94|426:94|449:55,2,89.9999999999999,2|10|2,1:2|1:2|1:2,0:0:0:0:
317,173,102345,1,10,1:2:0:0:
316,172,102489,2,0,P|372:209|406:267,1,135,6|8,1:0|1:0,0:0:0:0:
347,335,103231,2,0,P|306:350|261:347,1,89.9999999999999,2|10,1:2|1:2,0:0:0:0:
222,325,103684,6,0,B|240:261|240:261|225:195,1,135,4|10,1:0|1:2,0:0:0:0:
137,178,104440,2,0,P|97:199|73:236,1,89.9999999999999,2|8,1:2|1:0,0:0:0:0:
53,324,105038,2,0,B|97:337|97:337|133:362,2,89.9999999999999,2|8|2,1:2|1:0|1:2,0:0:0:0:
74,236,105936,1,12,1:3:0:0:
41,151,106237,6,0,P|45:106|65:66,1,89.9999999999999,8|8,1:0|1:0,0:0:0:0:
153,46,106849,2,0,P|182:79|221:101,1,89.9999999999999,10|10,1:2|1:2,0:0:0:0:
307,72,107458,2,0,P|277:38|238:16,2,89.9999999999999,8|8|10,1:0|1:0|1:2,0:0:0:0:
378,17,108349,1,10,1:2:0:0:
448,72,108646,6,0,P|462:114|458:158,1,89.9999999999999,10|10,1:2|1:2,0:0:0:0:
413,236,109243,2,0,P|409:280|423:322,1,89.9999999999999,10|10,1:2|1:2,0:0:0:0:
346,369,109840,2,0,B|301:362|301:362|265:334,1,89.9999999999999,8|8,1:0|1:0,0:0:0:0:
257,290,110285,1,8,1:0:0:0:
267,246,110432,2,0,B|307:225|307:225|333:187,1,89.9999999999999,8|8,1:0|1:0,0:0:0:0:
349,147,110884,1,8,1:0:0:0:
340,101,111035,6,0,P|297:90|253:94,1,89.9999999999999,6|8,1:0|1:0,0:0:0:0:
214,175,111653,2,0,P|148:185|91:151,1,135,2|0,1:0|1:0,0:0:0:0:
82,106,112244,2,0,B|120:83|120:83|166:79,1,89.9999999999999,2|10,1:0|1:0,0:0:0:0:
254,95,112844,2,0,B|292:118|292:118|338:122,1,89.9999999999999,2|8,1:0|1:2,0:0:0:0:
380,108,113294,1,4,1:0:0:0:
422,94,113444,6,0,P|415:138|424:182,1,89.9999999999999,0|8,0:0|1:0,0:0:0:0:
498,232,114044,2,0,P|442:268|377:256,1,135,2|0,1:0|1:0,0:0:0:0:
347,225,114644,2,0,B|309:202|309:202|263:198,1,89.9999999999999,2|10,1:0|1:0,0:0:0:0:
213,273,115244,2,0,B|175:296|175:296|129:300,1,89.9999999999999,2|8,1:0|1:0,0:0:0:0:
87,286,115694,1,2,1:0:0:0:
61,248,115844,6,0,P|53:203|62:159,1,89.9999999999999,4|8,1:0|1:0,0:0:0:0:
121,92,116450,2,0,P|154:121|196:135,1,89.9999999999999,2|8,1:0|1:0,0:0:0:0:
271,88,117056,2,0,B|248:49|248:49|210:26,2,89.9999999999999,2|10|2,1:0|1:0|1:0,0:0:0:0:
362,90,117956,1,8,1:0:0:0:
362,90,118106,6,0,L|346:226,1,135,6|10,1:0|1:0,0:0:0:0:
383,305,118856,2,0,P|416:275|433:234,1,89.9999999999999,2|8,1:0|1:0,0:0:0:0:
512,198,119456,2,0,B|486:163|486:163|442:146,2,89.9999999999999,2|10|2,1:0|1:0|1:0,0:0:0:0:
504,287,120356,1,8,1:0:0:0:
433,233,120656,6,0,P|400:263|383:304,1,89.9999999999999,4|8,1:0|1:0,0:0:0:0:
319,367,121256,2,0,P|298:327|296:282,1,89.9999999999999,2|8,1:0|1:0,0:0:0:0:
332,200,121856,2,0,B|288:202|288:202|245:190,1,89.9999999999999,2|10,1:0|1:0,0:0:0:0:
169,139,122456,1,2,1:0:0:0:
169,139,122606,2,0,L|161:228,1,89.9999999999999,0|4,1:0|1:0,0:0:0:0:
158,272,123056,6,0,P|124:244|82:227,1,89.9999999999999,0|8,0:0|1:0,0:0:0:0:
35,152,123656,2,0,P|69:123|93:85,1,89.9999999999999,2|8,1:0|1:0,0:0:0:0:
182,71,124256,2,0,B|226:90|226:90|267:83,1,89.9999999999999,2|10,1:0|1:0,0:0:0:0:
353,63,124850,1,2,1:0:0:0:
435,97,125148,1,8,1:0:0:0:
484,171,125447,6,0,B|445:199|445:199|429:237,1,89.9999999999999,4|8,1:0|1:0,0:0:0:0:
379,312,126047,2,0,P|335:322|290:316,1,89.9999999999999,2|8,1:0|1:0,0:0:0:0:
287,226,126647,2,0,P|253:196|212:179,1,89.9999999999999,2|10,1:0|1:0,0:0:0:0:
129,215,127247,2,0,L|136:304,1,89.9999999999999,2|8,1:0|1:0,0:0:0:0:
116,345,127697,1,6,1:0:0:0:
95,384,127847,6,0,P|57:362|12:355,1,89.9999999999999,0|8,0:0|1:0,0:0:0:0:
40,269,128443,2,0,P|20:228|16:184,1,89.9999999999999,2|8,1:0|1:0,0:0:0:0:
86,127,129037,1,8,1:0:0:0:
86,127,129185,1,8,1:0:0:0:
86,127,129334,2,0,B|55:91|55:91|15:74,2,89.9999999999999,12|12|12,1:3|1:3|1:3,0:0:0:0:
170,101,130231,5,4,1:0:0:0:
509,351,135100,6,0,B|465:334|420:347|420:347|370:339|355:292,1,180,4|8,1:0|1:0,0:0:0:0:
265,137,136340,2,0,B|309:154|354:141|354:141|404:149|418:195,1,180,2|8,1:3|1:0,0:0:0:0:
246,250,137552,6,0,B|202:233|157:246|157:246|107:238|92:191,1,180,2|8,1:3|1:0,0:0:0:0:
204,44,138781,2,0,P|203:89|185:130,2,89.9999999999999,2|4|8,1:3|3:0|1:0,0:0:0:0:
241,18,139534,1,0,3:0:0:0:
284,30,139685,1,2,3:2:0:0:
354,85,139993,6,0,B|373:131|356:173|356:173|337:217|361:258,1,180,4|8,1:0|1:0,0:0:0:0:
193,323,141230,2,0,B|169:282|187:237|187:237|205:196|186:150,1,180,2|8,1:3|1:0,0:0:0:0:
17,85,142448,2,0,B|-2:131|15:173|15:173|34:217|10:258,1,180,2|8,1:3|1:0,0:0:0:0:
187,278,143657,2,0,P|168:237|133:210,2,89.9999999999999,2|2|10,3:2|3:2|3:2,0:0:0:0:
193,323,144412,1,0,0:0:0:0:
182,370,144569,1,8,3:0:0:0:
270,357,144848,6,0,L|275:267,1,89.9999999999999,4|0,1:0|3:0,0:0:0:0:
350,195,145470,2,0,P|392:209|424:240,1,89.9999999999999,8|0,1:0|3:0,0:0:0:0:
449,326,146079,2,0,B|411:350|411:350|366:356,2,89.9999999999999,2|0|8,1:3|3:0|1:0,0:0:0:0:
424,240,147002,1,0,3:0:0:0:
480,170,147309,6,0,L|486:81,1,89.9999999999999,2|0,1:3|3:0,0:0:0:0:
413,25,147921,2,0,P|374:47|351:85,1,89.9999999999999,8|0,1:0|3:0,0:0:0:0:
277,136,148533,2,0,B|235:113|235:113|217:75,2,89.9999999999999,2|0|8,1:3|3:0|1:0,0:0:0:0:
373,129,149427,1,8,3:0:0:0:
373,129,149582,1,8,3:0:0:0:
373,129,149737,6,0,L|364:222,1,89.9999999999999,4|0,1:0|3:0,0:0:0:0:
299,280,150358,2,0,P|261:256|240:216,1,89.9999999999999,8|0,1:0|3:0,0:0:0:0:
150,205,150967,2,0,B|106:216|106:216|76:248,2,89.9999999999999,2|0|8,1:3|3:0|1:0,0:0:0:0:
241,217,151879,1,0,3:0:0:0:
301,150,152182,6,0,L|304:105,1,45,8|0,1:0|1:0,0:0:0:0:
392,120,152642,2,0,L|395:165,1,45,8|0,1:0|1:0,0:0:0:0:
481,136,153092,2,0,P|468:72|416:32,2,135,8|8|8,1:0|1:0|1:0,0:0:0:0:
392,120,154299,1,8,1:0:0:0:
309,146,154598,6,0,B|237:134|237:134|194:88,1,135,6|2,1:0|1:0,0:0:0:0:
327,58,155516,1,10,1:0:0:0:
392,120,155816,2,0,P|393:164|372:204,1,89.9999999999999,2|8,1:0|1:0,0:0:0:0:
288,235,156416,2,0,L|198:231,1,89.9999999999999,2|10,1:0|1:0,0:0:0:0:
115,205,157016,6,0,B|43:217|43:217|0:262,1,135,6|2,1:0|1:0,0:0:0:0:
129,290,157913,1,10,1:0:0:0:
198,231,158216,2,0,P|199:186|178:146,1,89.9999999999999,2|8,1:0|1:0,0:0:0:0:
94,116,158822,2,0,L|4:119,1,89.9999999999999,2|10,1:0|1:0,0:0:0:0:
9,36,159424,6,0,B|77:40|77:40|140:19,1,135,6|2,1:0|1:0,0:0:0:0:
257,73,160319,1,10,1:0:0:0:
297,157,160631,2,0,L|287:248,1,89.9999999999999,2|8,1:0|1:0,0:0:0:0:
240,326,161231,2,0,P|196:312|165:280,1,89.9999999999999,2|10,1:0|1:0,0:0:0:0:
115,205,161825,6,0,B|43:217|43:217|0:262,1,135,6|2,1:0|1:0,0:0:0:0:
113,333,162707,1,10,1:0:0:0:
195,300,163005,2,0,B|240:302|240:302|281:283,1,89.9999999999999,10|8,1:3|1:0,0:0:0:0:
366,253,163609,2,0,B|359:207|359:207|373:166,1,89.9999999999999,8|4,1:0|1:3,0:0:0:0:
427,93,164236,6,0,L|335:84,1,89.9999999999999,14|8,1:0|0:0,0:0:0:0:
255,121,164827,2,0,P|230:85|190:66,1,89.9999999999999,10|8,1:0|1:0,0:0:0:0:
116,117,165418,2,0,L|107:209,1,89.9999999999999,10|8,1:0|1:0,0:0:0:0:
175,265,166009,2,0,P|215:246|240:209,1,89.9999999999999,8|8,1:0|1:0,0:0:0:0:
255,120,166615,6,0,P|240:208|278:288,1,180,12|8,1:0|1:0,0:0:0:0:
364,315,167519,1,8,1:0:0:0:
434,258,167821,2,0,P|448:170|410:90,1,180,8|8,1:0|1:0,0:0:0:0:
325,64,168725,1,8,1:0:0:0:
255,120,169027,6,0,B|165:110|165:110|128:84,2,135,14|2|10,1:0|1:0|1:0,0:0:0:0:
215,200,170215,2,0,B|125:190,1,89.9999999999999,10|0,1:0|0:0,0:0:0:0:
47,234,170815,2,0,P|33:276|46:318,1,89.9999999999999,10|8,1:0|1:0,0:0:0:0:
125,363,171425,6,0,B|215:353|215:353|288:303|288:303|379:309,1,270,14|8,1:0|1:0,0:0:0:0:
459,268,172616,2,0,P|478:228|476:183,1,89.9999999999999,8|8,1:0|1:0,0:0:0:0:
414,118,173212,2,0,B|371:131|371:131|328:121,1,89.9999999999999,10|8,1:0|1:0,0:0:0:0:
255,63,173808,6,0,P|212:54|168:60,1,89.9999999999999,12|8,1:0|1:0,0:0:0:0:
136,92,174260,2,0,P|150:134|144:178,1,89.9999999999999,2|2,1:2|1:3,0:0:0:0:
118,215,174712,1,8,1:0:0:0:
30,192,175014,2,0,L|36:330,1,135,8|0,1:0|1:0,0:0:0:0:
70,356,175617,2,0,P|114:358|155:341,1,89.9999999999999,8|8,1:0|1:0,0:0:0:0:
200,263,176220,6,0,P|269:317|357:316,1,180,8|8,1:0|1:0,0:0:0:0:
428,260,177124,1,8,1:0:0:0:
399,174,177426,2,0,P|329:119|241:120,1,180,8|8,1:0|1:0,0:0:0:0:
171,177,178314,1,8,1:0:0:0:
91,134,178617,6,0,L|85:45,2,89.9999999999999,8|8|8,1:0|1:0|1:0,0:0:0:0:
15,182,179526,1,8,1:0:0:0:
95,225,179829,2,0,L|101:314,2,89.9999999999999,10|10|10,1:0|1:0|1:0,0:0:0:0:
171,177,180720,1,10,1:0:0:0:
238,236,181005,6,0,B|282:243|282:243|326:230,1,89.9999999999999,12|8,1:0|1:0,0:0:0:0:
357,198,181466,2,0,B|364:154|364:154|351:110,1,89.9999999999999,4|0,1:0|1:0,0:0:0:0:
319,79,181912,1,4,1:0:0:0:
400,41,182212,1,12,1:3:0:0:
400,41,182362,1,8,1:3:0:0:
400,40,182512,2,0,P|444:47|480:72,2,89.9999999999999,12|12|12,1:3|1:3|1:3,0:0:0:0:
319,79,183409,6,0,L|229:75,1,89.9999999999999,6|8,1:0|1:0,0:0:0:0:
186,90,183873,2,0,B|211:2|211:2|255:4,1,135,6|14,1:0|1:0,0:0:0:0:
279,136,184751,1,6,1:0:0:0:
279,136,184901,1,8,0:0:0:0:
196,179,185215,2,0,P|170:214|165:258,1,89.9999999999999,14|8,1:0|1:0,0:0:0:0:
254,243,185818,6,0,B|305:243|333:279|333:279|355:237|403:228,1,180,4|2,1:0|1:2,0:0:0:0:
412,317,186713,1,8,1:0:0:0:
330,358,187012,1,2,1:2:0:0:
238,348,187312,1,10,1:2:0:0:
186,280,187606,2,0,L|93:285,1,89.9999999999999,2|8,1:2|1:2,0:0:0:0:
23,338,188206,6,0,P|57:365|101:373,1,89.9999999999999,6|8,1:0|1:0,0:0:0:0:
140,350,188653,2,0,B|156:314|141:279|141:279|127:243|137:218,1,135,6|14,1:0|1:0,0:0:0:0:
256,290,189560,1,6,1:0:0:0:
256,290,189715,1,8,0:0:0:0:
264,200,190014,2,0,L|274:96,1,89.9999999999999,6|8,1:0|1:0,0:0:0:0:
263,20,190611,6,0,P|307:24|342:51,1,89.9999999999999,4|8,1:0|1:0,0:0:0:0:
383,130,191208,2,0,P|379:174|352:209,1,89.9999999999999,2|8,1:2|1:0,0:0:0:0:
273,253,191808,2,0,P|228:249|193:222,1,89.9999999999999,2|10,1:2|1:2,0:0:0:0:
162,139,192415,2,0,P|165:94|192:59,1,89.9999999999999,2|10,1:2|1:2,0:0:0:0:
118,27,192995,5,4,1:0:0:0:
118,27,193148,2,0,B|79:3|79:3|34:-1,1,89.9999999999999,0|2,1:0|1:0,0:0:0:0:
33,47,193610,1,8,1:0:0:0:
33,47,193766,2,0,L|39:140,1,89.9999999999999,0|8,1:0|1:0,0:0:0:0:
66,172,194222,2,0,L|60:261,1,89.9999999999999,8|0,1:0|1:0,0:0:0:0:
92,293,194672,1,8,1:0:0:0:
128,320,194822,2,0,P|171:326|212:307,1,89.9999999999999,4|8,1:0|1:0,0:0:0:0:
285,254,195431,6,0,L|281:164,2,89.9999999999999,4|8|2,1:0|1:0|1:2,0:0:0:0:
212,306,196317,1,8,1:0:0:0:
297,333,196613,2,0,P|336:319|367:261,1,89.9999999999999,2|10,1:2|1:2,0:0:0:0:
308,209,197204,2,0,P|307:164|329:125,1,89.9999999999999,2|10,1:2|1:2,0:0:0:0:
363,49,197784,6,0,B|273:58|273:58|229:46,1,135,12|12,1:0|1:0,0:0:0:0:
104,3,198700,1,12,1:0:0:0:
89,146,199160,1,12,1:0:0:0:
72,274,199599,1,4,1:3:0:0:
161,284,199903,1,4,1:3:0:0:
251,287,200208,6,0,B|258:243|258:243|243:200,1,89.9999999999999,8|8,1:0|1:0,0:0:0:0:
152,200,200817,2,0,B|108:207|108:207|65:192,1,89.9999999999999,10|10,1:2|1:2,0:0:0:0:
39,103,201426,2,0,P|30:59|36:14,2,89.9999999999999,8|8|10,1:0|1:0|1:2,0:0:0:0:
65,192,202321,1,10,1:2:0:0:
152,200,202620,6,0,L|160:110,1,89.9999999999999,12|8,1:0|1:0,0:0:0:0:
246,83,203217,2,0,L|254:172,1,89.9999999999999,8|8,1:0|1:0,0:0:0:0:
339,201,203814,2,0,L|347:111,2,89.9999999999999,10|10|10,1:2|1:2|1:2,0:0:0:0:
333,290,204705,1,10,1:2:0:0:
412,249,205002,6,0,P|452:230|480:195,1,89.9999999999999,12|8,1:0|1:0,0:0:0:0:
437,115,205602,2,0,P|396:95|368:60,1,89.9999999999999,8|8,1:0|1:0,0:0:0:0:
280,44,206202,2,0,L|286:133,2,89.9999999999999,8|8|8,1:0|1:0|1:0,0:0:0:0:
193,18,207102,1,8,1:0:0:0:
117,66,207402,6,0,P|101:107|107:152,1,89.9999999999999,4|12,1:0|1:3,0:0:0:0:
165,220,208008,2,0,P|170:264|155:306,1,89.9999999999999,12|12,1:3|1:3,0:0:0:0:
225,362,208614,2,0,L|317:356,1,89.9999999999999,12|12,1:3|1:3,0:0:0:0:
344,322,209066,1,8,1:3:0:0:
373,288,209217,2,0,L|462:266,1,89.9999999999999,12|12,1:3|1:3,0:0:0:0:
483,227,209669,1,8,1:3:0:0:
499,184,209840,6,0,P|456:195|412:191,1,89.9999999999999,6|8,1:0|1:0,0:0:0:0:
373,110,210431,2,0,P|307:100|250:134,1,135,2|0,1:0|1:0,0:0:0:0:
234,175,211022,2,0,B|190:187|190:187|147:174,1,89.9999999999999,2|10,1:0|1:0,0:0:0:0:
86,240,211613,2,0,B|73:282|73:282|85:326,1,89.9999999999999,2|8,1:0|1:0,0:0:0:0:
120,354,212056,1,4,1:0:0:0:
159,375,212204,6,0,L|252:366,1,89.9999999999999,0|8,0:0|1:0,0:0:0:0:
337,377,212804,2,0,P|353:312|405:272,1,135,2|0,1:0|1:0,0:0:0:0:
450,275,213411,2,0,B|429:234|429:234|426:190,1,89.9999999999999,2|10,1:0|1:0,0:0:0:0:
338,211,214014,2,0,B|317:170|317:170|314:126,1,89.9999999999999,2|8,1:0|1:0,0:0:0:0:
273,105,214466,1,2,1:0:0:0:
228,94,214617,6,0,P|196:123|183:166,1,89.9999999999999,6|8,1:0|1:0,0:0:0:0:
198,255,215217,2,0,P|207:298|238:330,1,89.9999999999999,2|8,1:0|1:0,0:0:0:0:
322,363,215817,2,0,P|364:376|407:365,2,89.9999999999999,2|10|2,1:0|1:0|1:0,0:0:0:0:
238,330,216717,1,8,1:0:0:0:
238,330,216867,6,0,L|242:195,1,135,4|8,1:0|1:0,0:0:0:0:
204,114,217617,2,0,P|171:144|154:185,1,89.9999999999999,2|10,1:0|1:0,0:0:0:0:
75,221,218217,2,0,B|101:256|101:256|145:273,2,89.9999999999999,2|10|2,1:0|1:0|1:0,0:0:0:0:
83,132,219117,1,8,1:0:0:0:
154,186,219424,6,0,P|187:156|204:115,1,89.9999999999999,4|8,1:0|1:0,0:0:0:0:
268,53,220027,2,0,P|312:62|348:89,1,89.9999999999999,2|8,1:0|1:0,0:0:0:0:
283,151,220630,2,0,P|239:141|203:114,1,89.9999999999999,2|10,1:0|1:0,0:0:0:0:
154,186,221221,1,2,1:0:0:0:
154,186,221368,2,0,L|159:275,1,89.9999999999999,0|6,1:0|1:0,0:0:0:0:
165,319,221819,6,0,P|203:297|247:290,1,89.9999999999999,0|10,0:0|1:0,0:0:0:0:
325,337,222413,2,0,B|370:346|370:346|413:336,1,89.9999999999999,2|8,1:0|1:0,0:0:0:0:
464,263,223007,2,0,P|494:296|503:339,2,89.9999999999999,2|10|2,1:0|1:0|1:0,0:0:0:0:
413,336,223911,1,8,1:0:0:0:
374,253,224199,6,0,P|398:216|406:172,1,89.9999999999999,0|8,0:0|1:0,0:0:0:0:
384,84,224807,2,0,P|346:59|302:51,1,89.9999999999999,2|8,1:0|1:0,0:0:0:0:
242,118,225413,2,0,P|204:142|160:150,1,89.9999999999999,2|10,1:0|1:0,0:0:0:0:
73,125,226016,2,0,L|68:214,1,89.9999999999999,2|8,1:0|1:0,0:0:0:0:
89,254,226468,1,4,1:0:0:0:
110,293,226613,6,0,L|199:301,1,89.9999999999999,0|10,0:0|1:0,0:0:0:0:
272,354,227213,2,0,L|280:264,1,89.9999999999999,2|8,1:0|1:0,0:0:0:0:
367,287,227813,2,0,L|375:376,2,89.9999999999999,4|4|8,1:3|1:3|1:0,0:0:0:0:
440,234,228717,1,8,1:0:0:0:
392,157,229026,6,0,P|386:112|397:69,1,89.9999999999999,12|8,1:0|1:0,0:0:0:0:
486,67,229623,2,0,P|492:111|481:155,2,89.9999999999999,8|8|8,1:0|1:0|1:0,0:0:0:0:
397,69,230518,2,0,P|386:112|392:157,2,89.9999999999999,8|8|12,1:0|1:0|1:0,0:0:0:0:
317,26,231414,6,0,B|272:19|272:19|228:27,1,89.9999999999999,8|8,1:0|1:0,0:0:0:0:
200,113,232011,2,0,B|245:120|245:120|288:111,2,89.9999999999999,8|8|8,1:0|1:0|1:0,0:0:0:0:
228,27,232906,2,0,B|272:19|272:19|317:26,2,89.9999999999999,8|8|12,1:0|1:0|1:0,0:0:0:0:
200,113,233810,6,0,L|208:202,1,89.9999999999999,8|8,1:0|1:0,0:0:0:0:
119,215,234407,2,0,L|111:126,2,89.9999999999999,8|8|8,1:0|1:0|1:0,0:0:0:0:
208,202,235306,2,0,L|200:113,2,89.9999999999999,8|8|12,1:0|1:0|1:0,0:0:0:0:
275,261,236213,6,0,B|320:272|320:272|363:262,1,89.9999999999999,8|8,1:0|1:0,0:0:0:0:
444,225,236802,2,0,P|430:182|436:137,1,89.9999999999999,8|8,1:0|1:0,0:0:0:0:
466,104,237245,1,8,1:0:0:0:
466,104,237393,1,8,1:3:0:0:
466,104,237540,2,0,L|366:112,1,89.9999999999999,8|8,1:0|1:0,0:0:0:0:
338,135,237991,1,8,1:3:0:0:
273,71,238295,6,0,B|230:86|230:86|186:74|186:74|146:88|146:88|103:69,1,180,0|0,1:0|2:0,0:0:0:0:
