osu file format v14

[General]
AudioFilename: audio.mp3
AudioLeadIn: 0
PreviewTime: 110959
Countdown: 0
SampleSet: Soft
StackLeniency: 0.5
Mode: 0
LetterboxInBreaks: 0
WidescreenStoryboard: 1

[Editor]
Bookmarks: 39051,70239,111050,142450,173823,197793,209822,219422
DistanceSpacing: 1
BeatDivisor: 4
GridSize: 4
TimelineZoom: 1.500001

[Metadata]
Title:Trashed, Lost & Strungout
TitleUnicode:Trashed, Lost & Strungout
Artist:Children Of Bodom
ArtistUnicode:Children Of Bodom
Creator:FCL
Version:Collab Easy
Source:
Tags:are you dead yet? melodic death metal cob wajinshu deppyforce Maakkeli mkl themefisto feb Makeli english
BeatmapID:1105692
BeatmapSetID:497378

[Difficulty]
HPDrainRate:3
CircleSize:3.6
OverallDifficulty:4
ApproachRate:5
SliderMultiplier:0.799999999999999
SliderTickRate:1

[Events]
//Background and Video events
0,0,"children_of_bodom_obraz_vesele_telefon_flamingo_1920x1080.jpg",0,0
//Break Periods
2,144852,151892
2,207602,208640
//Storyboard Layer 0 (Background)
//Storyboard Layer 1 (Fail)
//Storyboard Layer 2 (Pass)
//Storyboard Layer 3 (Foreground)
//Storyboard Layer 4 (Overlay)
//Storyboard Sound Samples

[TimingPoints]
55,317.460317460317,4,2,1,60,1,0
658,298.507462686567,4,2,1,60,1,0
956,289.855072463768,4,2,1,60,1,0
1535,306.122448979592,4,2,1,60,1,0
1841,304.568527918782,4,2,1,60,1,0
3053,299.475917144996,4,2,1,60,1,0
5442,318.302387267905,4,2,1,60,1,0
5760,295.566502463054,4,2,1,60,1,0
6351,306.122448979592,4,2,1,60,1,0
6657,291.26213592233,4,2,1,60,1,0
7239,300,4,2,1,60,1,0
7839,304.568527918781,4,2,1,60,1,0
9050,297.766749379653,4,2,1,60,1,0
10250,300,4,2,1,60,1,0
12045,289.855072463768,4,1,1,60,1,0
12638,300.751879699248,4,1,1,60,1,0
13841,283.687943262411,4,1,1,60,1,0
14408,301.507537688442,4,1,1,60,1,0
15029,303.030303030303,4,1,1,60,1,0
17451,300,4,1,1,60,1,0
23601,293.398533007335,4,1,1,60,1,0
24651,300,4,1,1,60,1,0
33051,297.029702970297,4,1,1,60,1,0
36370,288.461538461538,4,1,1,60,1,0
36658,300,4,2,1,60,1,0
39058,300,4,1,1,60,1,0
46252,295.566502463054,4,1,1,60,1,0
47729,307.692307692308,4,1,1,60,1,0
48036,303.030303030303,4,1,1,60,1,0
48642,306.122448979592,4,1,1,60,1,0
49101,291.26213592233,4,1,1,60,1,0
49537,309.278350515464,4,1,1,60,1,0
50155,303.030303030303,4,1,1,60,1,0
51059,298.507462686567,4,1,1,60,1,0
53453,296.296296296296,4,1,1,60,1,0
54333,300,4,1,1,60,1,0
54783,326.086956521739,4,1,1,60,1,0
54946,300,4,1,1,60,1,0
55246,304.568527918782,4,1,1,60,1,0
55851,298.507462686567,4,1,1,60,1,0
57039,300,4,1,1,60,1,0
57339,315.78947368421,4,1,1,60,1,0
57812,304.568527918782,4,1,1,60,1,0
58256,300,4,1,1,60,1,0
59156,289.855072463768,4,1,1,60,1,0
59445,300,4,1,1,60,1,0
63045,309.278350515464,4,1,1,60,1,0
63354,300,4,1,1,60,1,0
64254,300,4,1,1,60,1,0
66498,272.727272727273,4,1,1,60,1,0
66770,288.461538461538,4,1,1,60,1,0
67058,315.78947368421,4,1,1,60,1,0
67215,317.460317460317,4,1,1,60,1,0
67849,294.117647058824,4,1,1,60,1,0
68143,306.122448979592,4,1,1,60,1,0
68296,288.461538461538,4,1,1,60,1,0
68728,314.13612565445,4,1,1,60,1,0
69199,309.278350515464,4,1,1,60,1,0
69353,312.5,4,1,1,60,1,0
69665,297.029702970297,4,1,1,60,1,0
69962,284.36018957346,4,1,1,60,1,0
70246,303.79746835443,4,1,1,60,1,0
71461,295.566502463054,4,1,1,60,1,0
72639,300,4,1,1,60,1,0
73839,305.732484076433,4,1,1,60,1,0
74450,297.029702970297,4,1,1,60,1,0
74747,298.507462686567,4,1,1,60,1,0
75045,299.550673989016,4,1,1,60,1,0
79837,310.880829015544,4,1,1,60,1,0
80147,301.507537688443,4,1,1,60,1,0
81051,301.507537688442,4,1,1,60,1,0
82257,295.566502463054,4,1,1,60,1,0
83439,303.030303030303,4,1,1,60,1,0
84651,299.850074962519,4,1,1,60,1,0
88239,300,4,1,1,60,1,0
89439,309.278350515464,4,1,1,60,1,0
90057,300,4,1,1,60,1,0
90657,299.850074962519,4,1,1,60,1,0
98003,297.176820208024,4,1,1,60,1,0
99045,300,4,1,1,60,1,0
102489,291.26213592233,4,1,1,60,1,0
102634,298.507462686567,4,1,1,60,1,0
103684,309.278350515464,4,1,1,60,1,0
103838,303.030303030303,4,1,1,60,1,0
104141,299.25187032419,4,1,1,60,1,0
105936,301.507537688442,4,1,1,60,1,0
106237,306.122448979592,4,1,1,60,1,0
106849,304.568527918782,4,1,1,60,1,0
107458,297.029702970297,4,1,1,60,1,0
108646,298.507462686567,4,1,1,60,1,0
110138,294.117647058824,4,1,1,60,1,0
110432,301.507537688442,4,1,1,60,1,0
111035,329.67032967033,4,1,1,60,1,0
111364,289.855072463768,4,1,1,60,1,0
111943,301.507537688442,4,1,1,60,1,0
112244,300,4,1,1,60,1,0
115844,303.030303030303,4,1,1,60,1,0
117056,300,4,1,1,60,1,0
124850,298.507462686567,4,1,1,60,1,0
125447,300,4,1,1,60,1,0
128146,297.029702970297,4,1,1,60,1,0
129037,297.029702970297,4,1,1,60,1,0
130231,307.692307692308,4,2,1,60,1,0
132691,295.566502463054,4,2,1,60,1,0
133577,304.568527918782,4,2,1,60,1,0
133881,304.568527918782,4,2,1,60,1,0
134490,305.343511450382,4,2,1,60,1,0
135100,312.5,4,3,1,60,1,0
135725,307.534597642235,4,3,1,60,1,0
136340,301.507537688442,4,3,1,60,1,0
136943,304.568527918782,4,3,1,60,1,0
137552,319.148936170213,4,3,1,60,1,0
138190,295.566502463054,4,3,1,60,1,0
138781,301.507537688442,4,3,1,60,1,0
139993,309.278350515464,4,3,1,60,1,0
141230,304.568527918782,4,3,1,60,1,0
142448,298.507462686567,4,3,1,60,1,0
143045,306.122448979592,4,3,1,60,1,0
143657,298.507462686567,4,3,1,60,1,0
144254,317.460317460317,4,3,1,60,1,0
144569,279.069767441861,4,3,1,60,1,0
144848,312.5,4,3,1,60,1,0
145470,304.568527918782,4,3,1,60,1,0
146079,307.692307692308,4,3,1,60,1,0
147309,306.122448979592,4,3,1,60,1,0
148533,300,4,3,1,60,1,0
149133,294.117647058824,4,3,1,60,1,0
149427,310.880829015544,4,3,1,60,1,0
149737,310.880829015544,4,3,1,60,1,0
150358,304.568527918782,4,3,1,60,1,0
151576,303.030303030303,4,3,1,60,1,0
152182,314.13612565445,4,3,1,60,1,0
152339,303.030303030303,4,1,1,60,1,0
152642,312.5,4,1,1,60,1,0
152798,289.855072463768,4,1,1,60,1,0
153092,303.030303030303,4,1,1,60,1,0
154001,298.507462686567,4,1,1,60,1,0
154598,324.324324324324,4,1,1,60,1,0
154922,297.029702970297,4,1,1,60,1,0
155516,300,4,1,1,60,1,0
155816,300,4,1,1,60,1,0
157913,303.030303030303,4,1,1,60,1,0
158216,303.030303030303,4,1,1,60,1,0
159424,298.507462686567,4,1,1,60,1,0
160319,312.5,4,1,1,60,1,0
160631,300,4,1,1,60,1,0
161231,291.26213592233,4,1,1,60,1,0
161522,303.030303030303,4,1,1,60,1,0
161825,300,4,1,1,60,1,0
162125,291.26213592233,4,1,1,60,1,0
162707,294.117647058824,4,1,1,60,1,0
163005,302.267002518892,4,1,1,60,1,0
164236,295.566502463054,4,1,1,60,1,0
166009,303.030303030303,4,1,1,60,1,0
166615,301.507537688442,4,1,1,60,1,0
169027,297.029702970297,4,1,1,60,1,0
170215,300,4,1,1,60,1,0
171115,310.880829015544,4,1,1,60,1,0
171425,298.507462686567,4,1,1,60,1,0
172616,298.06259314456,4,1,1,60,1,0
173808,301.507537688442,4,1,1,60,1,0
177722,296.296296296297,4,1,1,60,1,0
178314,303.030303030303,4,1,1,60,1,0
178617,303.030303030303,4,1,1,60,1,0
179829,297.029702970297,4,1,1,60,1,0
180429,291.26213592233,4,1,1,60,1,0
181005,303.030303030303,4,1,1,60,1,0
181308,317.460317460317,4,1,1,60,1,0
181625,287.081339712919,4,1,1,60,1,0
181912,300,4,1,1,60,1,0
182212,300,4,1,1,60,1,0
183409,312.5,4,1,1,60,1,0
183873,285.714285714286,4,1,1,60,1,0
184301,300,4,1,1,60,1,0
184901,314.13612565445,4,1,1,60,1,0
185215,301.507537688442,4,1,1,60,1,0
185818,298.507462686567,4,1,1,60,1,0
187012,292.682926829268,4,1,1,60,1,0
187158,309.278350515464,4,1,1,60,1,0
187312,294.117647058824,4,1,1,60,1,0
187606,300,4,1,1,60,1,0
188206,298.507462686567,4,1,1,60,1,0
188803,294.117647058824,4,1,1,60,1,0
189097,309.278350515464,4,1,1,60,1,0
190014,298.507462686567,4,1,1,60,1,0
190611,298.507462686567,4,1,1,60,1,0
191208,300,4,1,1,60,1,0
191808,300,4,1,1,60,1,0
192415,292.682926829268,4,1,1,60,1,0
192707,288.461538461538,4,1,1,60,1,0
192995,306.122448979592,4,1,1,60,1,0
193454,312.5,4,1,1,60,1,0
193922,300,4,1,1,60,1,0
194222,300,4,1,1,60,1,0
195431,295.566502463054,4,1,1,60,1,0
197499,285.714285714286,4,1,1,60,1,0
197784,304.568527918782,4,1,1,60,1,0
198088,329.67032967033,4,1,1,60,1,0
198252,295.566502463054,4,1,1,60,1,0
198547,306.122448979592,4,1,1,60,1,0
198853,307.692307692308,4,1,1,60,1,0
199160,287.081339712919,4,1,1,60,1,0
199447,304.568527918782,4,1,1,60,1,0
200208,304.568527918782,4,1,1,60,1,0
201426,298.507462686567,4,1,1,60,1,0
203814,297.029702970297,4,1,1,60,1,0
205002,300,4,1,1,60,1,0
207402,303.030303030303,4,1,1,60,1,0
208614,301.507537688442,4,1,1,60,1,0
209840,295.566502463054,4,1,1,60,1,0
212204,300,4,1,1,60,1,0
213411,301.507537688442,4,1,1,60,1,0
214617,300,4,1,1,60,1,0
219424,301.507537688442,4,1,1,60,1,0
220630,295.566502463054,4,1,1,60,1,0
221516,303.030303030303,4,1,1,60,1,0
221819,297.029702970297,4,1,1,60,1,0
223007,301.507537688442,4,1,1,60,1,0
223911,288.461538461538,4,1,1,60,1,0
224199,314.13612565445,4,1,1,60,1,0
224513,294.117647058824,4,1,1,60,1,0
225101,312.5,4,1,1,60,1,0
225413,301.507537688442,4,1,1,60,1,0
226613,300,4,1,1,60,1,0
227813,301.507537688442,4,1,1,60,1,0
229026,298.507462686567,4,1,1,60,1,0
233503,307.692307692308,4,1,1,60,1,0
233810,298.507462686567,4,1,1,60,1,0
235004,302.267002518892,4,1,1,60,1,0
236213,295.566502463054,4,1,1,60,1,0
236802,295.566502463054,4,1,1,60,1,0
237688,303.951367781155,4,1,1,60,1,0
238295,289.855072463768,4,1,1,60,1,0

[Colours]
Combo1 : 103,103,192
Combo2 : 248,102,39
Combo3 : 252,200,20
Combo4 : 57,152,208

[HitObjects]
44,244,658,5,4,1:0:0:0:
44,244,956,2,0,P|129:227|163:150,1,160,0|0,1:0|1:0,0:0:0:0:
81,163,1841,2,0,L|77:69,1,79.9999999999999,0|0,1:0|1:0,0:0:0:0:
159,87,2450,2,0,L|162:166,1,79.9999999999999,0|0,1:0|1:0,0:0:0:0:
233,202,3053,2,0,B|349:235|349:151|490:204,1,240,0|0,1:0|1:0,0:0:0:0:
490,273,4250,2,0,P|466:309|446:369,1,79.9999999999999,0|0,1:0|1:0,0:0:0:0:
374,324,4849,2,0,P|358:287|336:254,1,79.9999999999999,0|2,1:0|1:2,0:0:0:0:
268,220,5442,6,0,L|173:217,1,79.9999999999999,4|0,1:0|1:0,0:0:0:0:
127,269,6055,1,0,1:0:0:0:
60,229,6351,1,0,1:0:0:0:
70,145,6657,2,0,P|140:151|190:65,1,160,0|0,1:0|1:0,0:0:0:0:
264,55,7539,1,0,1:0:0:0:
277,132,7839,2,0,B|285:192|285:192|261:260,2,120,4|0|0,1:0|2:0|1:0,0:0:0:0:
264,55,9050,2,0,B|346:44|346:44|438:76,1,160,6|4,1:3|1:3,0:0:0:0:
431,148,9943,1,4,1:3:0:0:
480,210,10250,6,0,P|416:226|367:194,2,120,4|0|0,1:0|2:0|1:0,0:0:0:0:
431,148,11450,2,0,P|410:119|355:94,1,79.9999999999999,0|0,1:0|1:0,0:0:0:0:
291,111,12045,1,8,1:3:0:0:
256,192,12117,12,8,13841,1:0:0:0:
105,79,15029,6,0,P|141:167|177:79,1,240,12|10,1:0|1:2,0:0:0:0:
241,31,16241,2,0,P|272:103|188:238,1,240,10|10,1:2|1:2,0:0:0:0:
129,277,17451,2,0,B|190:243|240:286|240:286|301:329|362:285,1,240,10|10,1:2|1:2,0:0:0:0:
410,236,18651,2,0,L|404:70,1,160,10|10,1:2|1:2,0:0:0:0:
336,33,19551,1,10,1:2:0:0:
276,86,19851,6,0,B|208:86|208:86|164:58|164:58|116:86|116:86|48:86,1,240,12|10,1:0|1:2,0:0:0:0:
46,6,21051,2,0,P|128:70|58:164,1,240,10|10,1:2|1:2,0:0:0:0:
36,238,22251,2,0,B|116:239|116:239|171:267|171:267|274:268,1,240,12|10,1:0|1:2,0:0:0:0:
348,259,23451,1,12,1:0:0:0:
413,213,23747,2,0,P|420:158|419:122,2,79.9999999999999,8|8|8,1:3|1:3|1:3,0:0:0:0:
348,259,24651,6,0,B|334:306|334:306|356:374,2,120,6|2|10,1:0|1:0|1:0,0:0:0:0:
410,209,25851,2,0,L|492:208,1,79.9999999999999,2|8,1:0|1:0,0:0:0:0:
475,129,26451,2,0,L|393:128,1,79.9999999999999,2|10,1:0|1:0,0:0:0:0:
315,134,27051,2,0,B|301:87|301:87|323:19,2,120,6|2|10,1:0|1:0|1:0,0:0:0:0:
353,204,28251,2,0,L|392:290,1,79.9999999999999,2|8,1:0|1:0,0:0:0:0:
327,331,28851,2,0,L|288:245,1,79.9999999999999,2|10,1:0|1:0,0:0:0:0:
253,188,29451,6,0,P|155:185|128:188,2,120,6|2|10,1:0|1:0|1:0,0:0:0:0:
331,205,30651,2,0,P|327:170|325:115,1,79.9999999999999,2|8,1:0|1:0,0:0:0:0:
374,62,31251,1,2,1:0:0:0:
450,83,31551,1,10,1:0:0:0:
489,152,31851,2,0,P|492:250|489:277,2,120,6|2|10,1:0|1:0|1:0,0:0:0:0:
450,83,33051,6,0,B|391:83|391:83|335:62|335:62|299:73|255:58|255:58|189:110|232:164,1,320,12|2,1:3|1:0,0:0:0:0:
133,144,36658,6,0,P|94:135|10:134,2,120,2|2|2,2:0|2:0|2:0,0:0:0:0:
191,198,37858,2,0,P|230:207|314:208,2,120,2|0|2,2:0|2:0|2:0,0:0:0:0:
113,219,39058,6,0,L|107:310,1,79.9999999999999,4|8,1:0|1:0,0:0:0:0:
165,354,39658,2,0,P|211:345|251:344,1,79.9999999999999,0|10,1:0|1:2,0:0:0:0:
308,296,40258,2,0,P|356:306|394:306,1,79.9999999999999,2|10,1:2|1:2,0:0:0:0:
443,249,40858,1,2,1:2:0:0:
443,249,41158,1,10,1:0:0:0:
375,206,41458,6,0,B|359:172|359:172|361:123,1,79.9999999999999,0|8,1:0|1:0,0:0:0:0:
387,54,42058,1,2,1:2:0:0:
276,101,42508,2,0,P|206:86|143:92,1,120,6|8,1:0|1:0,0:0:0:0:
126,162,43258,1,2,1:2:0:0:
215,242,43708,6,0,B|292:262|292:262|344:246,1,120,4|8,1:0|1:0,0:0:0:0:
354,173,44458,2,0,L|447:169,1,79.9999999999999,0|10,1:0|1:2,0:0:0:0:
410,245,45058,2,0,L|313:250,1,79.9999999999999,2|10,1:2|1:2,0:0:0:0:
271,194,45658,1,2,1:2:0:0:
271,194,45958,1,10,1:0:0:0:
225,128,46252,6,0,P|187:119|138:119,1,79.9999999999999,2|8,1:2|1:0,0:0:0:0:
124,195,46843,1,2,1:2:0:0:
213,275,47286,2,0,L|343:265,1,120,6|8,1:0|1:0,0:0:0:0:
411,253,48036,2,0,P|421:218|422:162,1,79.9999999999999,12|12,1:3|1:3,0:0:0:0:
451,100,48642,6,0,P|387:83|330:84,1,120,6|6,1:0|1:0,0:0:0:0:
276,180,49537,2,0,P|247:173|207:85,1,120,14|6,1:0|1:0,0:0:0:0:
121,12,50458,1,6,1:0:0:0:
97,85,50761,1,8,1:0:0:0:
79,163,51059,6,0,L|-12:165,1,79.9999999999999,4|8,1:0|1:0,0:0:0:0:
21,241,51656,2,0,L|100:239,1,79.9999999999999,2|8,1:2|1:0,0:0:0:0:
179,226,52253,2,0,P|191:192|199:137,1,79.9999999999999,2|10,1:2|1:2,0:0:0:0:
272,178,52850,2,0,P|278:217|291:255,1,79.9999999999999,2|10,1:2|1:2,0:0:0:0:
348,311,53453,6,0,P|282:298|215:301,1,120,6|6,1:0|1:0,0:0:0:0:
170,198,54333,2,0,P|240:192|296:177,1,120,14|6,1:0|1:0,0:0:0:0:
400,227,55246,1,6,1:0:0:0:
474,196,55550,1,8,1:0:0:0:
409,145,55851,6,0,P|399:110|395:65,1,79.9999999999999,8|8,1:0|1:0,0:0:0:0:
320,93,56448,2,0,P|316:132|305:171,1,79.9999999999999,10|10,1:2|1:2,0:0:0:0:
244,220,57039,1,2,1:2:0:0:
244,220,58256,6,0,P|199:210|157:209,1,79.9999999999999,4|10,1:0|1:2,0:0:0:0:
137,287,58856,2,0,L|55:289,1,79.9999999999999,0|10,1:0|1:2,0:0:0:0:
85,211,59445,2,0,L|174:208,1,79.9999999999999,2|10,1:2|1:2,0:0:0:0:
223,159,60045,1,2,1:2:0:0:
223,159,60345,1,10,1:0:0:0:
270,94,60645,6,0,P|317:87|358:88,1,79.9999999999999,2|8,1:2|1:0,0:0:0:0:
403,145,61245,1,2,1:2:0:0:
306,216,61695,2,0,L|181:210,1,120,6|8,1:0|1:0,0:0:0:0:
117,251,62445,1,2,1:2:0:0:
49,207,62745,5,10,1:2:0:0:
26,132,63045,2,0,L|37:39,1,79.9999999999999,0|10,0:0|1:2,0:0:0:0:
109,21,63654,2,0,L|199:16,1,79.9999999999999,0|10,1:0|1:2,0:0:0:0:
235,81,64254,2,0,L|328:85,1,79.9999999999999,2|10,1:2|1:2,0:0:0:0:
380,130,64854,1,2,1:2:0:0:
380,130,65154,1,2,1:0:0:0:
443,178,65454,6,0,P|455:229|457:261,1,79.9999999999999,2|10,1:2|1:2,0:0:0:0:
419,327,66054,1,0,1:0:0:0:
323,253,66498,1,6,1:0:0:0:
203,258,66914,1,8,1:0:0:0:
162,322,67215,2,0,L|75:326,1,79.9999999999999,12|12,1:3|1:3,0:0:0:0:
27,257,67849,5,6,1:0:0:0:
64,138,68296,2,0,P|118:143|161:87,1,120,6|14,1:0|1:0,0:0:0:0:
278,73,69199,1,6,1:0:0:0:
378,147,69665,1,6,1:0:0:0:
306,190,69962,1,8,1:0:0:0:
234,166,70246,6,0,P|241:135|241:83,1,79.9999999999999,4|8,1:0|1:0,0:0:0:0:
193,23,70853,2,0,P|161:19|109:24,1,79.9999999999999,2|8,1:2|1:0,0:0:0:0:
45,70,71461,2,0,L|51:155,1,79.9999999999999,2|10,1:2|1:2,0:0:0:0:
59,230,72052,2,0,L|53:309,1,79.9999999999999,2|10,1:2|1:2,0:0:0:0:
131,326,72639,6,0,P|212:316|269:317,2,120,6|6|14,1:0|1:0|1:0,0:0:0:0:
59,230,73991,2,0,L|47:95,1,120,6|6,1:0|1:0,0:0:0:0:
67,32,74747,1,8,1:0:0:0:
144,60,75045,6,0,B|220:80|220:40|304:64,1,160,12|8,1:0|1:0,0:0:0:0:
376,92,75943,1,8,1:0:0:0:
348,168,76243,2,0,P|344:216|348:256,1,79.9999999999999,8|8,1:0|1:0,0:0:0:0:
267,264,76842,2,0,P|269:224|265:184,1,79.9999999999999,8|8,1:0|1:0,0:0:0:0:
211,125,77441,6,0,L|117:121,2,79.9999999999999,8|8|8,1:0|1:0|1:0,0:0:0:0:
281,87,78340,1,8,1:0:0:0:
342,35,78639,2,0,L|437:32,1,79.9999999999999,8|8,1:0|1:0,0:0:0:0:
480,86,79238,2,0,P|485:125|483:175,1,79.9999999999999,8|8,1:0|1:0,0:0:0:0:
422,212,79837,5,6,1:0:0:0:
332,294,80297,2,0,P|296:285|267:205,1,120,2|10,1:0|1:0,0:0:0:0:
275,135,81051,2,0,P|235:131|186:131,1,79.9999999999999,2|8,1:0|1:0,0:0:0:0:
159,202,81654,2,0,P|119:201|79:197,1,79.9999999999999,2|10,1:0|1:0,0:0:0:0:
19,141,82257,6,0,P|4:54|12:6,1,120,2|2,1:0|1:0,0:0:0:0:
127,26,83143,1,10,1:0:0:0:
191,69,83439,2,0,L|288:60,1,79.9999999999999,2|8,1:0|1:0,0:0:0:0:
332,112,84045,2,0,L|429:121,1,79.9999999999999,2|8,1:0|1:0,0:0:0:0:
482,156,84651,6,0,P|489:100|437:42,2,120,6|2|10,1:0|1:0|1:0,0:0:0:0:
446,227,85850,2,0,B|401:222|401:222|360:231,1,79.9999999999999,2|8,1:0|1:0,0:0:0:0:
296,267,86450,2,0,B|287:305|287:305|295:346,1,79.9999999999999,2|10,1:0|1:0,0:0:0:0:
372,326,87049,6,0,B|410:335|410:335|497:333,2,120,6|2|10,1:0|1:0|1:0,0:0:0:0:
294,345,88239,2,0,P|174:336|120:338,1,160,14|12,1:3|1:3,0:0:0:0:
58,311,89139,1,14,1:3:0:0:
120,263,89439,6,0,B|112:221|112:221|117:129,1,120,6|2,1:0|1:0,0:0:0:0:
235,124,90357,1,0,0:0:0:0:
240,203,90657,2,0,P|277:196|330:196,1,79.9999999999999,2|8,1:0|1:0,0:0:0:0:
352,268,91256,1,0,1:0:0:0:
430,252,91556,1,12,1:0:0:0:
465,180,91856,6,0,L|462:93,1,79.9999999999999,0|10,1:0|1:0,0:0:0:0:
391,61,92456,1,2,1:0:0:0:
278,102,92905,2,0,B|231:111|231:111|152:107,1,120,6|8,1:0|1:0,0:0:0:0:
83,80,93655,1,6,1:3:0:0:
138,186,94105,6,0,B|147:233|147:233|143:312,1,120,6|8,1:0|1:0,0:0:0:0:
63,308,94854,2,0,L|67:220,1,79.9999999999999,6|10,1:3|1:0,0:0:0:0:
138,186,95454,2,0,P|188:175|224:171,1,79.9999999999999,2|10,1:3|1:0,0:0:0:0:
300,192,96054,1,6,1:3:0:0:
338,120,96354,1,10,1:0:0:0:
393,61,96654,6,0,P|442:56|482:62,2,79.9999999999999,6|8|2,1:0|1:0|1:0,0:0:0:0:
315,152,97703,2,0,B|236:162|236:162|183:157,1,120,6|8,1:0|1:0,0:0:0:0:
152,91,98448,1,8,1:0:0:0:
267,60,98894,5,6,1:0:0:0:
386,69,99345,1,10,1:2:0:0:
421,140,99645,2,0,P|436:191|437:220,1,79.9999999999999,0|10,1:0|1:2,0:0:0:0:
369,260,100245,2,0,P|327:257|288:262,2,79.9999999999999,2|10|2,1:2|1:2|1:2,0:0:0:0:
438,299,101145,1,10,1:0:0:0:
474,228,101445,6,0,L|482:143,1,79.9999999999999,2|10,1:2|1:2,0:0:0:0:
444,77,102045,1,2,1:2:0:0:
335,131,102489,1,6,1:0:0:0:
394,235,102932,2,0,L|480:227,1,79.9999999999999,8|2,1:0|1:2,0:0:0:0:
498,151,103529,1,10,1:2:0:0:
435,98,103838,6,0,P|393:91|345:92,1,79.9999999999999,0|10,0:0|1:2,0:0:0:0:
275,86,104440,2,0,P|232:91|181:85,1,79.9999999999999,2|8,1:2|1:0,0:0:0:0:
115,85,105038,2,0,P|112:124|117:164,1,79.9999999999999,2|8,1:2|1:0,0:0:0:0:
139,241,105637,2,0,P|178:238|218:243,1,79.9999999999999,2|12,1:2|1:3,0:0:0:0:
295,228,106237,6,0,B|386:218,2,79.9999999999999,8|8|10,1:0|1:0|1:2,0:0:0:0:
218,243,107153,1,10,1:2:0:0:
173,174,107458,2,0,B|86:168,2,79.9999999999999,8|8|10,1:0|1:0|1:2,0:0:0:0:
235,122,108349,1,10,1:2:0:0:
293,67,108646,6,0,B|384:61,2,79.9999999999999,10|10|10,1:2|1:2|1:2,0:0:0:0:
227,20,109541,1,10,1:2:0:0:
147,20,109840,2,0,B|131:58|131:58|130:99,1,79.9999999999999,8|8,1:0|1:0,0:0:0:0:
174,163,110432,2,0,B|190:201|190:201|191:242,1,79.9999999999999,8|8,1:0|1:0,0:0:0:0:
209,310,111035,6,0,L|129:315,1,79.9999999999999,6|8,1:0|1:0,0:0:0:0:
49,323,111653,1,2,1:0:0:0:
19,252,111943,1,8,1:0:0:0:
35,173,112244,2,0,P|25:134|25:80,1,79.9999999999999,2|10,1:0|1:0,0:0:0:0:
74,32,112844,2,0,L|167:20,1,79.9999999999999,2|8,1:0|1:2,0:0:0:0:
214,74,113444,6,0,P|263:64|302:64,2,79.9999999999999,0|8|2,0:0|1:0|1:0,0:0:0:0:
139,103,114344,1,8,1:0:0:0:
177,172,114644,2,0,L|185:257,1,79.9999999999999,2|10,1:0|1:0,0:0:0:0:
264,255,115244,2,0,L|253:164,1,79.9999999999999,2|8,1:0|1:0,0:0:0:0:
311,120,115844,6,0,P|359:129|402:128,2,79.9999999999999,4|8|2,1:0|1:0|1:0,0:0:0:0:
265,54,116753,1,8,1:0:0:0:
217,119,117056,2,0,L|125:124,1,79.9999999999999,2|10,1:0|1:0,0:0:0:0:
96,191,117656,2,0,L|5:187,1,79.9999999999999,2|8,1:0|1:0,0:0:0:0:
41,263,118256,6,0,P|52:312|53:345,2,79.9999999999999,0|10|2,0:0|1:0|1:0,0:0:0:0:
16,187,119156,1,8,1:0:0:0:
86,149,119456,2,0,P|96:112|97:62,1,79.9999999999999,2|10,1:0|1:0,0:0:0:0:
174,92,120056,2,0,P|175:131|185:170,1,79.9999999999999,2|8,1:0|1:0,0:0:0:0:
223,241,120656,6,0,B|180:228|180:228|127:233,2,79.9999999999999,4|8|2,1:0|1:0|1:0,0:0:0:0:
270,305,121556,1,8,1:0:0:0:
336,260,121856,2,0,P|381:253|423:253,1,79.9999999999999,2|10,1:0|1:0,0:0:0:0:
473,197,122456,2,0,L|479:102,1,79.9999999999999,2|8,1:0|1:0,0:0:0:0:
408,77,123056,6,0,B|371:91|371:91|322:90,2,79.9999999999999,0|8|2,0:0|1:0|1:0,0:0:0:0:
478,117,123956,1,8,1:0:0:0:
505,192,124256,2,0,P|515:236|515:283,1,79.9999999999999,2|10,1:0|1:0,0:0:0:0:
450,317,124850,2,0,L|359:323,1,79.9999999999999,2|8,1:0|1:0,0:0:0:0:
306,273,125447,6,0,P|315:232|315:182,2,79.9999999999999,4|8|2,1:0|1:0|1:0,0:0:0:0:
252,332,126347,1,8,1:0:0:0:
185,376,126647,2,0,L|88:382,1,79.9999999999999,2|10,1:0|1:0,0:0:0:0:
53,319,127247,2,0,B|36:283|36:283|41:228,1,79.9999999999999,2|8,1:0|1:0,0:0:0:0:
69,168,127847,5,0,0:0:0:0:
141,132,128147,2,0,L|225:125,1,79.9999999999999,8|2,1:0|1:0,0:0:0:0:
300,119,128740,1,8,1:0:0:0:
355,176,129037,1,8,1:0:0:0:
256,192,129111,12,4,130231,1:0:0:0:
186,197,133134,6,0,B|159:122|159:122|173:66,1,120,0|8,1:0|1:3,0:0:0:0:
285,111,134033,1,12,1:3:0:0:
262,228,134490,2,0,L|258:316,1,79.9999999999999,8|8,1:0|1:0,0:0:0:0:
197,356,135100,6,0,P|125:323|36:338,1,160,4|8,1:0|1:0,0:0:0:0:
98,178,136340,2,0,B|192:163|153:215|267:195,1,160,2|8,1:3|1:0,0:0:0:0:
402,163,137552,2,0,B|374:279|374:279|395:330,1,160,2|8,1:3|1:0,0:0:0:0:
241,369,138781,2,0,L|154:373,1,79.9999999999999,2|4,1:3|3:0,0:0:0:0:
97,323,139384,1,8,1:0:0:0:
97,323,139685,1,2,3:2:0:0:
167,284,139993,6,0,P|186:258|172:127,1,160,4|8,1:0|1:0,0:0:0:0:
287,265,141230,2,0,B|347:267|347:267|382:242|382:242|451:244,1,160,2|8,1:3|1:0,0:0:0:0:
472,84,142448,2,0,B|400:64|396:116|304:84,1,160,2|8,1:3|1:0,0:0:0:0:
160,52,143657,2,0,P|116:44|68:48,2,79.9999999999999,2|2|10,3:2|3:2|3:2,0:0:0:0:
240,88,144569,5,8,3:0:0:0:
256,192,153092,12,6,154598,1:0:0:0:
176,88,155816,6,0,P|184:120|184:172,1,79.9999999999999,2|8,1:0|1:0,0:0:0:0:
136,232,156416,2,0,P|175:231|214:240,1,79.9999999999999,2|10,1:0|1:0,0:0:0:0:
272,296,157016,6,0,L|264:160,1,120,6|2,1:0|1:0,0:0:0:0:
380,150,157913,1,10,1:0:0:0:
401,227,158216,2,0,P|445:239|493:239,2,79.9999999999999,2|8|2,1:0|1:0|1:0,0:0:0:0:
323,209,159125,1,10,1:0:0:0:
271,145,159424,6,0,P|303:128|390:162,2,120,6|2|10,1:0|1:0|1:0,0:0:0:0:
219,208,160631,2,0,P|188:215|139:244,1,79.9999999999999,2|8,1:0|1:0,0:0:0:0:
64,223,161231,2,0,P|84:188|94:149,1,79.9999999999999,2|10,1:0|1:0,0:0:0:0:
90,69,161825,5,6,1:0:0:0:
208,100,162270,2,0,B|284:92|284:92|324:63,1,120,2|10,1:0|1:0,0:0:0:0:
396,49,163005,2,0,L|406:142,1,79.9999999999999,10|8,1:3|1:0,0:0:0:0:
425,205,163609,2,0,P|389:223|363:256,1,79.9999999999999,8|4,1:0|1:3,0:0:0:0:
280,228,164236,6,0,B|304:307|248:307|280:394,1,160,14|10,1:0|1:0,0:0:0:0:
354,384,165122,1,8,1:0:0:0:
412,332,165418,2,0,B|436:253|380:253|412:166,1,160,10|0,1:0|0:0,0:0:0:0:
440,104,166312,1,0,1:0:0:0:
372,64,166615,6,0,B|292:44|292:44|208:64,1,160,12|8,1:0|1:0,0:0:0:0:
156,116,167519,1,8,1:0:0:0:
216,168,167821,2,0,B|296:188|296:188|380:168,1,160,8|8,1:0|1:0,0:0:0:0:
444,136,168725,1,8,1:0:0:0:
456,216,169027,6,0,B|448:256|448:256|460:344,2,120,14|2|10,1:0|1:0|1:0,0:0:0:0:
444,136,170215,2,0,P|404:120|360:120,1,79.9999999999999,10|0,1:0|0:0,0:0:0:0:
296,156,170815,2,0,P|256:172|212:172,1,79.9999999999999,10|8,1:0|1:0,0:0:0:0:
144,148,171425,6,0,B|132:192|132:192|144:224|144:224|128:280|128:280|140:299|140:299|172:321|166:292|216:321,1,240,14|8,1:0|1:0,0:0:0:0:
288,348,172616,1,8,1:0:0:0:
364,323,172914,1,8,1:0:0:0:
426,272,173212,1,10,1:0:0:0:
443,194,173510,1,8,1:0:0:0:
411,121,173808,6,0,P|403:76|402:34,1,79.9999999999999,12|8,1:0|1:0,0:0:0:0:
326,68,174411,2,0,P|324:107|316:147,1,79.9999999999999,8|8,1:0|1:0,0:0:0:0:
247,187,175014,2,0,P|206:179|156:179,2,79.9999999999999,8|8|8,1:0|1:0|1:0,0:0:0:0:
283,258,175918,1,8,1:0:0:0:
327,324,176220,6,0,L|421:327,2,79.9999999999999,8|8|8,1:0|1:0|1:0,0:0:0:0:
283,258,177124,1,8,1:0:0:0:
346,209,177426,1,8,1:0:0:0:
272,178,177722,1,8,1:0:0:0:
332,126,178018,2,0,L|326:44,1,79.9999999999999,8|8,1:0|1:0,0:0:0:0:
248,27,178617,6,0,P|188:55|79:44,1,160,8|8,1:0|1:0,0:0:0:0:
26,90,179526,1,8,1:0:0:0:
61,161,179829,2,0,P|70:209|71:246,1,79.9999999999999,10|10,1:0|1:0,0:0:0:0:
124,300,180423,2,0,L|205:296,1,79.9999999999999,0|10,0:0|1:0,0:0:0:0:
269,341,181005,5,12,1:0:0:0:
349,257,181466,1,4,1:0:0:0:
392,367,181912,1,4,1:0:0:0:
392,367,182212,2,0,L|486:361,1,79.9999999999999,12|12,1:3|1:3,0:0:0:0:
461,282,182812,2,0,L|376:277,1,79.9999999999999,12|12,1:3|1:3,0:0:0:0:
329,221,183409,5,6,1:0:0:0:
200,203,183873,2,0,P|184:145|162:89,1,120,6|14,1:0|1:0,0:0:0:0:
42,92,184751,1,6,1:0:0:0:
13,211,185215,2,0,P|22:247|31:296,1,79.9999999999999,14|8,1:0|1:0,0:0:0:0:
107,312,185818,6,0,P|146:305|199:305,1,79.9999999999999,4|8,1:0|1:0,0:0:0:0:
261,276,186415,2,0,L|267:190,1,79.9999999999999,2|8,1:2|1:0,0:0:0:0:
296,120,187012,1,2,1:2:0:0:
377,114,187312,1,10,1:2:0:0:
421,179,187606,2,0,P|434:233|434:270,1,79.9999999999999,2|8,1:2|1:2,0:0:0:0:
416,335,188206,6,0,B|342:309|342:309|292:319,1,120,6|6,1:0|1:0,0:0:0:0:
189,343,189097,1,14,1:0:0:0:
80,292,189560,1,6,1:0:0:0:
135,183,190014,2,0,P|137:133|128:92,1,79.9999999999999,6|8,1:0|1:0,0:0:0:0:
151,26,190611,6,0,L|237:20,1,79.9999999999999,4|8,1:0|1:0,0:0:0:0:
302,55,191208,2,0,P|345:43|387:43,1,79.9999999999999,2|8,1:2|1:0,0:0:0:0:
383,122,191808,2,0,L|381:208,1,79.9999999999999,2|10,1:2|1:2,0:0:0:0:
313,252,192415,2,0,L|220:249,1,79.9999999999999,2|10,1:2|1:2,0:0:0:0:
162,222,192995,6,0,B|92:240|116:203|32:220,1,120,4|6,1:0|1:0,0:0:0:0:
74,338,193922,1,4,1:0:0:0:
190,308,194372,2,0,P|264:297|315:297,1,120,6|4,1:0|1:0,0:0:0:0:
387,313,195122,1,8,1:0:0:0:
468,293,195431,6,0,L|471:209,1,79.9999999999999,4|8,1:0|1:0,0:0:0:0:
427,146,196022,2,0,L|421:53,1,79.9999999999999,2|8,1:2|1:0,0:0:0:0:
350,33,196613,2,0,P|310:23|253:23,1,79.9999999999999,2|10,1:2|1:2,0:0:0:0:
223,85,197204,2,0,L|132:89,1,79.9999999999999,2|10,1:2|1:2,0:0:0:0:
82,132,197784,5,12,1:0:0:0:
58,7,198252,1,12,1:0:0:0:
174,15,198700,1,12,1:0:0:0:
217,135,199160,1,12,1:0:0:0:
159,235,199599,2,0,B|120:246|120:246|80:242,1,79.9999999999999,4|4,1:3|1:3,0:0:0:0:
89,162,200208,6,0,P|142:127|227:184,1,160,8|10,1:0|1:2,0:0:0:0:
261,235,201121,1,10,1:2:0:0:
342,252,201426,2,0,P|404:249|437:244,1,79.9999999999999,8|8,1:0|1:0,0:0:0:0:
416,166,202023,2,0,P|354:169|321:174,1,79.9999999999999,10|10,1:2|1:2,0:0:0:0:
271,217,202620,6,0,P|281:268|284:313,2,79.9999999999999,12|8|8,1:0|1:0|1:0,0:0:0:0:
217,157,203515,1,8,1:0:0:0:
147,117,203814,2,0,P|136:66|134:21,2,79.9999999999999,10|10|10,1:2|1:2|1:2,0:0:0:0:
217,157,204705,1,10,1:2:0:0:
290,124,205002,6,0,B|368:96|368:152|455:115,1,160,12|8,1:0|1:0,0:0:0:0:
404,52,205902,1,8,1:0:0:0:
324,41,206202,2,0,P|285:46|236:69,1,79.9999999999999,8|8,1:0|1:0,0:0:0:0:
175,96,206802,2,0,P|136:91|87:68,1,79.9999999999999,8|8,1:0|1:0,0:0:0:0:
30,33,207402,5,4,1:0:0:0:
213,208,209840,6,0,P|208:153|200:121,2,79.9999999999999,6|8|2,1:0|1:0|1:0,0:0:0:0:
257,274,210726,1,8,1:0:0:0:
205,335,211022,2,0,P|157:341|121:338,1,79.9999999999999,2|10,1:0|1:0,0:0:0:0:
52,306,211613,2,0,L|60:224,1,79.9999999999999,2|8,1:0|1:0,0:0:0:0:
106,161,212204,6,0,P|70:148|20:157,2,79.9999999999999,0|8|2,0:0|1:0|1:0,0:0:0:0:
172,204,213104,1,8,1:0:0:0:
213,135,213411,2,0,L|217:48,1,79.9999999999999,2|10,1:0|1:0,0:0:0:0:
295,40,214014,2,0,L|291:119,1,79.9999999999999,2|8,1:0|1:0,0:0:0:0:
308,198,214617,6,0,P|267:195|232:173,1,79.9999999999999,6|8,1:0|1:0,0:0:0:0:
162,139,215217,2,0,L|161:231,1,79.9999999999999,2|8,1:0|1:0,0:0:0:0:
150,298,215817,2,0,P|117:287|87:254,2,79.9999999999999,2|10|2,1:0|1:0|1:0,0:0:0:0:
229,302,216717,1,8,1:0:0:0:
286,245,217017,6,0,L|379:237,2,79.9999999999999,0|8|2,0:0|1:0|1:0,0:0:0:0:
218,200,217917,1,10,1:0:0:0:
157,147,218217,2,0,L|64:139,1,79.9999999999999,2|10,1:0|1:0,0:0:0:0:
82,60,218817,2,0,L|175:52,1,79.9999999999999,2|8,1:0|1:0,0:0:0:0:
235,83,219424,6,0,B|218:48|218:48|223:4,2,79.9999999999999,4|8|2,1:0|1:0|1:0,0:0:0:0:
294,136,220328,1,8,1:0:0:0:
359,182,220630,2,0,L|454:177,1,79.9999999999999,2|10,1:0|1:0,0:0:0:0:
429,257,221221,2,0,L|345:262,1,79.9999999999999,2|8,1:0|1:0,0:0:0:0:
282,306,221819,6,0,P|296:349|301:388,2,79.9999999999999,0|10|2,0:0|1:0|1:0,0:0:0:0:
206,278,222710,1,8,1:0:0:0:
129,254,223007,2,0,P|117:217|116:158,1,79.9999999999999,2|10,1:0|1:0,0:0:0:0:
185,138,223610,2,0,L|189:50,1,79.9999999999999,2|8,1:0|1:0,0:0:0:0:
116,44,224199,6,0,P|76:35|27:33,1,79.9999999999999,0|8,0:0|1:0,0:0:0:0:
13,108,224807,1,2,1:0:0:0:
46,175,225101,1,8,1:0:0:0:
127,161,225413,2,0,B|162:180|162:180|216:170,1,79.9999999999999,2|10,1:0|1:0,0:0:0:0:
269,137,226016,2,0,L|353:134,1,79.9999999999999,2|8,1:0|1:0,0:0:0:0:
404,77,226613,6,0,P|394:37|392:-3,2,79.9999999999999,0|10|2,0:0|1:0|1:0,0:0:0:0:
446,142,227513,1,8,1:0:0:0:
395,203,227813,2,0,L|306:209,1,79.9999999999999,4|4,1:3|1:3,0:0:0:0:
264,270,228416,2,0,L|175:264,1,79.9999999999999,8|8,1:0|1:0,0:0:0:0:
119,217,229026,6,0,P|106:183|105:130,1,79.9999999999999,12|8,1:0|1:0,0:0:0:0:
153,77,229623,2,0,P|122:97|-1:93,2,160,8|8|8,1:0|1:0|1:0,0:0:0:0:
207,18,231115,1,12,1:0:0:0:
258,79,231414,6,0,B|301:91|301:91|341:83,1,79.9999999999999,8|8,1:0|1:0,0:0:0:0:
389,24,232011,2,0,B|367:139|367:139|386:193,2,160,8|8|8,1:0|1:0|1:0,0:0:0:0:
335,84,233503,1,12,1:0:0:0:
285,146,233810,6,0,L|189:149,1,79.9999999999999,8|8,1:0|1:0,0:0:0:0:
142,198,234407,2,0,P|170:121|147:30,1,160,8|8,1:0|1:0,0:0:0:0:
77,59,235306,2,0,P|65:93|56:143,1,79.9999999999999,8|8,1:0|1:0,0:0:0:0:
69,214,235910,1,12,1:0:0:0:
119,278,236213,6,0,L|201:274,1,79.9999999999999,8|8,1:0|1:0,0:0:0:0:
262,225,236802,2,0,B|368:217|309:256|430:247,1,160,8|8,1:0|1:3,0:0:0:0:
491,218,237688,1,8,1:3:0:0:
491,218,237991,1,8,1:3:0:0:
486,134,238295,6,0,L|325:117,1,160,0|0,1:0|2:0,0:0:0:0:
