osu file format v14

[General]
AudioFilename: jingle.mp3
AudioLeadIn: 0
PreviewTime: 23372
Countdown: 1
SampleSet: Soft
StackLeniency: 0.2
Mode: 0
LetterboxInBreaks: 0
WidescreenStoryboard: 1

[Editor]
DistanceSpacing: 1
BeatDivisor: 8
GridSize: 4
TimelineZoom: 1.899999

[Metadata]
Title:Jingle Bells
TitleUnicode:Jingle Bells
Artist:Children Love to Sing
ArtistUnicode:Children Love to Sing
Creator:jieusieu
Version:kidz
Source:
Tags:
BeatmapID:1646412
BeatmapSetID:650440

[Difficulty]
HPDrainRate:5
CircleSize:2
OverallDifficulty:7
ApproachRate:10
SliderMultiplier:3.59999990463257
SliderTickRate:1

[Events]
//Background and Video events
0,0,"1280x720-Wu1.png",0,0
//Break Periods
//Storyboard Layer 0 (Background)
//Storyboard Layer 1 (Fail)
//Storyboard Layer 2 (Pass)
//Storyboard Layer 3 (Foreground)
//Storyboard Sound Samples

[TimingPoints]
8082,480,4,2,2,100,1,0
8202,-93.4579439252336,4,2,1,100,0,0
10002,-93.4579439252336,4,2,2,100,0,0
10242,-93.4579439252336,4,2,12,100,0,0
11681,-93.4579439252336,4,2,1,100,0,0
12882,-93.4579439252336,4,2,12,100,0,0
13602,-93.4579439252336,4,2,1,100,0,0
13842,-93.4579439252336,4,2,10,100,0,0
15042,-93.4579439252336,4,2,3,100,0,0
15281,-93.4579439252336,4,2,1,100,0,0
22002,-93.4579439252336,4,2,10,100,0,0
22242,-93.4579439252336,4,2,2,100,0,0
22482,-93.4579439252336,4,2,3,100,0,0
22962,-93.4579439252336,4,2,1,100,0,0
23442,-93.4579439252336,4,2,2,100,0,0
23502,-93.4579439252336,4,2,10,100,0,0
25362,-93.4579439252336,4,2,1,100,0,0
25842,-93.4579439252336,4,2,10,100,0,0
27042,-93.4579439252336,4,2,1,100,0,0
27281,-93.4579439252336,4,2,10,100,0,0
29202,-93.4579439252336,4,2,1,100,0,0
30401,-93.4579439252336,4,2,3,100,0,0
30642,-93.4579439252336,4,2,1,100,0,0
31122,-93.4579439252336,4,2,2,100,0,0
31182,-93.4579439252336,4,2,1,100,0,0
34962,-93.4579439252336,4,2,2,100,0,0
35021,-93.4579439252336,4,2,1,100,0,0
37121,-93.4579439252336,4,2,2,100,0,0
37362,-93.4579439252336,4,2,4,100,0,0
37602,-93.4579439252336,4,2,1,100,0,0

[HitObjects]
256,288,8082,5,6,0:3:0:0:
172,144,8202,1,2,0:0:0:0:
340,240,8322,2,0,L|340:336,1,96.2999945100786,12|2,0:0|0:0,0:0:0:0:
88,192,8562,1,12,0:0:0:0:
340,144,8682,1,2,0:0:0:0:
172,48,8802,2,0,L|172:172,1,96.2999945100786,12|2,0:0|0:0,0:0:0:0:
88,288,9042,5,12,0:0:0:0:
256,192,9162,1,2,0:0:0:0:
88,96,9282,1,12,0:0:0:0:
172,336,9402,1,2,0:0:0:0:
340,144,9522,2,0,L|340:48,1,96.2999945100786,12|2,0:1|0:0,0:0:0:0:
508,336,9762,2,0,L|508:240,1,96.2999945100786,12|2,0:3|0:0,0:0:0:0:
256,384,10002,5,12,0:3:0:0:
424,288,10122,1,2,0:0:0:0:
256,192,10242,2,0,L|256:288,1,96.2999945100786,12|2,0:0|0:0,0:0:0:0:
88,288,10482,1,12,0:0:0:0:
424,288,10602,1,2,0:0:0:0:
256,95,10722,2,0,L|256:191,1,96.2999945100786,12|2,0:0|0:0,0:0:0:0:
256,384,10962,5,12,0:0:0:0:
340,144,11082,1,2,0:0:0:0:
172,240,11202,1,12,0:0:0:0:
424,288,11322,1,2,0:0:0:0:
172,240,11442,1,8,0:0:0:0:
172,240,11502,1,2,0:0:0:0:
172,240,11562,1,2,0:0:0:0:
424,288,11682,1,12,0:3:0:0:
172,240,11922,5,6,0:1:0:0:
172,240,11982,1,2,0:0:0:0:
172,240,12042,1,2,0:0:0:0:
172,240,12102,1,2,0:0:0:0:
172,240,12162,1,6,0:3:0:0:
172,240,12222,1,2,0:0:0:0:
172,240,12282,1,2,0:0:0:0:
172,240,12342,1,2,0:0:0:0:
172,240,12402,2,0,L|172:144,1,96.2999945100786,12|2,0:1|0:0,0:0:0:0:
424,192,12642,1,12,0:3:0:0:
256,384,12762,1,2,0:0:0:0:
172,143,12882,6,0,L|172:240,1,96.2999945100786,12|2,0:0|0:0,0:0:0:0:
4,336,13122,1,12,0:0:0:0:
88,192,13242,1,2,0:0:0:0:
256,384,13362,1,8,0:0:0:0:
256,384,13422,1,2,0:0:0:0:
256,384,13482,1,2,0:0:0:0:
256,95,13602,1,12,0:3:0:0:
508,336,13842,5,14,0:0:0:0:
508,336,13902,1,2,0:0:0:0:
508,336,13962,1,2,0:0:0:0:
508,336,14022,1,2,0:0:0:0:
508,336,14082,1,14,0:0:0:0:
508,336,14142,1,2,0:0:0:0:
508,336,14202,1,2,0:0:0:0:
508,336,14262,1,2,0:0:0:0:
508,336,14322,1,14,0:0:0:0:
508,336,14382,1,2,0:0:0:0:
508,336,14442,1,2,0:0:0:0:
508,336,14502,1,2,0:0:0:0:
508,336,14562,1,14,0:0:0:0:
508,336,14622,1,2,0:0:0:0:
508,336,14682,1,2,0:0:0:0:
508,336,14742,1,2,0:0:0:0:
424,288,14802,5,8,0:0:0:0:
424,288,14862,1,8,0:0:0:0:
424,288,14922,1,8,0:0:0:0:
424,288,14982,1,8,0:0:0:0:
508,239,15042,1,8,0:0:0:0:
508,239,15102,1,8,0:0:0:0:
508,239,15162,1,8,0:0:0:0:
508,239,15222,1,8,0:0:0:0:
424,192,15282,5,6,0:3:0:0:
424,192,15342,1,2,0:0:0:0:
424,192,15402,1,2,0:0:0:0:
424,192,15462,1,2,0:0:0:0:
508,144,15522,1,8,0:0:0:0:
508,144,15582,1,8,0:0:0:0:
508,144,15642,1,8,0:0:0:0:
508,144,15702,1,8,0:0:0:0:
508,144,15762,6,8,L|508:48,1,96.2999945100786,14|10,0:1|0:0,0:0:0:0:
256,288,16002,2,0,L|256:192,1,96.2999945100786,12|2,0:0|0:0,0:0:0:0:
424,192,16242,1,12,0:0:0:0:
172,143,16362,1,2,0:0:0:0:
424,0,16482,6,0,L|424:96,1,96.2999945100786,12|2,0:0|0:0,0:0:0:0:
340,336,16722,1,12,0:0:0:0:
340,144,16842,1,2,0:0:0:0:
508,240,16962,1,12,0:0:0:0:
340,48,17082,1,2,0:0:0:0:
88,96,17202,2,0,L|88:0,1,96.2999945100786,12|2,0:0|0:0,0:0:0:0:
172,336,17442,2,0,L|172:239,1,96.2999945100786,12|2,0:0|0:0,0:0:0:0:
256,191,17622,1,2,0:0:0:0:
256,191,17682,5,12,0:1:0:0:
4,144,17802,1,2,0:0:0:0:
256,94,17922,2,0,L|256:190,1,96.2999945100786,12|2,0:0|0:0,0:0:0:0:
4,48,18162,1,12,0:0:0:0:
88,288,18282,1,2,0:0:0:0:
172,46,18402,2,0,L|172:142,1,96.2999945100786,12|2,0:0|0:0,0:0:0:0:
256,384,18642,5,12,0:0:0:0:
256,190,18762,1,2,0:0:0:0:
424,288,18882,1,12,0:0:0:0:
88,288,19002,1,2,0:0:0:0:
256,94,19122,1,12,0:0:0:0:
256,384,19242,1,2,0:0:0:0:
256,384,19302,1,2,0:0:0:0:
256,384,19362,1,12,0:1:0:0:
256,94,19602,5,6,0:3:0:0:
256,94,19662,1,2,0:0:0:0:
256,94,19722,1,2,0:0:0:0:
256,94,19782,1,2,0:0:0:0:
256,94,19842,1,6,0:1:0:0:
256,94,19902,1,2,0:0:0:0:
256,94,19962,1,2,0:0:0:0:
256,94,20022,1,2,0:0:0:0:
256,94,20082,1,6,0:3:0:0:
256,94,20142,1,2,0:0:0:0:
256,94,20202,1,2,0:0:0:0:
256,94,20262,1,2,0:0:0:0:
256,94,20322,1,6,0:1:0:0:
256,384,20562,5,12,0:1:0:0:
256,384,20622,1,8,0:0:0:0:
256,384,20682,1,8,0:0:0:0:
256,384,20742,1,8,0:0:0:0:
172,336,20802,5,6,0:3:0:0:
172,336,20862,1,2,0:0:0:0:
172,336,20922,1,2,0:0:0:0:
172,336,20982,1,2,0:0:0:0:
256,384,21042,5,8,0:0:0:0:
256,384,21102,1,8,0:0:0:0:
256,384,21162,1,8,0:0:0:0:
256,384,21222,1,8,0:0:0:0:
340,336,21282,5,6,0:3:0:0:
340,336,21342,1,2,0:0:0:0:
340,336,21402,1,2,0:0:0:0:
340,336,21462,1,2,0:0:0:0:
256,384,21522,5,6,0:1:0:0:
4,48,21762,1,6,0:3:0:0:
4,336,22002,1,12,0:0:0:0:
508,48,22242,1,12,0:0:0:0:
508,336,22482,1,12,0:0:0:0:
256,192,22722,5,2,0:0:0:0:
256,192,22782,1,2,0:0:0:0:
256,192,22842,1,2,0:0:0:0:
256,192,22902,1,2,0:0:0:0:
256,192,22962,1,12,0:3:0:0:
340,48,23442,5,6,0:3:0:0:
340,48,23502,1,2,0:0:0:0:
340,48,23562,1,2,0:0:0:0:
172,144,23682,1,6,0:0:0:0:
172,144,23742,1,2,0:0:0:0:
172,144,23802,1,2,0:0:0:0:
424,96,23922,1,12,0:0:0:0:
4,48,24162,1,4,0:0:0:0:
172,336,24402,5,6,0:0:0:0:
172,336,24462,1,2,0:0:0:0:
172,336,24522,1,2,0:0:0:0:
340,144,24642,1,6,0:0:0:0:
340,144,24702,1,2,0:0:0:0:
340,144,24762,1,2,0:0:0:0:
88,192,24882,1,12,0:0:0:0:
508,336,25122,1,4,0:0:0:0:
172,240,25362,5,6,0:3:0:0:
172,240,25422,1,2,0:0:0:0:
172,240,25482,1,2,0:0:0:0:
424,384,25602,1,6,0:1:0:0:
424,384,25662,1,2,0:0:0:0:
424,384,25722,1,2,0:0:0:0:
508,144,25842,1,12,0:0:0:0:
172,336,26082,1,4,0:0:0:0:
424,288,26202,5,2,0:0:0:0:
424,288,26262,1,2,0:0:0:0:
424,288,26322,1,6,0:0:0:0:
256,0,26562,1,6,0:0:0:0:
88,384,26802,1,8,0:0:0:0:
88,384,26862,1,2,0:0:0:0:
88,384,26922,1,2,0:0:0:0:
88,384,26982,1,2,0:0:0:0:
88,384,27042,1,12,0:3:0:0:
340,48,27282,5,14,0:0:0:0:
340,48,27342,1,2,0:0:0:0:
340,48,27402,1,2,0:0:0:0:
340,48,27462,1,2,0:0:0:0:
340,48,27522,1,14,0:0:0:0:
340,48,27582,1,2,0:0:0:0:
340,48,27642,1,2,0:0:0:0:
340,48,27702,1,2,0:0:0:0:
340,48,27762,1,12,0:0:0:0:
340,336,28002,1,4,0:0:0:0:
88,288,28122,1,2,0:0:0:0:
424,192,28242,5,12,0:0:0:0:
4,240,28482,1,6,0:0:0:0:
424,384,28722,1,12,0:0:0:0:
424,384,28782,1,2,0:0:0:0:
424,384,28842,1,2,0:0:0:0:
424,384,28902,1,2,0:0:0:0:
424,384,28962,1,2,0:0:0:0:
88,288,29202,5,12,0:1:0:0:
172,144,29322,1,2,0:0:0:0:
4,240,29442,1,12,0:1:0:0:
172,336,29562,1,2,0:0:0:0:
88,96,29682,1,12,0:1:0:0:
88,384,29802,1,2,0:0:0:0:
340,240,29922,1,12,0:1:0:0:
0,144,30042,1,2,0:0:0:0:
340,48,30162,5,8,0:0:0:0:
340,48,30222,1,8,0:0:0:0:
340,48,30282,1,2,0:0:0:0:
340,48,30342,1,2,0:0:0:0:
424,96,30402,5,8,0:0:0:0:
424,96,30462,1,8,0:0:0:0:
424,96,30522,1,2,0:0:0:0:
424,96,30582,1,2,0:0:0:0:
340,144,30642,5,6,0:3:0:0:
340,336,31122,5,6,0:3:0:0:
340,336,31182,1,2,0:0:0:0:
340,336,31242,1,2,0:0:0:0:
172,144,31362,1,6,0:3:0:0:
172,144,31422,1,2,0:0:0:0:
172,144,31482,1,2,0:0:0:0:
424,96,31602,1,12,0:3:0:0:
88,192,31842,1,4,0:3:0:0:
424,288,32082,5,6,0:3:0:0:
424,288,32142,1,2,0:0:0:0:
424,288,32202,1,2,0:0:0:0:
508,48,32322,1,6,0:3:0:0:
508,48,32382,1,2,0:0:0:0:
508,48,32442,1,2,0:0:0:0:
508,336,32562,1,12,0:3:0:0:
172,336,32802,1,4,0:3:0:0:
172,46,33042,5,6,0:3:0:0:
172,46,33102,1,2,0:0:0:0:
172,46,33162,1,2,0:0:0:0:
256,288,33282,1,6,0:3:0:0:
256,288,33342,1,2,0:0:0:0:
256,288,33402,1,2,0:0:0:0:
0,144,33522,1,12,0:3:0:0:
424,192,33762,1,4,0:3:0:0:
88,96,33882,5,2,0:0:0:0:
88,96,33942,1,2,0:0:0:0:
88,96,34002,1,6,0:3:0:0:
340,240,34242,1,6,0:3:0:0:
4,336,34482,1,8,0:0:0:0:
4,336,34542,1,2,0:0:0:0:
4,336,34602,1,2,0:0:0:0:
4,336,34662,1,2,0:0:0:0:
4,336,34722,1,12,0:1:0:0:
340,336,34962,5,14,0:3:0:0:
340,336,35022,1,2,0:0:0:0:
340,336,35082,1,2,0:0:0:0:
340,336,35142,1,2,0:0:0:0:
340,336,35202,1,14,0:0:0:0:
340,336,35262,1,2,0:0:0:0:
340,336,35322,1,2,0:0:0:0:
340,336,35382,1,2,0:0:0:0:
340,336,35442,1,12,0:0:0:0:
424,96,35562,1,2,0:0:0:0:
256,288,35682,1,12,0:0:0:0:
508,144,35802,1,2,0:0:0:0:
256,94,35922,5,12,0:0:0:0:
424,288,36042,1,2,0:0:0:0:
172,336,36162,1,12,0:0:0:0:
340,48,36282,1,2,0:0:0:0:
256,384,36402,1,12,0:0:0:0:
0,144,36522,1,2,0:0:0:0:
424,192,36642,1,12,0:0:0:0:
0,144,36882,5,8,0:0:0:0:
0,144,36942,1,8,0:0:0:0:
0,144,37002,1,2,0:0:0:0:
0,144,37062,1,2,0:0:0:0:
88,192,37122,5,8,0:0:0:0:
88,192,37182,1,8,0:0:0:0:
172,144,37242,1,2,0:0:0:0:
172,144,37302,1,2,0:0:0:0:
256,192,37362,5,8,0:0:0:0:
256,192,37422,1,8,0:0:0:0:
256,192,37482,1,2,0:0:0:0:
256,192,37542,1,2,0:0:0:0:
340,144,37602,5,8,0:0:0:0:
340,144,37662,1,8,0:0:0:0:
424,192,37722,1,2,0:0:0:0:
424,192,37782,1,2,0:0:0:0:
508,144,37842,5,12,0:1:0:0:
256,384,38082,1,2,0:0:0:0:
256,0,38322,1,12,0:3:0:0:
0,144,38562,1,2,0:0:0:0:
508,144,38802,1,12,0:1:0:0:
