osu file format v14

[General]
AudioFilename: jingle.mp3
AudioLeadIn: 0
PreviewTime: 23372
Countdown: 1
SampleSet: Soft
StackLeniency: 0.7
Mode: 0
LetterboxInBreaks: 0
WidescreenStoryboard: 1

[Editor]
Bookmarks: 31122
DistanceSpacing: 1.3
BeatDivisor: 4
GridSize: 4
TimelineZoom: 1.9

[Metadata]
Title:Jingle Bells
TitleUnicode:Jingle Bells
Artist:Children Love to Sing
ArtistUnicode:Children Love to Sing
Creator:jieusieu
Version:baby
Source:
Tags:
BeatmapID:1646411
BeatmapSetID:650440

[Difficulty]
HPDrainRate:5
CircleSize:3
OverallDifficulty:5
ApproachRate:5
SliderMultiplier:1.39999990463257
SliderTickRate:1

[Events]
//Background and Video events
0,0,"1280x720-Wu1.png",0,0
//Break Periods
//Storyboard Layer 0 (Background)
//Storyboard Layer 1 (Fail)
//Storyboard Layer 2 (Pass)
//Storyboard Layer 3 (Foreground)
//Storyboard Sound Samples

[TimingPoints]
8082,480,4,2,0,100,1,0

[HitObjects]
40,56,8082,6,0,L|44:144,1,69.9999952316285
112,188,8562,2,0,L|108:257,1,69.9999952316285
44,324,9042,2,0,P|132:344|180:308,1,139.999990463257
260,340,9762,1,0,0:0:0:0:
260,340,10002,6,0,P|256:284|240:248,1,69.9999952316285
216,188,10482,2,0,P|215:153|224:119,1,69.9999952316285
180,40,10962,2,0,P|256:36|316:100,1,139.999990463257
392,48,11682,1,0,0:0:0:0:
392,48,11922,6,0,B|432:44|432:44|488:52,1,69.9999952316285
440,136,12402,2,0,B|400:140|400:140|370:135,1,69.9999952316285
303,73,12882,2,0,P|280:152|340:224,1,139.999990463257
388,232,13602,1,0,0:0:0:0:
336,308,13842,6,0,P|376:320|412:320,2,69.9999952316285
252,272,14562,1,0,0:0:0:0:
208,352,14802,2,0,B|168:372|136:340|104:312|48:352,1,139.999990463257
36,256,15522,1,0,0:0:0:0:
72,172,15762,6,0,P|79:137|77:103,2,69.9999952316285
36,256,16482,1,0,0:0:0:0:
73,338,16722,2,0,P|148:352|216:308,1,139.999990463257
288,356,17442,1,0,0:0:0:0:
288,356,17682,6,0,P|296:304|292:272,1,69.9999952316285
224,228,18162,2,0,P|216:193|217:158,1,69.9999952316285
252,76,18642,2,0,L|428:84,1,139.999990463257
476,112,19362,1,0,0:0:0:0:
408,172,19602,6,0,P|404:200|408:256,1,69.9999952316285
484,288,20082,2,0,P|488:322|486:357,1,69.9999952316285
400,332,20562,2,0,L|308:336,1,69.9999952316285
244,300,21042,2,0,L|174:296,1,69.9999952316285
88,264,21522,6,0,P|84:308|100:348,2,69.9999952316285
156,204,22242,1,0,0:0:0:0:
156,204,22482,2,0,L|148:108,1,69.9999952316285
144,44,22962,5,0,0:0:0:0:
324,8,23442,6,0,P|328:52|320:88,1,69.9999952316285
416,84,23922,2,0,P|408:116|376:152,1,69.9999952316285
300,172,24402,6,0,P|278:199|269:232,1,69.9999952316285
362,239,24882,2,0,P|357:273|361:308,1,69.9999952316285
272,328,25362,6,0,L|184:332,1,69.9999952316285
112,352,25842,2,0,L|42:348,1,69.9999952316285
64,260,26322,2,0,L|133:263,1,69.9999952316285
224,242,26802,2,0,L|293:238,1,69.9999952316285
384,232,27282,6,0,P|384:180|376:152,1,69.9999952316285
464,132,27762,2,0,P|416:80|336:88,1,139.999990463257
288,148,28482,1,0,0:0:0:0:
288,148,28722,2,0,P|252:152|204:148,1,69.9999952316285
128,132,29202,6,0,L|116:36,2,69.9999952316285
64,200,29922,2,0,L|80:288,1,69.9999952316285
236,356,30642,5,0,0:0:0:0:
416,328,31122,6,0,P|420:293|415:258,1,69.9999952316285
507,252,31602,2,0,P|498:218|476:191,1,69.9999952316285
391,164,32082,6,0,P|369:136|360:103,1,69.9999952316285
454,96,32562,2,0,P|449:61|453:26,1,69.9999952316285
364,8,33042,6,0,L|276:12,1,69.9999952316285
208,44,33522,2,0,L|108:32,1,69.9999952316285
135,131,34002,2,0,L|204:139,1,69.9999952316285
290,106,34481,2,0,L|359:102,1,69.9999952316285
452,100,34962,6,0,B|440:140|440:140|452:200,1,69.9999952316285
504,236,35442,2,0,P|436:256|368:212,1,139.999990463257
316,292,36162,1,0,0:0:0:0:
316,292,36402,2,0,P|280:296|232:288,1,69.9999952316285
176,232,36882,6,0,L|184:144,2,69.9999952316285
104,288,37602,2,0,L|97:357,1,69.9999952316285
