osu file format v14

[General]
AudioFilename: audio.mp3
AudioLeadIn: 0
PreviewTime: -1
Countdown: 1
SampleSet: None
StackLeniency: 0.7
Mode: 3
LetterboxInBreaks: 0
SpecialStyle: 0
WidescreenStoryboard: 1

[Editor]
DistanceSpacing: 0.8
BeatDivisor: 4
GridSize: 4
TimelineZoom: 1.499999

[Metadata]
Title:This is America
TitleUnicode:This is America
Artist:Childish Gambino
ArtistUnicode:Childish Gambino
Creator:Stats-Kun
Version:2018
Source:Donald Glover
Tags:
BeatmapID:1686224
BeatmapSetID:802838

[Difficulty]
HPDrainRate:10
CircleSize:4
OverallDifficulty:7
ApproachRate:5
SliderMultiplier:1.4
SliderTickRate:1

[Events]
//Background and Video events
//Break Periods
2,164337,179687
//Storyboard Layer 0 (Background)
//Storyboard Layer 1 (Fail)
//Storyboard Layer 2 (Pass)
//Storyboard Layer 3 (Foreground)
//Storyboard Sound Samples

[TimingPoints]
20637,500,4,1,0,100,1,0
36637,-86.9565217391304,4,1,0,100,0,0
52137,-25,4,1,0,100,0,0
52512,-200,4,1,0,100,0,0
52553,-100,4,1,0,100,0,0
52637,500,4,1,0,100,1,0
100637,500,4,1,0,100,1,0
116137,-66.6666666666667,4,1,0,100,0,0
116637,500,4,1,0,100,1,0
164637,500,4,1,0,100,1,0
180887,500,4,1,0,100,1,0
186980,500,4,1,0,100,1,0
195980,-66.6666666666667,4,1,0,100,0,0
196230,-50,4,1,0,100,0,0
196417,-1000,4,1,0,100,0,0
196480,-100,4,1,0,100,0,0

[HitObjects]
448,192,20637,128,0,21137:0:0:0:0:
320,192,20637,1,0,0:0:0:0:
64,192,21137,128,0,21637:0:0:0:0:
192,192,21137,1,0,0:0:0:0:
448,192,21637,128,0,22137:0:0:0:0:
320,192,21637,1,0,0:0:0:0:
64,192,22137,128,0,22637:0:0:0:0:
192,192,22137,1,0,0:0:0:0:
320,192,22637,1,0,0:0:0:0:
192,192,22637,128,0,23137:0:0:0:0:
320,192,23137,1,0,0:0:0:0:
64,192,23637,1,0,0:0:0:0:
320,192,23637,128,0,24137:0:0:0:0:
64,192,24137,1,0,0:0:0:0:
192,192,24637,1,0,0:0:0:0:
64,192,24637,128,0,25137:0:0:0:0:
320,192,25137,1,0,0:0:0:0:
448,192,25137,128,0,25637:0:0:0:0:
192,192,25637,1,0,0:0:0:0:
64,192,25637,128,0,26137:0:0:0:0:
320,192,26137,1,0,0:0:0:0:
448,192,26137,128,0,26637:0:0:0:0:
192,192,26637,128,0,27137:0:0:0:0:
320,192,26637,1,0,0:0:0:0:
320,192,27137,1,0,0:0:0:0:
320,192,27637,128,0,28137:0:0:0:0:
64,192,27637,1,0,0:0:0:0:
64,192,28137,1,0,0:0:0:0:
64,192,28637,1,0,0:0:0:0:
192,192,28887,1,0,0:0:0:0:
64,192,29137,1,0,0:0:0:0:
192,192,29387,128,0,29637:0:0:0:0:
448,192,29637,128,0,30137:0:0:0:0:
320,192,29637,1,0,0:0:0:0:
320,192,30137,128,0,30637:0:0:0:0:
192,192,30137,1,0,0:0:0:0:
192,192,30637,1,0,0:0:0:0:
64,192,30637,1,0,0:0:0:0:
192,192,30887,1,0,0:0:0:0:
64,192,31137,1,0,0:0:0:0:
192,192,31387,128,0,31637:0:0:0:0:
320,192,31637,128,0,32137:0:0:0:0:
192,192,32137,1,0,0:0:0:0:
448,192,32137,128,0,32637:0:0:0:0:
64,192,32637,1,0,0:0:0:0:
192,192,32887,1,0,0:0:0:0:
64,192,33137,1,0,0:0:0:0:
192,192,33387,128,0,33637:0:0:0:0:
448,192,33637,128,0,34137:0:0:0:0:
320,192,33637,1,0,0:0:0:0:
320,192,34137,128,0,34637:0:0:0:0:
192,192,34137,1,0,0:0:0:0:
192,192,34637,1,0,0:0:0:0:
64,192,34637,1,0,0:0:0:0:
192,192,34887,1,0,0:0:0:0:
64,192,35137,1,0,0:0:0:0:
192,192,35387,128,0,35637:0:0:0:0:
320,192,35637,128,0,36137:0:0:0:0:
64,192,36137,128,0,36637:0:0:0:0:
192,192,36137,1,0,0:0:0:0:
448,192,36637,128,0,37137:0:0:0:0:
320,192,36637,1,0,0:0:0:0:
320,192,37137,128,0,37637:0:0:0:0:
192,192,37137,1,0,0:0:0:0:
64,192,37637,128,0,38637:0:0:0:0:
192,192,37637,1,0,0:0:0:0:
192,192,38137,1,0,0:0:0:0:
192,192,38637,128,0,39137:0:0:0:0:
320,192,38637,1,0,0:0:0:0:
320,192,39137,128,0,39637:0:0:0:0:
448,192,39137,1,0,0:0:0:0:
192,192,39637,128,0,40137:0:0:0:0:
448,192,39637,1,0,0:0:0:0:
448,192,40137,128,0,40637:0:0:0:0:
320,192,40137,1,0,0:0:0:0:
192,192,40637,1,0,0:0:0:0:
64,192,40637,128,0,41137:0:0:0:0:
192,192,41137,1,0,0:0:0:0:
320,192,41137,128,0,41637:0:0:0:0:
192,192,41637,1,0,0:0:0:0:
64,192,41637,128,0,42637:0:0:0:0:
192,192,42137,1,0,0:0:0:0:
320,192,42637,1,0,0:0:0:0:
192,192,42637,128,0,43137:0:0:0:0:
448,192,43137,1,0,0:0:0:0:
320,192,43137,128,0,43637:0:0:0:0:
448,192,43637,1,0,0:0:0:0:
192,192,43637,128,0,44137:0:0:0:0:
320,192,44137,1,0,0:0:0:0:
448,192,44137,128,0,44637:0:0:0:0:
64,192,44637,128,0,45137:0:0:0:0:
320,192,44637,1,0,0:0:0:0:
192,192,45137,128,0,45637:0:0:0:0:
320,192,45137,1,0,0:0:0:0:
64,192,45637,128,0,46637:0:0:0:0:
320,192,45637,1,0,0:0:0:0:
320,192,46137,1,0,0:0:0:0:
448,192,46637,128,0,47137:0:0:0:0:
192,192,46637,1,0,0:0:0:0:
320,192,47137,128,0,47637:0:0:0:0:
192,192,47137,1,0,0:0:0:0:
448,192,47637,128,0,48637:0:0:0:0:
192,192,47637,1,0,0:0:0:0:
192,192,48137,1,0,0:0:0:0:
64,192,48637,128,0,49137:0:0:0:0:
320,192,48637,1,0,0:0:0:0:
192,192,49137,128,0,49637:0:0:0:0:
320,192,49137,1,0,0:0:0:0:
320,192,49637,128,0,50637:0:0:0:0:
64,192,49637,1,0,0:0:0:0:
64,192,50137,1,0,0:0:0:0:
448,192,50637,128,0,51137:0:0:0:0:
192,192,50637,1,0,0:0:0:0:
320,192,51137,128,0,51637:0:0:0:0:
192,192,51137,1,0,0:0:0:0:
192,192,51637,128,0,52553:0:0:0:0:
448,192,51637,1,0,0:0:0:0:
448,192,52137,1,0,0:0:0:0:
64,192,52553,1,0,0:0:0:0:
320,192,52553,1,0,0:0:0:0:
448,192,52553,1,0,0:0:0:0:
192,192,52637,1,0,0:0:0:0:
320,192,52637,128,0,53137:0:0:0:0:
64,192,52887,1,0,0:0:0:0:
448,192,53137,128,0,53637:0:0:0:0:
192,192,53137,1,0,0:0:0:0:
320,192,53387,1,0,0:0:0:0:
64,192,53637,128,0,53887:0:0:0:0:
192,192,53637,1,0,0:0:0:0:
192,192,53887,1,0,0:0:0:0:
448,192,54012,1,0,0:0:0:0:
320,192,54137,1,0,0:0:0:0:
192,192,54262,1,0,0:0:0:0:
64,192,54387,1,0,0:0:0:0:
192,192,54637,128,0,55137:0:0:0:0:
448,192,54637,1,0,0:0:0:0:
64,192,54887,1,0,0:0:0:0:
320,192,55137,128,0,55637:0:0:0:0:
448,192,55137,1,0,0:0:0:0:
64,192,55387,1,0,0:0:0:0:
448,192,55637,128,0,55887:0:0:0:0:
320,192,55887,1,0,0:0:0:0:
64,192,56137,1,0,0:0:0:0:
192,192,56137,1,0,0:0:0:0:
448,192,56387,128,0,56637:0:0:0:0:
320,192,56637,1,0,0:0:0:0:
64,192,56637,128,0,57137:0:0:0:0:
192,192,57137,128,0,57387:0:0:0:0:
320,192,57137,1,0,0:0:0:0:
448,192,57387,128,0,57637:0:0:0:0:
64,192,57637,128,0,57887:0:0:0:0:
320,192,57637,1,0,0:0:0:0:
192,192,57887,1,0,0:0:0:0:
320,192,58137,1,0,0:0:0:0:
448,192,58137,1,0,0:0:0:0:
64,192,58387,128,0,58637:0:0:0:0:
192,192,58637,1,0,0:0:0:0:
448,192,58637,128,0,59137:0:0:0:0:
320,192,59137,128,0,59387:0:0:0:0:
192,192,59137,1,0,0:0:0:0:
192,192,59387,128,0,59637:0:0:0:0:
64,192,59637,1,0,0:0:0:0:
320,192,59637,1,0,0:0:0:0:
448,192,59637,128,0,59887:0:0:0:0:
320,192,59887,128,0,60137:0:0:0:0:
192,192,60137,128,0,60387:0:0:0:0:
448,192,60137,1,0,0:0:0:0:
320,192,60387,128,0,60637:0:0:0:0:
448,192,60637,1,0,0:0:0:0:
192,192,60637,1,0,0:0:0:0:
64,192,60637,128,0,61137:0:0:0:0:
320,192,60887,1,0,0:0:0:0:
192,192,61137,1,0,0:0:0:0:
448,192,61137,128,0,61637:0:0:0:0:
320,192,61387,1,0,0:0:0:0:
192,192,61637,1,0,0:0:0:0:
64,192,61637,128,0,61887:0:0:0:0:
192,192,61887,1,0,0:0:0:0:
448,192,62012,1,0,0:0:0:0:
320,192,62137,1,0,0:0:0:0:
192,192,62262,1,0,0:0:0:0:
64,192,62387,1,0,0:0:0:0:
448,192,62637,1,0,0:0:0:0:
192,192,62637,128,0,63137:0:0:0:0:
64,192,62887,1,0,0:0:0:0:
448,192,63137,1,0,0:0:0:0:
320,192,63137,128,0,63637:0:0:0:0:
64,192,63387,1,0,0:0:0:0:
448,192,63637,128,0,63887:0:0:0:0:
320,192,63887,1,0,0:0:0:0:
192,192,64137,1,0,0:0:0:0:
64,192,64137,1,0,0:0:0:0:
448,192,64387,128,0,64637:0:0:0:0:
64,192,64637,128,0,65137:0:0:0:0:
320,192,64637,1,0,0:0:0:0:
320,192,65137,1,0,0:0:0:0:
192,192,65137,128,0,65387:0:0:0:0:
448,192,65387,128,0,65637:0:0:0:0:
320,192,65637,1,0,0:0:0:0:
64,192,65637,128,0,65887:0:0:0:0:
192,192,65887,1,0,0:0:0:0:
448,192,66137,1,0,0:0:0:0:
320,192,66137,1,0,0:0:0:0:
64,192,66387,128,0,66637:0:0:0:0:
448,192,66637,128,0,67137:0:0:0:0:
192,192,66637,1,0,0:0:0:0:
192,192,67137,1,0,0:0:0:0:
320,192,67137,128,0,67387:0:0:0:0:
192,192,67387,128,0,67637:0:0:0:0:
448,192,67637,128,0,67887:0:0:0:0:
320,192,67637,1,0,0:0:0:0:
64,192,67637,1,0,0:0:0:0:
320,192,67887,128,0,68137:0:0:0:0:
448,192,68137,1,0,0:0:0:0:
192,192,68137,128,0,68387:0:0:0:0:
320,192,68387,128,0,68637:0:0:0:0:
448,192,68637,1,0,0:0:0:0:
64,192,68637,128,0,69137:0:0:0:0:
192,192,68637,1,0,0:0:0:0:
320,192,68887,1,0,0:0:0:0:
448,192,69137,128,0,69637:0:0:0:0:
192,192,69137,1,0,0:0:0:0:
320,192,69387,1,0,0:0:0:0:
64,192,69637,128,0,69887:0:0:0:0:
192,192,69637,1,0,0:0:0:0:
192,192,69887,1,0,0:0:0:0:
448,192,70012,1,0,0:0:0:0:
320,192,70137,1,0,0:0:0:0:
192,192,70262,1,0,0:0:0:0:
64,192,70387,1,0,0:0:0:0:
192,192,70637,128,0,71137:0:0:0:0:
448,192,70637,1,0,0:0:0:0:
64,192,70887,1,0,0:0:0:0:
320,192,71137,128,0,71637:0:0:0:0:
448,192,71137,1,0,0:0:0:0:
64,192,71387,1,0,0:0:0:0:
448,192,71637,128,0,71887:0:0:0:0:
320,192,71887,1,0,0:0:0:0:
64,192,72137,1,0,0:0:0:0:
192,192,72137,1,0,0:0:0:0:
448,192,72387,128,0,72637:0:0:0:0:
320,192,72637,1,0,0:0:0:0:
64,192,72637,128,0,73137:0:0:0:0:
192,192,73137,128,0,73387:0:0:0:0:
320,192,73137,1,0,0:0:0:0:
448,192,73387,128,0,73637:0:0:0:0:
64,192,73637,128,0,73887:0:0:0:0:
320,192,73637,1,0,0:0:0:0:
192,192,73887,1,0,0:0:0:0:
320,192,74137,1,0,0:0:0:0:
448,192,74137,1,0,0:0:0:0:
64,192,74387,128,0,74637:0:0:0:0:
192,192,74637,1,0,0:0:0:0:
448,192,74637,128,0,75137:0:0:0:0:
320,192,75137,128,0,75387:0:0:0:0:
192,192,75137,1,0,0:0:0:0:
192,192,75387,128,0,75637:0:0:0:0:
64,192,75637,1,0,0:0:0:0:
320,192,75637,1,0,0:0:0:0:
448,192,75637,128,0,75887:0:0:0:0:
320,192,75887,1,0,0:0:0:0:
64,192,76137,1,0,0:0:0:0:
192,192,76137,1,0,0:0:0:0:
320,192,76387,128,0,76637:0:0:0:0:
448,192,76637,1,0,0:0:0:0:
192,192,76637,1,0,0:0:0:0:
64,192,76637,128,0,77137:0:0:0:0:
320,192,76887,1,0,0:0:0:0:
192,192,77137,1,0,0:0:0:0:
448,192,77137,128,0,77637:0:0:0:0:
320,192,77387,1,0,0:0:0:0:
320,192,77637,128,0,77887:0:0:0:0:
192,192,77887,1,0,0:0:0:0:
64,192,78012,1,0,0:0:0:0:
192,192,78137,1,0,0:0:0:0:
320,192,78262,1,0,0:0:0:0:
448,192,78387,1,0,0:0:0:0:
64,192,78637,128,0,78887:0:0:0:0:
320,192,78637,1,0,0:0:0:0:
192,192,78887,128,0,79137:0:0:0:0:
64,192,79137,128,0,79387:0:0:0:0:
320,192,79137,1,0,0:0:0:0:
192,192,79387,128,0,79637:0:0:0:0:
320,192,79637,1,0,0:0:0:0:
448,192,79637,128,0,79887:0:0:0:0:
64,192,79887,128,0,80137:0:0:0:0:
192,192,80137,128,0,80387:0:0:0:0:
320,192,80137,1,0,0:0:0:0:
320,192,80387,128,0,80637:0:0:0:0:
192,192,80637,1,0,0:0:0:0:
64,192,80637,128,0,81137:0:0:0:0:
192,192,80887,1,0,0:0:0:0:
320,192,81137,128,0,81387:0:0:0:0:
192,192,81137,1,0,0:0:0:0:
192,192,81387,128,0,81637:0:0:0:0:
320,192,81637,1,0,0:0:0:0:
448,192,81637,128,0,81887:0:0:0:0:
320,192,81887,128,0,82137:0:0:0:0:
192,192,82137,1,0,0:0:0:0:
64,192,82637,128,0,83637:0:0:0:0:
192,192,82637,1,0,0:0:0:0:
192,192,83137,1,0,0:0:0:0:
192,192,83637,1,0,0:0:0:0:
320,192,83637,128,0,83887:0:0:0:0:
448,192,83887,1,0,0:0:0:0:
64,192,84137,1,0,0:0:0:0:
192,192,84137,1,0,0:0:0:0:
448,192,84387,128,0,84637:0:0:0:0:
320,192,84637,1,0,0:0:0:0:
192,192,84637,128,0,85137:0:0:0:0:
448,192,85137,128,0,85387:0:0:0:0:
320,192,85137,1,0,0:0:0:0:
320,192,85387,128,0,85637:0:0:0:0:
64,192,85637,128,0,85887:0:0:0:0:
448,192,85637,1,0,0:0:0:0:
192,192,85887,1,0,0:0:0:0:
320,192,86137,1,0,0:0:0:0:
448,192,86137,1,0,0:0:0:0:
64,192,86387,128,0,86637:0:0:0:0:
192,192,86637,1,0,0:0:0:0:
320,192,86637,128,0,87137:0:0:0:0:
192,192,87137,128,0,87387:0:0:0:0:
448,192,87137,1,0,0:0:0:0:
64,192,87387,128,0,87637:0:0:0:0:
448,192,87637,128,0,87887:0:0:0:0:
192,192,87637,1,0,0:0:0:0:
320,192,87887,1,0,0:0:0:0:
64,192,88137,1,0,0:0:0:0:
192,192,88137,1,0,0:0:0:0:
448,192,88387,128,0,88512:0:0:0:0:
192,192,89137,1,0,0:0:0:0:
64,192,89137,128,0,89387:0:0:0:0:
448,192,89387,128,0,89637:0:0:0:0:
192,192,89637,1,0,0:0:0:0:
320,192,89637,128,0,89887:0:0:0:0:
448,192,89887,1,0,0:0:0:0:
64,192,90137,1,0,0:0:0:0:
192,192,90137,1,0,0:0:0:0:
320,192,90387,128,0,90637:0:0:0:0:
448,192,90637,1,0,0:0:0:0:
192,192,90637,128,0,91137:0:0:0:0:
64,192,91137,128,0,91387:0:0:0:0:
192,192,91387,128,0,91637:0:0:0:0:
448,192,91637,128,0,91887:0:0:0:0:
320,192,91887,1,0,0:0:0:0:
64,192,92137,1,0,0:0:0:0:
448,192,92137,1,0,0:0:0:0:
320,192,92387,128,0,92637:0:0:0:0:
192,192,92637,1,0,0:0:0:0:
448,192,92637,128,0,93137:0:0:0:0:
192,192,93137,128,0,93387:0:0:0:0:
64,192,93137,1,0,0:0:0:0:
320,192,93387,128,0,93637:0:0:0:0:
64,192,93637,128,0,93887:0:0:0:0:
448,192,93637,1,0,0:0:0:0:
192,192,93887,128,0,94137:0:0:0:0:
320,192,94137,128,0,94387:0:0:0:0:
64,192,94137,1,0,0:0:0:0:
448,192,94387,128,0,94637:0:0:0:0:
64,192,94637,128,0,95137:0:0:0:0:
192,192,94637,1,0,0:0:0:0:
448,192,95137,128,0,95637:0:0:0:0:
320,192,95137,1,0,0:0:0:0:
320,192,95637,128,0,95887:0:0:0:0:
192,192,95887,128,0,96137:0:0:0:0:
64,192,96137,128,0,96387:0:0:0:0:
320,192,96137,1,0,0:0:0:0:
192,192,96387,128,0,96637:0:0:0:0:
320,192,96637,128,0,97137:0:0:0:0:
448,192,96637,1,0,0:0:0:0:
448,192,97137,128,0,97637:0:0:0:0:
192,192,97137,1,0,0:0:0:0:
64,192,97637,128,0,97887:0:0:0:0:
320,192,97637,1,0,0:0:0:0:
192,192,97887,128,0,98137:0:0:0:0:
320,192,98137,128,0,98387:0:0:0:0:
448,192,98137,1,0,0:0:0:0:
448,192,98387,128,0,98637:0:0:0:0:
64,192,98637,128,0,99137:0:0:0:0:
192,192,98637,1,0,0:0:0:0:
192,192,99137,1,0,0:0:0:0:
320,192,99137,128,0,99637:0:0:0:0:
192,192,99637,1,0,0:0:0:0:
320,192,100637,5,0,0:0:0:0:
448,192,100637,1,0,0:0:0:0:
64,192,101137,128,0,101637:0:0:0:0:
192,192,101137,1,0,0:0:0:0:
192,192,101637,128,0,102137:0:0:0:0:
320,192,101637,1,0,0:0:0:0:
320,192,102137,128,0,102387:0:0:0:0:
448,192,102137,1,0,0:0:0:0:
64,192,102387,128,0,103637:0:0:0:0:
192,192,102637,1,0,0:0:0:0:
320,192,103137,1,0,0:0:0:0:
448,192,103637,128,0,103887:0:0:0:0:
192,192,103637,1,0,0:0:0:0:
320,192,103887,128,0,104137:0:0:0:0:
192,192,104137,128,0,104387:0:0:0:0:
64,192,104137,1,0,0:0:0:0:
320,192,104387,128,0,104637:0:0:0:0:
64,192,104637,128,0,105137:0:0:0:0:
192,192,104637,1,0,0:0:0:0:
448,192,105137,128,0,105387:0:0:0:0:
320,192,105137,1,0,0:0:0:0:
320,192,105387,128,0,105637:0:0:0:0:
448,192,105637,128,0,105887:0:0:0:0:
192,192,105637,1,0,0:0:0:0:
320,192,105887,128,0,106137:0:0:0:0:
192,192,106137,128,0,106387:0:0:0:0:
448,192,106137,1,0,0:0:0:0:
64,192,106387,128,0,106637:0:0:0:0:
320,192,106637,1,0,0:0:0:0:
448,192,106637,1,0,0:0:0:0:
448,192,107137,128,0,107387:0:0:0:0:
320,192,107137,1,0,0:0:0:0:
64,192,107387,128,0,107637:0:0:0:0:
320,192,107637,128,0,107887:0:0:0:0:
192,192,107637,1,0,0:0:0:0:
64,192,107887,128,0,108137:0:0:0:0:
448,192,108137,128,0,108387:0:0:0:0:
320,192,108137,1,0,0:0:0:0:
320,192,108387,128,0,108637:0:0:0:0:
192,192,108637,128,0,108887:0:0:0:0:
64,192,108637,1,0,0:0:0:0:
448,192,108887,1,0,0:0:0:0:
320,192,108887,128,0,109137:0:0:0:0:
64,192,109137,128,0,109387:0:0:0:0:
192,192,109137,1,0,0:0:0:0:
448,192,109387,128,0,109637:0:0:0:0:
320,192,109637,1,0,0:0:0:0:
192,192,109637,128,0,109887:0:0:0:0:
64,192,109887,128,0,110137:0:0:0:0:
192,192,110137,128,0,110387:0:0:0:0:
320,192,110137,1,0,0:0:0:0:
64,192,110387,128,0,110637:0:0:0:0:
320,192,110637,1,0,0:0:0:0:
448,192,110637,128,0,111137:0:0:0:0:
64,192,111137,128,0,111387:0:0:0:0:
320,192,111137,1,0,0:0:0:0:
192,192,111387,128,0,111637:0:0:0:0:
320,192,111637,128,0,111887:0:0:0:0:
64,192,111637,1,0,0:0:0:0:
448,192,111887,128,0,112137:0:0:0:0:
192,192,112137,128,0,112387:0:0:0:0:
320,192,112137,1,0,0:0:0:0:
64,192,112387,128,0,112637:0:0:0:0:
192,192,112637,1,0,0:0:0:0:
320,192,112637,128,0,113137:0:0:0:0:
64,192,113137,128,0,113387:0:0:0:0:
192,192,113137,1,0,0:0:0:0:
448,192,113387,128,0,113637:0:0:0:0:
192,192,113637,128,0,114137:0:0:0:0:
320,192,113637,1,0,0:0:0:0:
448,192,114137,128,0,114387:0:0:0:0:
320,192,114137,1,0,0:0:0:0:
64,192,114387,128,0,114637:0:0:0:0:
192,192,114637,1,0,0:0:0:0:
320,192,114637,128,0,114887:0:0:0:0:
448,192,114887,128,0,115137:0:0:0:0:
192,192,115137,128,0,115387:0:0:0:0:
320,192,115137,1,0,0:0:0:0:
320,192,115387,128,0,115637:0:0:0:0:
64,192,115637,128,0,115887:0:0:0:0:
192,192,115637,1,0,0:0:0:0:
448,192,116137,1,0,0:0:0:0:
320,192,116262,1,0,0:0:0:0:
448,192,116387,1,0,0:0:0:0:
320,192,116449,1,0,0:0:0:0:
192,192,116512,1,0,0:0:0:0:
64,192,116574,1,0,0:0:0:0:
448,192,116574,1,0,0:0:0:0:
320,192,116637,128,0,117137:0:0:0:0:
192,192,116637,1,0,0:0:0:0:
64,192,116887,1,0,0:0:0:0:
448,192,117137,128,0,117637:0:0:0:0:
192,192,117137,1,0,0:0:0:0:
320,192,117387,1,0,0:0:0:0:
64,192,117637,128,0,117887:0:0:0:0:
192,192,117637,1,0,0:0:0:0:
192,192,117887,1,0,0:0:0:0:
448,192,118012,1,0,0:0:0:0:
320,192,118137,1,0,0:0:0:0:
192,192,118262,1,0,0:0:0:0:
64,192,118387,1,0,0:0:0:0:
192,192,118637,128,0,119137:0:0:0:0:
448,192,118637,1,0,0:0:0:0:
64,192,118887,1,0,0:0:0:0:
320,192,119137,128,0,119637:0:0:0:0:
448,192,119137,1,0,0:0:0:0:
64,192,119387,1,0,0:0:0:0:
448,192,119637,128,0,119887:0:0:0:0:
320,192,119887,1,0,0:0:0:0:
64,192,120137,1,0,0:0:0:0:
192,192,120137,1,0,0:0:0:0:
448,192,120387,128,0,120637:0:0:0:0:
320,192,120637,1,0,0:0:0:0:
64,192,120637,128,0,121137:0:0:0:0:
192,192,121137,128,0,121387:0:0:0:0:
320,192,121137,1,0,0:0:0:0:
448,192,121387,128,0,121637:0:0:0:0:
64,192,121637,128,0,121887:0:0:0:0:
320,192,121637,1,0,0:0:0:0:
192,192,121887,1,0,0:0:0:0:
320,192,122137,1,0,0:0:0:0:
448,192,122137,1,0,0:0:0:0:
64,192,122387,128,0,122637:0:0:0:0:
192,192,122637,1,0,0:0:0:0:
448,192,122637,128,0,123137:0:0:0:0:
320,192,123137,128,0,123387:0:0:0:0:
192,192,123137,1,0,0:0:0:0:
192,192,123387,128,0,123637:0:0:0:0:
64,192,123637,1,0,0:0:0:0:
320,192,123637,1,0,0:0:0:0:
448,192,123637,128,0,123887:0:0:0:0:
320,192,123887,128,0,124137:0:0:0:0:
192,192,124137,128,0,124387:0:0:0:0:
448,192,124137,1,0,0:0:0:0:
320,192,124387,128,0,124637:0:0:0:0:
448,192,124637,1,0,0:0:0:0:
192,192,124637,1,0,0:0:0:0:
64,192,124637,128,0,125137:0:0:0:0:
320,192,124887,1,0,0:0:0:0:
192,192,125137,1,0,0:0:0:0:
448,192,125137,128,0,125637:0:0:0:0:
320,192,125387,1,0,0:0:0:0:
192,192,125637,1,0,0:0:0:0:
64,192,125637,128,0,125887:0:0:0:0:
192,192,125887,1,0,0:0:0:0:
448,192,126012,1,0,0:0:0:0:
320,192,126137,1,0,0:0:0:0:
192,192,126262,1,0,0:0:0:0:
64,192,126387,1,0,0:0:0:0:
448,192,126637,1,0,0:0:0:0:
192,192,126637,128,0,127137:0:0:0:0:
64,192,126887,1,0,0:0:0:0:
448,192,127137,1,0,0:0:0:0:
320,192,127137,128,0,127637:0:0:0:0:
64,192,127387,1,0,0:0:0:0:
448,192,127637,128,0,127887:0:0:0:0:
320,192,127887,1,0,0:0:0:0:
192,192,128137,1,0,0:0:0:0:
64,192,128137,1,0,0:0:0:0:
448,192,128387,128,0,128637:0:0:0:0:
64,192,128637,128,0,129137:0:0:0:0:
320,192,128637,1,0,0:0:0:0:
320,192,129137,1,0,0:0:0:0:
192,192,129137,128,0,129387:0:0:0:0:
448,192,129387,128,0,129637:0:0:0:0:
320,192,129637,1,0,0:0:0:0:
64,192,129637,128,0,129887:0:0:0:0:
192,192,129887,1,0,0:0:0:0:
448,192,130137,1,0,0:0:0:0:
320,192,130137,1,0,0:0:0:0:
64,192,130387,128,0,130637:0:0:0:0:
448,192,130637,128,0,131137:0:0:0:0:
192,192,130637,1,0,0:0:0:0:
192,192,131137,1,0,0:0:0:0:
320,192,131137,128,0,131387:0:0:0:0:
192,192,131387,128,0,131637:0:0:0:0:
448,192,131637,128,0,131887:0:0:0:0:
320,192,131637,1,0,0:0:0:0:
64,192,131637,1,0,0:0:0:0:
320,192,131887,128,0,132137:0:0:0:0:
448,192,132137,1,0,0:0:0:0:
192,192,132137,128,0,132387:0:0:0:0:
320,192,132387,128,0,132637:0:0:0:0:
192,192,132637,128,0,132887:0:0:0:0:
64,192,132887,1,0,0:0:0:0:
320,192,133137,1,0,0:0:0:0:
448,192,133137,1,0,0:0:0:0:
320,192,133387,128,0,133637:0:0:0:0:
448,192,133637,1,0,0:0:0:0:
64,192,134637,128,0,135137:0:0:0:0:
192,192,134637,1,0,0:0:0:0:
448,192,135137,128,0,135387:0:0:0:0:
320,192,135137,1,0,0:0:0:0:
320,192,135387,128,0,135637:0:0:0:0:
192,192,135637,128,0,136137:0:0:0:0:
448,192,135637,1,0,0:0:0:0:
320,192,136137,1,0,0:0:0:0:
64,192,136637,1,0,0:0:0:0:
448,192,136637,1,0,0:0:0:0:
448,192,137262,128,0,137637:0:0:0:0:
320,192,137262,1,0,0:0:0:0:
320,192,137637,128,0,138137:0:0:0:0:
192,192,137637,1,0,0:0:0:0:
192,192,138137,1,0,0:0:0:0:
192,192,138637,1,0,0:0:0:0:
320,192,138637,1,0,0:0:0:0:
320,192,139262,1,0,0:0:0:0:
448,192,139262,128,0,139637:0:0:0:0:
320,192,139637,128,0,140137:0:0:0:0:
192,192,139637,1,0,0:0:0:0:
192,192,140137,1,0,0:0:0:0:
64,192,140137,128,0,140637:0:0:0:0:
192,192,140637,1,0,0:0:0:0:
448,192,140637,1,0,0:0:0:0:
192,192,141262,128,0,141637:0:0:0:0:
320,192,141262,1,0,0:0:0:0:
320,192,141637,1,0,0:0:0:0:
64,192,141637,128,0,142137:0:0:0:0:
192,192,142137,1,0,0:0:0:0:
448,192,142637,1,0,0:0:0:0:
448,192,143262,128,0,143387:0:0:0:0:
320,192,143387,128,0,143637:0:0:0:0:
192,192,143637,128,0,144137:0:0:0:0:
448,192,143637,1,0,0:0:0:0:
320,192,144137,128,0,144637:0:0:0:0:
448,192,144137,1,0,0:0:0:0:
448,192,144637,1,0,0:0:0:0:
448,192,145262,128,0,145637:0:0:0:0:
320,192,145637,1,0,0:0:0:0:
64,192,146637,128,0,147137:0:0:0:0:
192,192,146637,1,0,0:0:0:0:
192,192,147137,1,0,0:0:0:0:
320,192,147262,128,0,147512:0:0:0:0:
192,192,147512,1,0,0:0:0:0:
320,192,147637,1,0,0:0:0:0:
192,192,147637,1,0,0:0:0:0:
64,192,148137,128,0,148637:0:0:0:0:
192,192,148637,1,0,0:0:0:0:
448,192,149262,128,0,149512:0:0:0:0:
320,192,149637,1,0,0:0:0:0:
192,192,149762,1,0,0:0:0:0:
64,192,150137,128,0,150387:0:0:0:0:
192,192,150387,1,0,0:0:0:0:
320,192,150637,128,0,151137:0:0:0:0:
192,192,150637,1,0,0:0:0:0:
192,192,151137,1,0,0:0:0:0:
64,192,151137,128,0,151637:0:0:0:0:
320,192,151637,1,0,0:0:0:0:
192,192,151637,1,0,0:0:0:0:
448,192,151637,128,0,151762:0:0:0:0:
320,192,151762,1,0,0:0:0:0:
448,192,152137,128,0,152637:0:0:0:0:
320,192,152637,128,0,153137:0:0:0:0:
192,192,153137,1,0,0:0:0:0:
448,192,153137,128,0,153637:0:0:0:0:
320,192,153637,1,0,0:0:0:0:
192,192,153637,128,0,153762:0:0:0:0:
64,192,153762,1,0,0:0:0:0:
448,192,154137,128,0,154637:0:0:0:0:
320,192,154637,128,0,155137:0:0:0:0:
320,192,155637,128,0,155887:0:0:0:0:
192,192,155637,1,0,0:0:0:0:
448,192,155887,128,0,156137:0:0:0:0:
192,192,156137,128,0,156637:0:0:0:0:
320,192,156137,1,0,0:0:0:0:
320,192,156637,1,0,0:0:0:0:
448,192,156762,1,0,0:0:0:0:
320,192,156887,1,0,0:0:0:0:
192,192,157137,1,0,0:0:0:0:
64,192,157262,1,0,0:0:0:0:
192,192,157387,1,0,0:0:0:0:
320,192,157637,1,0,0:0:0:0:
448,192,157762,1,0,0:0:0:0:
320,192,157887,1,0,0:0:0:0:
192,192,158137,1,0,0:0:0:0:
192,192,158262,1,0,0:0:0:0:
192,192,158387,1,0,0:0:0:0:
320,192,158637,1,0,0:0:0:0:
192,192,158762,1,0,0:0:0:0:
320,192,158887,1,0,0:0:0:0:
192,192,159137,1,0,0:0:0:0:
320,192,159262,1,0,0:0:0:0:
192,192,159387,1,0,0:0:0:0:
320,192,159637,1,0,0:0:0:0:
192,192,159762,1,0,0:0:0:0:
320,192,159887,1,0,0:0:0:0:
320,192,160137,1,0,0:0:0:0:
320,192,160262,1,0,0:0:0:0:
192,192,160387,1,0,0:0:0:0:
448,192,160637,128,0,160887:0:0:0:0:
320,192,160887,1,0,0:0:0:0:
64,192,161137,128,0,161387:0:0:0:0:
192,192,161387,1,0,0:0:0:0:
448,192,161637,128,0,162137:0:0:0:0:
320,192,161637,1,0,0:0:0:0:
64,192,162137,128,0,162637:0:0:0:0:
320,192,162137,1,0,0:0:0:0:
192,192,162137,1,0,0:0:0:0:
192,192,162637,1,0,0:0:0:0:
320,192,162637,128,0,162887:0:0:0:0:
448,192,162887,1,0,0:0:0:0:
192,192,163137,128,0,163387:0:0:0:0:
64,192,163387,1,0,0:0:0:0:
320,192,163637,128,0,164137:0:0:0:0:
448,192,163637,1,0,0:0:0:0:
448,192,164137,1,0,0:0:0:0:
64,192,164137,1,0,0:0:0:0:
192,192,164137,1,0,0:0:0:0:
448,192,180887,132,0,181512:0:0:0:0:
320,192,181512,128,0,182012:0:0:0:0:
192,192,182012,128,0,182512:0:0:0:0:
448,192,182012,1,0,0:0:0:0:
448,192,182512,128,0,183512:0:0:0:0:
320,192,182512,1,0,0:0:0:0:
320,192,183012,128,0,183512:0:0:0:0:
64,192,183512,1,0,0:0:0:0:
192,192,183512,1,0,0:0:0:0:
448,192,183762,1,0,0:0:0:0:
320,192,183762,1,0,0:0:0:0:
192,192,184012,128,0,184512:0:0:0:0:
64,192,184262,128,0,184512:0:0:0:0:
320,192,184512,1,0,0:0:0:0:
320,192,185012,1,0,0:0:0:0:
448,192,185012,1,0,0:0:0:0:
64,192,185262,1,0,0:0:0:0:
192,192,185262,1,0,0:0:0:0:
320,192,185512,1,0,0:0:0:0:
448,192,185512,1,0,0:0:0:0:
64,192,185762,1,0,0:0:0:0:
192,192,185762,1,0,0:0:0:0:
448,192,186012,128,0,186512:0:0:0:0:
320,192,186262,128,0,186512:0:0:0:0:
192,192,186512,1,0,0:0:0:0:
448,192,187011,128,0,187480:0:0:0:0:
320,192,187480,128,0,187980:0:0:0:0:
64,192,187980,128,0,188230:0:0:0:0:
192,192,188230,128,0,188480:0:0:0:0:
320,192,188480,128,0,188980:0:0:0:0:
64,192,188980,128,0,189230:0:0:0:0:
448,192,188980,1,0,0:0:0:0:
192,192,189230,128,0,189480:0:0:0:0:
64,192,189480,128,0,189730:0:0:0:0:
448,192,189480,1,0,0:0:0:0:
192,192,189730,128,0,189980:0:0:0:0:
448,192,189980,128,0,190480:0:0:0:0:
64,192,189980,1,0,0:0:0:0:
320,192,190480,128,0,190980:0:0:0:0:
64,192,190480,1,0,0:0:0:0:
64,192,190980,128,0,191230:0:0:0:0:
448,192,190980,1,0,0:0:0:0:
192,192,191230,128,0,191480:0:0:0:0:
320,192,191480,128,0,191730:0:0:0:0:
64,192,191480,1,0,0:0:0:0:
448,192,191730,128,0,191980:0:0:0:0:
64,192,191980,128,0,192480:0:0:0:0:
192,192,191980,1,0,0:0:0:0:
320,192,192480,1,0,0:0:0:0:
448,192,192480,128,0,192980:0:0:0:0:
64,192,192980,128,0,193480:0:0:0:0:
192,192,192980,1,0,0:0:0:0:
448,192,193480,128,0,193980:0:0:0:0:
320,192,193480,1,0,0:0:0:0:
64,192,193980,128,0,194230:0:0:0:0:
192,192,193980,1,0,0:0:0:0:
192,192,194230,128,0,194480:0:0:0:0:
448,192,194480,128,0,194980:0:0:0:0:
320,192,194480,1,0,0:0:0:0:
320,192,194980,1,0,0:0:0:0:
64,192,194980,128,0,195230:0:0:0:0:
192,192,195230,128,0,195480:0:0:0:0:
320,192,195480,128,0,195730:0:0:0:0:
448,192,195480,1,0,0:0:0:0:
448,192,195730,128,0,195980:0:0:0:0:
64,192,195980,128,0,196230:0:0:0:0:
320,192,195980,1,0,0:0:0:0:
192,192,196230,128,0,196480:0:0:0:0:
320,192,196480,1,0,0:0:0:0:
448,192,196480,1,0,0:0:0:0:
