osu file format v14

[General]
AudioFilename: audio.mp3
AudioLeadIn: 0
PreviewTime: 79905
Countdown: 0
SampleSet: None
StackLeniency: 0.4
Mode: 0
LetterboxInBreaks: 1
WidescreenStoryboard: 1

[Editor]
Bookmarks: 10937,20834,30420,31039,38152,40626,49905,51142,58564,60420,79286,80214,100008,104647,105265,111451,113616,117946,119801,124131,124750,137121,139595,143307,147637,153204,159389,178564,179183,198977,199286,202688
DistanceSpacing: 1.1
BeatDivisor: 12
GridSize: 16
TimelineZoom: 1.7

[Metadata]
Title:The Worst Guys (Feat. Chance The Rapper)
TitleUnicode:The Worst Guys (Feat. Chance The Rapper)
Artist:Childish Gambino
ArtistUnicode:Childish Gambino
Creator:WITCHDAGGER
Version:gjdskgjsdka
Source:
Tags:rap r&b hip hop childish gambino the worst guys chance the rapper because the internet
BeatmapID:1676987
BeatmapSetID:798613

[Difficulty]
HPDrainRate:5
CircleSize:4
OverallDifficulty:8.6
ApproachRate:9.4
SliderMultiplier:2.4
SliderTickRate:1

[Events]
//Background and Video events
0,0,"fdjsadfjsagf.jpg",0,0
//Break Periods
2,111342,113076
//Storyboard Layer 0 (Background)
//Storyboard Layer 1 (Fail)
//Storyboard Layer 2 (Pass)
//Storyboard Layer 3 (Foreground)
//Storyboard Sound Samples

[TimingPoints]
10936,618.556701030928,4,3,0,30,1,0
10936,-142.857142857143,4,3,0,30,0,0
12791,-100,4,3,0,30,0,0
15884,-142.857142857143,4,3,0,30,0,0
17740,-100,4,3,0,30,0,0
20214,-71.4285714285714,4,3,0,30,0,0
20420,-76.9230769230769,4,3,0,30,0,0
20626,-83.3333333333333,4,3,0,30,0,0
20832,-55.5555555555556,4,3,0,30,0,0
30111,-111.111111111111,4,3,0,30,0,0
31348,-55.5555555555556,4,3,0,30,0,0
38358,-71.4285714285714,4,3,0,30,0,0
38564,-76.9230769230769,4,3,0,30,0,0
38771,-83.3333333333333,4,3,0,30,0,0
39389,-90.9090909090909,4,3,0,30,0,0
39544,-100,4,3,0,30,0,0
39698,-111.111111111111,4,3,0,30,0,0
40008,-125,4,3,0,30,0,0
40317,-333.333333333332,4,3,0,30,0,0
40626,-50,4,3,0,30,0,0
53204,-62.5,4,3,0,30,0,0
53410,-66.6666666666667,4,3,0,30,0,0
53616,-71.4285714285714,4,3,0,30,0,0
53925,-50,4,3,0,30,0,0
55472,-58.8235294117647,4,3,0,30,0,0
56090,-50,4,3,0,30,0,0
57327,-58.8235294117647,4,3,0,30,0,0
57637,-50,4,3,0,30,0,0
59183,-83.3333333333333,4,3,0,30,0,0
59338,-90.9090909090909,4,3,0,30,0,0
59492,-100,4,3,0,30,0,0
59801,-62.5,4,3,0,30,0,0
60008,-71.4285714285714,4,3,0,30,0,0
60214,-83.3333333333333,4,3,0,30,0,0
60420,-142.857142857143,4,3,0,30,0,0
62276,-100,4,3,0,30,0,0
65368,-142.857142857143,4,3,0,30,0,0
67224,-100,4,3,0,30,0,0
70317,-142.857142857143,4,3,0,30,0,0
72173,-100,4,3,0,30,0,0
75265,-142.857142857143,4,3,0,30,0,0
77121,-100,4,3,0,30,0,0
80214,-71.4285714285714,4,3,0,30,0,0
83925,-285.714285714286,4,3,0,30,0,0
84544,-62.5,4,3,0,30,0,0
85162,-71.4285714285714,4,3,0,30,0,0
88874,-227.272727272727,4,3,0,30,0,0
89492,-62.5,4,3,0,30,0,0
90111,-71.4285714285714,4,3,0,30,0,0
93822,-212.765957446809,4,3,0,30,0,0
94441,-62.5,4,3,0,30,0,0
95059,-71.4285714285714,4,3,0,30,0,0
99389,-62.5,4,3,0,30,0,0
100008,-62.5,4,3,0,30,0,0
102791,-58.8235294117647,4,3,0,30,0,0
105265,-55.5555555555556,4,3,0,30,0,0
109905,-52.6315789473684,4,3,0,30,0,0
114853,-66.6666666666667,4,3,0,30,0,0
118564,-83.3333333333333,4,3,0,30,0,0
119492,-333.333333333333,4,3,0,30,0,0
119801,-50,4,3,0,30,0,0

[Colours]
Combo1 : 250,211,211
Combo2 : 227,231,88
Combo3 : 148,219,128
Combo4 : 132,172,240
Combo5 : 155,230,219
Combo6 : 188,131,222

[HitObjects]
155,322,10936,6,0,P|124:240|42:249,2,167.999994873047
234,282,12791,2,0,P|169:178|23:169,2,240
305,248,14647,1,0,0:0:0:0:
375,211,15265,1,0,0:0:0:0:
375,211,15884,6,0,P|324:141|376:78,2,167.999994873047
298,257,17740,2,0,P|245:154|286:46,2,240
227,302,19595,1,0,0:0:0:0:
155,346,20214,38,0,P|144:307|160:247,1,83.9999974365235
113,327,20420,38,0,P|122:289|162:260,1,77.9999964294435
93,299,20626,6,0,P|117:271|164:267,1,71.9999978027344
224,248,20832,6,0,P|172:222|151:141,1,107.999996704102
251,38,21142,2,0,P|300:54|326:103,1,107.999996704102
298,272,21451,2,0,P|256:318|181:313,1,107.999996704102
77,204,21760,1,0,0:0:0:0:
251,114,21915,1,0,0:0:0:0:
55,81,22070,2,0,L|161:99,1,107.999996704102
373,328,22379,2,0,L|228:303,1,107.999996704102
436,285,22688,2,0,L|154:235,1,215.999993408203
436,285,23307,5,0,0:0:0:0:
351,69,23461,1,0,0:0:0:0:
346,225,23616,1,0,0:0:0:0:
451,29,23771,1,0,0:0:0:0:
273,144,23925,2,0,L|287:258,1,107.999996704102
193,77,24234,1,0,0:0:0:0:
215,304,24389,1,0,0:0:0:0:
283,64,24544,2,0,P|232:74|193:142,1,107.999996704102
212,269,24853,2,0,P|239:314|308:328,1,107.999996704102
177,191,25162,2,0,P|181:320|226:361,1,179.999994506836
280,378,25472,5,0,0:0:0:0:
289,253,25626,1,0,0:0:0:0:
238,139,25781,2,0,P|183:112|122:133,1,107.999996704102
259,36,26090,1,0,0:0:0:0:
63,112,26245,1,0,0:0:0:0:
319,143,26399,1,0,0:0:0:0:
139,26,26554,1,0,0:0:0:0:
388,186,26709,2,0,P|417:230|406:287,1,107.999996704102
261,326,27018,2,0,P|215:287|219:225,1,107.999996704102
313,61,27327,2,0,P|379:88|386:190,1,179.999994506836
345,246,27637,6,0,P|355:139|429:87,1,179.999994506836
475,68,27946,5,0,0:0:0:0:
273,280,28100,1,0,0:0:0:0:
449,199,28255,5,0,0:0:0:0:
321,143,28410,1,0,0:0:0:0:
203,236,28564,2,0,P|194:292|220:343,1,107.999996704102
246,147,28874,2,0,P|169:197|148:304,1,179.999994506836
132,351,29183,6,0,P|140:263|84:195,1,179.999994506836
47,132,29492,2,0,P|130:169|185:245,1,179.999994506836
213,307,29801,2,0,P|230:227|273:291,1,179.999994506836
282,345,30111,6,0,P|303:367|308:338,1,71.9999978027344
313,295,31348,6,0,P|328:382|255:354,1,179.999994506836
239,307,31657,1,0,0:0:0:0:
291,162,31812,1,0,0:0:0:0:
416,263,31966,2,0,L|464:383,1,107.999996704102
224,209,32276,2,0,L|183:108,1,107.999996704102
406,126,32585,2,0,L|476:297,1,179.999994506836
500,361,32894,1,0,0:0:0:0:
355,214,33049,1,0,0:0:0:0:
459,53,33204,2,0,P|490:95|492:148,1,107.999996704102
302,290,33513,2,0,P|269:201|319:129,1,179.999994506836
366,86,33822,6,0,P|315:133|205:123,1,179.999994506836
150,77,34131,5,0,0:0:0:0:
400,11,34286,1,0,0:0:0:0:
148,208,34441,1,0,0:0:0:0:
275,43,34595,1,0,0:0:0:0:
190,303,34750,1,0,0:0:0:0:
210,126,34905,1,0,0:0:0:0:
298,330,35059,1,0,0:0:0:0:
111,280,35214,1,0,0:0:0:0:
263,244,35368,1,0,0:0:0:0:
374,350,35523,1,0,0:0:0:0:
96,360,35678,6,0,P|33:307|61:214,1,179.999994506836
116,173,35987,2,0,P|157:98|91:25,1,179.999994506836
40,3,36296,2,0,L|208:73,1,179.999994506836
278,90,36606,6,0,P|320:35|249:58,1,179.999994506836
226,146,36915,38,0,P|280:165|342:149,1,107.999996704102
150,177,37224,1,0,0:0:0:0:
400,187,37379,1,0,0:0:0:0:
167,101,37533,2,0,P|96:121|73:177,1,107.999996704102
234,303,37843,1,0,0:0:0:0:
292,92,37997,1,0,0:0:0:0:
86,221,38152,2,0,L|158:301,1,107.999996704102
214,363,38358,38,0,L|156:298,1,83.9999974365235
233,322,38564,6,0,L|146:297,1,77.9999964294435
89,292,38771,5,0,0:0:0:0:
32,261,38874,1,0,0:0:0:0:
20,206,38977,1,0,0:0:0:0:
50,162,39080,1,0,0:0:0:0:
92,137,39183,1,0,0:0:0:0:
130,113,39286,1,0,0:0:0:0:
147,76,39389,6,0,B|147:51|147:51|136:23,1,44.0000013427735
119,33,39544,2,0,B|103:15|103:15|77:13,1,40,0|0,3:0|0:0,3:0:0:0:
85,44,39698,6,0,B|64:41|64:41|43:56,2,35.9999989013672
71,75,40008,2,0,B|56:88|56:88|51:108,2,32
35,172,40317,6,0,L|43:141,1,29.9999990844727
71,75,40626,38,0,P|126:41|185:39,1,120
349,124,40936,1,0,0:0:0:0:
158,155,41090,1,0,0:0:0:0:
281,20,41245,1,0,0:0:0:0:
442,105,41399,1,0,0:0:0:0:
241,241,41554,2,0,P|183:272|125:270,1,120
253,139,41863,1,0,0:0:0:0:
406,228,42018,1,0,0:0:0:0:
184,99,42173,1,0,0:0:0:0:
474,267,42328,1,0,0:0:0:0:
288,69,42482,6,0,P|228:63|175:133,1,120
319,293,42791,2,0,P|376:278|402:194,1,120
253,139,43100,1,0,0:0:0:0:
237,315,43255,1,0,0:0:0:0:
405,227,43410,2,0,L|424:82,1,120
184,98,43719,2,0,L|165:243,1,120
309,108,44028,1,0,3:0:0:0:
168,216,44183,1,0,3:0:0:0:
371,60,44338,1,0,3:0:0:0:
105,263,44493,1,0,3:0:0:0:
264,42,44647,6,0,P|321:29|384:89,1,120
477,172,44956,1,0,0:0:0:0:
309,108,45111,6,0,P|341:157|303:236,1,120
252,348,45420,1,0,0:0:0:0:
264,169,45575,6,0,P|224:213|138:196,1,120
17,176,45884,1,0,0:0:0:0:
134,57,46039,1,0,0:0:0:0:
167,215,46193,1,0,0:0:0:0:
50,334,46348,1,0,0:0:0:0:
106,172,46503,2,0,P|197:145|236:243,1,200
222,296,46812,2,0,B|268:116|268:116|291:177,1,240
339,302,47276,1,0,0:0:0:0:
187,228,47430,6,0,P|149:319|242:369,1,200
296,374,47740,1,0,0:0:0:0:
460,311,47894,1,0,0:0:0:0:
325,196,48049,2,0,L|225:114,1,120
94,153,48358,2,0,L|194:235,1,120
414,230,48667,1,0,0:0:0:0:
236,56,48822,1,0,0:0:0:0:
118,271,48977,2,0,P|128:284|267:228,1,200
271,164,49286,2,0,P|333:93|419:130,1,200
450,200,49595,6,0,P|459:244|411:183,1,240
394,186,51142,5,0,0:0:0:0:
288,24,51296,1,0,0:0:0:0:
277,216,51451,1,0,0:0:0:0:
399,66,51606,1,0,0:0:0:0:
213,116,51760,2,0,P|159:208|194:302,1,200
212,360,52070,6,0,P|168:274|75:243,1,200
1,253,52379,2,0,L|216:225,1,200
277,216,52688,1,0,0:0:0:0:
474,191,52997,6,0,L|350:207,1,120
278,168,53204,6,0,P|309:204|368:199,1,96
277,216,53410,6,0,P|320:230|361:189,1,90.0000034332277
280,267,53616,6,0,P|338:230|359:164,1,139.999995727539
365,94,53925,6,0,P|366:192|418:276,1,200
459,340,54234,2,0,P|383:257|286:267,1,200
229,290,54544,6,0,P|132:285|72:209,1,200
61,134,54853,6,0,P|143:182|93:282,1,200
90,334,55162,6,0,P|143:257|238:312,1,200
293,330,55472,6,0,P|127:208|40:305,1,374.000007133484
25,377,56090,1,0,0:0:0:0:
58,135,56245,1,0,0:0:0:0:
165,330,56399,1,0,0:0:0:0:
191,88,56554,1,0,0:0:0:0:
305,282,56709,2,0,P|323:186|281:88,1,200
252,25,57018,2,0,P|299:112|377:183,1,200
443,213,57327,6,0,P|454:273|376:241,1,170.000003242493,0|0,0:0|0:0,3:0:0:0:
372,180,57637,5,0,0:0:0:0:
456,45,57791,1,0,0:0:0:0:
509,174,57946,5,0,0:0:0:0:
305,49,58100,1,0,0:0:0:0:
178,205,58255,2,0,P|165:287|276:261,1,200
304,236,58564,5,0,0:0:0:0:
303,170,58667,1,0,0:0:0:0:
275,119,58771,1,0,0:0:0:0:
234,89,58874,1,0,0:0:0:0:
195,77,58977,1,0,0:0:0:0:
164,77,59080,1,0,0:0:0:0:
132,78,59183,6,0,B|109:79|109:79|75:100,1,47.9999985351563
101,99,59338,2,0,B|80:112|80:112|70:136,1,44.0000013427735,0|0,3:0|0:0,3:0:0:0:
85,139,59492,6,0,B|71:157|71:157|71:185,2,40
148,95,59801,6,0,P|191:103|224:146,1,96
183,75,60008,6,0,P|219:113|223:148,1,83.9999974365235
223,73,60214,6,0,P|231:107|223:142,1,71.9999978027344
185,212,60420,6,0,P|174:288|230:361,2,167.999994873047
140,141,62276,2,0,P|97:248|126:368,2,240
192,83,64131,1,0,0:0:0:0:
271,85,64750,1,0,0:0:0:0:
324,142,65368,6,0,P|357:211|325:298,2,167.999994873047
342,57,67224,2,0,P|418:144|428:267,2,240
278,12,69080,1,0,0:0:0:0:
203,37,69698,1,0,0:0:0:0:
185,115,70317,6,0,P|203:167|215:93,2,167.999994873047
168,106,72173,2,0,P|240:180|253:81,2,240
220,131,74028,1,0,0:0:0:0:
257,199,74647,1,0,0:0:0:0:
283,270,75265,6,0,P|324:302|296:234,2,167.999994873047
258,264,77121,2,0,P|358:286|316:197,2,240
313,253,79286,5,0,0:0:0:0:
359,210,79389,1,0,0:0:0:0:
382,258,79492,1,0,0:0:0:0:
423,236,79595,1,0,0:0:0:0:
446,266,79698,1,0,0:0:0:0:
475,259,79801,1,0,0:0:0:0:
505,271,79905,1,0,0:0:0:0:
504,271,80214,6,0,P|306:357|205:166,1,475.999985473633
270,130,81142,2,0,P|246:190|261:266,1,139.999995727539
330,281,81451,2,0,P|313:149|432:190,1,307.999990600586
472,250,82070,6,0,P|473:176|421:108,1,139.999995727539
396,54,82379,2,0,P|498:132|486:303,1,307.999990600586
419,314,82997,2,0,P|469:258|479:193,1,139.999995727539
416,159,83307,2,0,P|363:287|288:183,1,307.999990600586
360,210,83925,6,0,L|282:199,1,76.9999976501466
208,188,84544,6,0,B|161:191|161:191|134:230,1,96
88,287,84750,6,0,B|109:245|109:245|88:202,1,96
63,132,84956,6,0,B|88:171|88:171|136:174,1,96
180,116,85162,6,0,P|377:107|335:324,1,475.999985473633
273,293,86090,2,0,P|321:287|356:251,1,83.9999974365235
284,103,86399,2,0,P|219:125|187:186,1,139.999995727539
161,255,86709,2,0,P|151:175|177:119,1,139.999995727539
193,50,87018,6,0,P|143:97|113:160,1,139.999995727539
112,234,87327,2,0,P|170:333|351:359,1,307.999990600586
378,294,87946,2,0,P|318:332|246:330,1,139.999995727539
215,268,88255,2,0,P|327:285|343:125,1,307.999990600586
282,200,88874,6,0,L|347:124,1,96.8000029541017
387,67,89492,6,0,B|365:96|365:96|281:108,1,96
233,100,89698,6,0,B|269:104|269:104|321:171,1,96
336,215,89905,6,0,B|321:181|321:181|353:102,1,96
408,90,90111,6,0,B|323:309|323:309|316:328|304:345|275:351|253:344|238:322|237:302|242:284|242:284|282:181,1,475.999985473633
262,118,91039,2,0,L|211:250,1,139.999995727539
153,290,91348,2,0,B|205:151|205:151|212:132|215:112|197:88|176:78|150:84|136:99|128:115|128:115|120:137,1,307.999990600586
61,183,91966,6,0,L|112:49,1,139.999995727539
169,10,92276,2,0,L|52:317,1,307.999990600586
79,367,92894,2,0,L|130:233,1,139.999995727539
188,192,93204,2,0,B|151:289|151:289|146:306|147:327|162:349|184:356|213:350|225:333|232:314|232:314|262:237,1,307.999990600586
337,254,93822,6,0,P|298:224|256:251,1,103.399998422241
231,317,94441,6,0,B|188:345|188:345|73:309,1,160
22,261,94750,2,0,L|121:292,1,96
257,249,95059,38,0,B|93:199|93:199|73:193|55:182|47:154|53:131|74:115|94:112|112:116|112:116|275:166,1,475.999985473633
345,143,95987,2,0,L|245:113,1,83.9999974365235
176,272,96296,2,0,L|310:312,1,139.999995727539
391,289,96606,2,0,L|256:248,1,139.999995727539
208,191,96915,6,0,L|73:150,1,139.999995727539
27,92,97224,2,0,L|328:181,1,307.999990600586
398,159,97843,2,0,L|263:118,1,139.999995727539
195,142,98152,2,0,B|317:178|317:178|337:184|355:195|363:223|357:246|336:262|316:265|298:261|298:261|245:245,1,307.999990600586
176,224,98771,6,0,L|258:249,1,83.9999974365235
256,248,99389,6,0,B|244:261|244:261|165:219,1,96
99,233,99595,6,0,B|93:216|93:216|169:168,1,96
191,102,99801,6,0,B|208:105|208:105|211:195,1,96
286,169,100008,6,0,P|338:226|321:302,1,160,0|0,0:0|0:0,2:0:0:0:
245,328,100317,1,0,0:0:0:0:
210,184,100472,1,0,0:0:0:0:
325,103,100626,2,0,P|386:152|416:227,1,160
433,299,100936,2,0,P|428:175|454:133,1,160
498,83,101245,5,0,0:0:0:0:
498,83,101554,6,0,P|421:114|377:193,1,160
367,251,101863,2,0,P|375:161|320:100,1,160
276,59,102173,1,0,0:0:0:0:
147,218,102327,1,0,0:0:0:0:
355,325,102482,6,0,P|385:294|363:248,1,96
243,163,102791,5,0,0:0:0:0:
51,273,102946,1,0,0:0:0:0:
239,338,103100,2,0,P|326:314|369:233,1,170.000003242493
358,177,103410,2,0,P|357:260|430:294,1,170.000003242493
500,310,103719,2,0,P|422:336|342:302,1,170.000003242493
308,237,104028,6,0,P|323:156|393:104,1,170.000003242493
458,81,104338,2,0,P|360:103|276:62,1,170.000003242493
246,29,104647,1,0,0:0:0:0:
96,185,104801,1,0,0:0:0:0:
41,204,105265,5,0,0:0:0:0:
191,48,105420,1,0,0:0:0:0:
298,232,105575,2,0,P|314:299|218:351,1,179.999994506836
155,353,105884,1,0,0:0:0:0:
96,185,106039,1,0,0:0:0:0:
276,161,106193,2,0,P|349:227|353:324,1,179.999994506836
388,371,106503,6,0,P|374:259|424:225,1,179.999994506836
486,207,106812,2,0,L|306:259,1,179.999994506836
239,278,107121,1,0,0:0:0:0:
37,250,107276,2,0,P|46:199|95:184,1,107.999996704102
37,250,107740,5,0,0:0:0:0:
239,278,107894,1,0,0:0:0:0:
161,91,108049,2,0,P|90:177|90:177,1,107.999996704102
127,346,108358,1,0,0:0:0:0:
278,152,108513,1,0,0:0:0:0:
37,250,108667,2,0,P|81:177|166:187,1,179.999994506836
233,214,108977,2,0,P|157:175|162:88,1,179.999994506836
210,31,109286,6,0,B|242:3|242:3|237:113,2,143.999995605469
131,190,109905,6,0,P|138:261|256:317,1,189.999994926453
311,311,110214,1,0,0:0:0:0:
418,146,110368,1,0,0:0:0:0:
234,215,110523,1,0,0:0:0:0:
419,267,110678,1,0,0:0:0:0:
300,113,110832,2,0,P|228:116|291:150,1,189.999994926453
337,211,111142,5,0,0:0:0:0:
337,211,113616,6,0,L|264:123,1,113.999996955872
413,230,113925,1,0,0:0:0:0:
188,104,114080,1,0,0:0:0:0:
488,249,114234,6,0,P|409:212|358:284,1,189.999994926453
328,350,114544,6,0,P|313:258|365:180,1,189.999994926453
399,117,114853,6,0,P|301:181|264:293,1,240.000009155274
280,366,115317,5,0,0:0:0:0:
427,279,115472,1,0,0:0:0:0:
285,171,115626,1,0,0:0:0:0:
377,362,115781,1,0,0:0:0:0:
381,193,115936,1,0,0:0:0:0:
213,267,116090,2,0,B|162:290|162:290|258:312,1,150.000005722046
317,276,116399,5,0,0:0:0:0:
174,171,116554,1,0,0:0:0:0:
134,362,116709,5,0,0:0:0:0:
267,194,116863,1,0,0:0:0:0:
150,96,117018,2,0,P|102:139|97:185,1,90.0000034332277
235,265,117327,2,0,P|288:269|342:177,1,150.000005722046
333,127,117637,1,0,0:0:0:0:
126,231,117791,1,0,0:0:0:0:
346,323,117946,5,0,0:0:0:0:
394,278,118049,1,0,0:0:0:0:
415,223,118153,1,0,0:0:0:0:
412,172,118256,1,0,0:0:0:0:
395,134,118359,1,0,0:0:0:0:
375,111,118462,1,0,0:0:0:0:
343,82,118564,6,0,L|301:55,1,47.9999985351563
183,59,118719,2,0,L|223:87,1,47.9999985351563
284,138,118874,2,0,L|324:166,1,47.9999985351563
314,246,119028,6,0,L|274:218,1,47.9999985351563
429,192,119183,2,0,L|469:220,1,47.9999985351563
417,317,119338,2,0,L|377:289,1,47.9999985351563
338,134,119492,54,0,L|363:151,1,29.9999990844727
429,192,119801,6,0,P|397:142|414:85,1,120
