osu file format v14

[General]
AudioFilename: Yuki Kaai - Calalini.mp3
AudioLeadIn: 0
PreviewTime: 96098
Countdown: 0
SampleSet: Soft
StackLeniency: 0.7
Mode: 0
LetterboxInBreaks: 0
WidescreenStoryboard: 0

[Editor]
Bookmarks: 144955
DistanceSpacing: 1.2
BeatDivisor: 4
GridSize: 4
TimelineZoom: 1

[Metadata]
Title:Calalini
TitleUnicode:Calalini
Artist:Childhood Crusher-P
ArtistUnicode:Childhood Crusher-P
Creator:neonat
Version:Normal
Source:
Tags:Kaai Yuki Vocaloid Planty-P Bunnybutt Cien
BeatmapID:293607
BeatmapSetID:112664

[Difficulty]
HPDrainRate:4
CircleSize:3
OverallDifficulty:4
ApproachRate:5
SliderMultiplier:1.5
SliderTickRate:1

[Events]
//Background and Video events
0,0,"Calalini.png",0,0
Video,-300,"Calalini.avi"
//Break Periods
2,192298,197327
//Storyboard Layer 0 (Background)
//Storyboard Layer 1 (Fail)
//Storyboard Layer 2 (Pass)
//Storyboard Layer 3 (Foreground)
//Storyboard Sound Samples

[TimingPoints]
13813,428.571428571429,4,1,0,70,1,0
54955,-100,4,2,1,70,0,0
96098,-100,4,2,1,70,0,1
123527,-100,4,2,1,70,0,0
164670,-100,4,2,1,70,0,1
192098,-100,4,2,1,40,0,0
198527,-100,4,2,1,40,0,0
226384,-100,4,2,1,70,0,1
281241,-100,4,2,1,40,0,1
288098,-100,4,2,1,25,0,0

[Colours]
Combo1 : 245,224,71
Combo2 : 180,82,182
Combo3 : 103,146,134
Combo4 : 243,160,219

[HitObjects]
88,264,27527,6,0,P|165:293|233:250,1,150,0|8,0:0|0:0,0:0:0:0:
156,200,28170,1,0,0:0:0:0:
88,140,28384,2,0,P|164:109|228:145,1,150,0|8,0:0|0:0,0:0:0:0:
392,192,29241,2,0,P|452:180|472:156,2,75,0|0|8,0:0|0:0|0:0,0:0:0:0:
320,136,29884,1,0,0:0:0:0:
248,84,30098,2,0,P|184:72|156:92,2,75,0|0|8,0:0|0:0|0:0,0:0:0:0:
200,260,30955,6,0,P|264:264|328:336,2,150,0|8|0,0:0|0:0|0:0,0:0:0:0:
116,292,32027,1,0,0:0:0:0:
32,320,32241,2,0,P|0:272|16:164,1,150,8|0,0:0|0:0,0:0:0:0:
180,136,33098,2,0,P|240:148|332:88,1,150,8|0,0:0|0:0,0:0:0:0:
396,68,33741,2,0,P|456:60|488:76,2,75,0|8|0,0:0|0:0|0:0,0:0:0:0:
436,148,34384,6,0,L|436:316,1,150,0|8,0:0|0:0,0:0:0:0:
356,340,35027,1,0,0:0:0:0:
268,320,35241,2,0,L|268:160,1,150,0|8,0:0|0:0,0:0:0:0:
116,72,36098,2,0,P|72:64|40:80,2,75,0|0|8,0:0|0:0|0:0,0:0:0:0:
196,116,36741,1,0,0:0:0:0:
280,84,36955,2,0,P|318:76|353:27,2,75,0|0|8,0:0|0:0|0:0,0:0:0:0:
136,192,37813,6,0,P|152:240|264:268,1,150,0|8,0:0|0:0,0:0:0:0:
224,188,38455,1,0,0:0:0:0:
212,100,38670,2,0,P|280:120|312:192,1,150,0|8,0:0|0:0,0:0:0:0:
456,296,39527,2,0,P|452:252|428:216,2,75,0|0|8,0:0|0:0|0:0,0:0:0:0:
380,348,40170,1,0,0:0:0:0:
292,324,40384,2,0,P|224:284|128:296,1,150,0|8,0:0|0:0,0:0:0:0:
60,132,41241,6,0,P|80:72|184:44,1,150,0|8,0:0|0:0,0:0:0:0:
236,76,41884,1,0,0:0:0:0:
216,164,42098,2,0,P|292:144|326:72,1,150,0|8,0:0|0:0,0:0:0:0:
466,196,42955,2,0,L|426:292,1,75
364,320,43384,2,0,L|260:344,1,75,8|0,0:0|0:0,0:0:0:0:
208,300,43813,2,0,L|48:244,1,150,0|8,0:0|0:0,0:0:0:0:
68,72,44670,6,0,P|116:32|200:52,1,150,0|8,0:0|0:0,0:0:0:0:
228,132,45313,1,0,0:0:0:0:
284,204,45527,2,0,P|320:224|364:208,2,75,0|0|8,0:0|0:0|0:0,0:0:0:0:
104,192,46384,2,0,P|76:240|124:340,1,150,0|8,0:0|0:0,0:0:0:0:
164,260,47027,1,0,0:0:0:0:
228,324,47241,2,0,P|252:244|220:188,1,150,0|8,0:0|0:0,0:0:0:0:
88,72,48098,6,0,P|124:32|228:28,1,150,0|8,0:0|0:0,0:0:0:0:
288,76,48741,1,0,0:0:0:0:
376,60,48955,2,0,P|432:72|492:176,1,150,0|8,0:0|0:0,0:0:0:0:
348,256,49813,2,0,P|316:300|272:309,2,75,0|0|8,0:0|0:0|0:0,0:0:0:0:
309,176,50455,1,0,0:0:0:0:
228,133,50670,2,0,P|195:151|178:184,2,75,0|0|8,0:0|0:0|0:0,0:0:0:0:
404,88,51527,6,0,P|456:120|464:232,1,150,0|8,0:0|0:0,0:0:0:0:
428,280,52170,1,0,0:0:0:0:
352,328,52384,2,0,P|280:360|208:344,1,150,0|8,0:0|0:0,0:0:0:0:
80,224,53241,2,0,L|40:144,1,75
20,72,53670,1,8,0:0:0:0:
100,32,53884,1,0,0:0:0:0:
188,56,54098,2,0,L|284:16,2,75,0|0|8,0:0|0:0|0:0,0:0:0:0:
316,188,54955,6,0,P|372:200|416:304,1,150,2|0,0:0|0:0,0:0:0:0:
260,360,55813,2,0,P|224:332|220:292,2,75
348,364,56455,2,0,P|424:356|452:272,1,150,2|0,0:0|0:0,0:0:0:0:
468,208,57098,2,0,L|480:120,1,75,0|2,0:0|0:0,0:0:0:0:
226,45,57955,2,0,L|154:73,1,75
80,120,58384,6,0,P|40:160|52:256,2,150,2|0|0,0:0|0:0|0:0,0:0:0:0:
156,72,59455,2,0,P|208:88|228:112,1,75
248,184,59884,2,0,P|280:244|372:232,1,150,2|0,0:0|0:0,0:0:0:0:
420,184,60527,2,0,L|480:128,2,75,0|0|2,0:0|0:0|0:0,0:0:0:0:
304,324,61384,1,0,0:0:0:0:
168,208,61813,6,0,P|156:144|80:108,2,150,2|0|0,0:0|0:0|0:0,0:0:0:0:
80,196,62884,2,0,L|12:244,1,75
48,324,63313,2,0,P|104:376|196:340,1,150,2|0,0:0|0:0,0:0:0:0:
248,316,63955,2,0,L|328:308,2,75,0|2|0,0:0|0:0|0:0,0:0:0:0:
188,144,64813,2,0,L|232:72,1,75
316,68,65241,6,0,P|352:128|444:140,1,150,2|0,0:0|0:0,0:0:0:0:
472,224,65884,1,0,0:0:0:0:
392,268,66098,2,0,B|320:272|320:240|240:248,1,150
160,280,66741,2,0,P|88:296|24:228,1,150,2|0,0:0|0:0,0:0:0:0:
44,164,67384,1,0,0:0:0:0:
80,80,67598,2,0,P|120:56|260:164,1,225,2|0,0:0|0:0,0:0:0:0:
256,316,68670,6,0,P|324:324|416:188,1,225,2|0,0:0|0:0,0:0:0:0:
392,128,69527,2,0,L|448:56,2,75
304,140,70170,2,0,P|248:120|76:136,1,225,2|0,0:0|0:0,0:0:0:0:
32,304,71241,1,0,0:0:0:0:
32,304,71455,2,0,P|68:332|240:296,1,225
292,240,72313,5,0,0:0:0:0:
280,152,72527,1,0,0:0:0:0:
224,84,72741,2,0,P|188:52|68:72,2,150,2|0|0,0:0|0:0|0:0,0:0:0:0:
280,152,73813,2,0,P|348:168|416:104,1,150
332,80,74455,2,0,L|404:296,1,225,2|0,0:0|0:0,0:0:0:0:
224,328,75527,6,0,P|160:344|112:208,1,225,2|0,0:0|0:0,0:0:0:0:
172,168,76384,2,0,P|216:140|228:88,2,75
88,140,77027,2,0,P|120:68|256:44,1,225,2|0,0:0|0:0,0:0:0:0:
336,84,77884,2,0,P|384:112|472:76,1,150
304,296,78955,6,0,P|364:296|400:328,2,75
216,316,79598,2,0,P|152:344|80:296,1,150,2|0,0:0|0:0,0:0:0:0:
52,132,80455,1,0,0:0:0:0:
108,60,80670,2,0,P|156:48|204:64,2,75
52,132,81313,2,0,P|104:160|272:128,1,225,2|0,0:0|0:0,0:0:0:0:
255,316,82384,6,0,P|327:316|391:240,2,150,2|0|0,0:0|0:0|0:0,0:0:0:0:
124,192,83670,1,0,0:0:0:0:
250,63,84098,2,0,P|303:13|377:12,1,150,2|0,0:0|0:0,0:0:0:0:
447,67,84741,1,2,0:0:0:0:
471,245,85170,2,0,L|299:245,1,150
230,248,85813,6,0,P|190:264|166:304,2,75,2|0|0,0:0|0:0|0:0,0:0:0:0:
236,158,86455,2,0,P|188:154|156:126,2,75
326,159,87098,2,0,L|422:159,1,75
472,212,87527,2,0,P|488:136|440:80,1,150,2|0,0:0|0:0,0:0:0:0:
356,68,88170,1,2,0:0:0:0:
40,232,89241,6,0,P|44:280|128:336,2,150,2|0|0,0:0|0:0|0:0,0:0:0:0:
92,160,90313,1,0,0:0:0:0:
180,136,90527,2,0,P|260:148|320:104,1,150,0|2,0:0|0:0,0:0:0:0:
392,64,91170,2,0,L|480:99,1,75
492,177,91598,2,0,L|492:337,2,150,0|2|0,0:0|0:0|0:0,0:0:0:0:
492,86,92670,6,0,L|492:-2,2,75,2|0|0,0:0|0:0|0:0,0:0:0:0:
410,125,93313,2,0,L|334:125,2,75,0|2|0,0:0|0:0|0:0,0:0:0:0:
445,207,93955,2,0,P|445:255|405:287,1,75
344,245,94384,2,0,P|276:205|196:221,1,150,2|0,0:0|0:0,0:0:0:0:
180,300,95027,2,0,P|132:328|32:216,1,225,2|0,0:0|0:0,0:0:0:0:
48,49,96098,6,0,L|208:33,1,150,0|8,0:0|0:0,0:0:0:0:
288,48,96741,2,0,L|456:36,1,150,0|0,0:0|0:0,0:0:0:0:
488,112,97384,2,0,L|488:208,1,75,8|0,0:0|0:0,0:0:0:0:
430,257,97813,2,0,P|355:279|327:346,1,150,0|8,0:0|0:0,0:0:0:0:
417,346,98455,2,0,L|301:202,1,150
277,150,99098,2,0,L|185:138,1,75,8|0,0:0|0:0,0:0:0:0:
114,161,99527,6,0,P|54:201|94:285,1,150,0|8,0:0|0:0,0:0:0:0:
151,303,100170,2,0,P|211:263|171:179,1,150,0|0,0:0|0:0,0:0:0:0:
113,160,100813,2,0,P|72:136|60:100,1,75,8|0,0:0|0:0,0:0:0:0:
100,32,101241,2,0,P|160:52|264:20,1,150,0|8,0:0|0:0,0:0:0:0:
332,28,101884,1,0,0:0:0:0:
420,52,102098,2,0,L|500:108,1,75
293,287,102955,6,0,P|233:323|153:271,1,150,0|8,0:0|0:0,0:0:0:0:
159,202,103598,2,0,P|221:165|287:196,1,150
292,288,104241,2,0,L|368:332,1,75,8|0,0:0|0:0,0:0:0:0:
444,296,104670,2,0,P|496:248|464:164,1,150,0|8,0:0|0:0,0:0:0:0:
400,216,105313,2,0,P|383:146|436:97,1,150
496,32,105955,2,0,L|412:0,1,75,8|0,0:0|0:0,0:0:0:0:
344,40,106384,6,0,P|288:16|212:60,1,150,0|8,0:0|0:0,0:0:0:0:
288,108,107027,2,0,P|288:188|212:228,1,150
148,208,107670,1,8,0:0:0:0:
36,68,108098,2,0,P|101:31|185:87,1,150,0|8,0:0|0:0,0:0:0:0:
244,104,108741,1,0,0:0:0:0:
328,72,108955,1,0,0:0:0:0:
416,84,109170,1,0,0:0:0:0:
276,316,109813,6,0,P|220:352|120:336,1,150,0|8,0:0|0:0,0:0:0:0:
96,172,110670,2,0,P|152:136|252:152,1,150,0|8,0:0|0:0,0:0:0:0:
416,144,111527,2,0,L|512:268,1,150,0|8,0:0|0:0,0:0:0:0:
344,336,112384,2,0,L|248:212,1,150,0|8,0:0|0:0,0:0:0:0:
156,60,113241,6,0,P|112:72|76:168,1,150,0|8,0:0|0:0,0:0:0:0:
216,276,114098,2,0,P|260:264|296:168,1,150,0|8,0:0|0:0,0:0:0:0:
120,188,114955,2,0,L|-12:288,1,150,0|8,0:0|0:0,0:0:0:0:
156,372,115813,2,0,L|284:272,1,150,0|8,0:0|0:0,0:0:0:0:
432,196,116670,6,0,P|488:168|496:72,1,150,0|8,0:0|0:0,0:0:0:0:
340,12,117527,2,0,P|284:40|276:136,1,150,0|8,0:0|0:0,0:0:0:0:
328,292,118384,2,0,L|480:376,2,150,0|8|0,0:0|0:0|0:0,0:0:0:0:
148,272,119670,1,8,0:0:0:0:
36,132,120098,6,0,P|52:60|124:40,1,150,0|8,0:0|0:0,0:0:0:0:
212,192,120955,2,0,P|272:200|324:128,1,150,0|8,0:0|0:0,0:0:0:0:
176,36,121813,2,0,L|108:96,1,75
108,176,122241,2,0,L|124:268,1,75,8|0,0:0|0:0,0:0:0:0:
208,280,122670,1,0,0:0:0:0:
296,300,122884,2,0,L|372:280,2,75,0|8|0,0:0|0:0|0:0,0:0:0:0:
244,372,123527,6,0,L|68:364,1,150,2|0,0:0|0:0,0:0:0:0:
32,196,124384,2,0,P|20:148|-20:120,2,75
112,236,125027,2,0,P|180:224|208:124,1,150,2|0,0:0|0:0,0:0:0:0:
136,112,125670,2,0,P|136:68|164:28,1,75,0|2,0:0|0:0,0:0:0:0:
420,72,126527,2,0,L|488:120,1,75
476,204,126955,6,0,P|464:256|360:288,2,150,2|0|0,0:0|0:0|0:0,0:0:0:0:
308,140,128241,1,0,0:0:0:0:
308,140,128455,2,0,P|244:116|176:172,1,150,2|0,0:0|0:0,0:0:0:0:
228,236,129098,1,0,0:0:0:0:
196,320,129313,1,0,0:0:0:0:
108,340,129527,2,0,P|44:304|40:224,1,150,2|0,0:0|0:0,0:0:0:0:
100,68,130384,6,0,P|184:64|236:16,1,150,2|0,0:0|0:0,0:0:0:0:
384,120,131241,2,0,P|448:132|476:236,1,150
404,248,131884,2,0,P|344:274|320:366,1,150,2|0,0:0|0:0,0:0:0:0:
408,340,132527,1,0,0:0:0:0:
408,340,132741,2,0,L|288:244,1,150,2|0,0:0|0:0,0:0:0:0:
224,184,133384,6,0,P|196:152|88:184,1,150,0|2,0:0|0:0,0:0:0:0:
144,340,134241,1,0,0:0:0:0:
324,348,134670,2,0,P|404:320|396:236,1,150
364,188,135313,2,0,P|340:140|416:64,1,150,2|0,0:0|0:0,0:0:0:0:
480,80,135955,1,0,0:0:0:0:
476,172,136170,2,0,B|480:292|444:332|444:332|368:328,1,225,2|0,0:0|0:0,0:0:0:0:
204,348,137241,6,0,P|144:288|180:152,1,225,2|0,0:0|0:0,0:0:0:0:
252,124,138098,2,0,P|303:91|306:63,2,75
180,72,138741,2,0,P|100:52|16:168,1,225,2|0,0:0|0:0,0:0:0:0:
140,280,139813,1,0,0:0:0:0:
140,280,140027,2,0,B|184:316|236:256|304:300,1,150,2|0,0:0|0:0,0:0:0:0:
372,312,140670,6,0,L|440:364,2,75
344,224,141313,2,0,B|320:176|360:132|336:72,1,150,2|0,0:0|0:0,0:0:0:0:
268,20,141955,2,0,L|108:16,1,150,0|2,0:0|0:0,0:0:0:0:
40,180,142813,1,0,0:0:0:0:
40,180,143027,2,0,L|20:344,1,150,2|0,0:0|0:0,0:0:0:0:
100,376,143670,1,0,0:0:0:0:
272,324,144098,6,0,P|361:354|434:241,1,225,0|0,0:0|0:0,0:0:0:0:
384,192,144955,2,0,P|348:116|360:44,1,150,0|0,0:0|0:0,0:0:0:0:
444,40,145598,2,0,P|480:116|468:188,1,150,2|0,0:0|0:0,0:0:0:0:
436,264,146241,1,0,0:0:0:0:
420,352,146455,2,0,L|504:372,2,75,0|0|2,0:0|0:0|0:0,0:0:0:0:
280,120,147527,6,0,L|232:40,1,75
156,32,147955,1,0,0:0:0:0:
72,64,148170,2,0,P|24:96|44:192,1,150,2|0,0:0|0:0,0:0:0:0:
84,252,148813,2,0,L|156:296,1,75
236,296,149241,2,0,P|316:240|384:276,1,150,2|0,0:0|0:0,0:0:0:0:
444,288,149884,2,0,P|392:339|314:333,1,150,2|0,0:0|0:0,0:0:0:0:
360,252,150527,1,0,0:0:0:0:
188,212,150955,6,0,P|160:148|72:140,2,150,2|0|2,0:0|0:0|0:0,0:0:0:0:
64,344,152241,1,0,0:0:0:0:
244,348,152670,2,0,P|328:352|372:300,1,150,2|0,0:0|0:0,0:0:0:0:
358,217,153313,2,0,L|426:61,2,150,2|0|0,0:0|0:0|0:0,0:0:0:0:
268,228,154384,6,0,P|192:228|144:164,1,150,2|0,0:0|0:0,0:0:0:0:
312,100,155241,2,0,P|263:45|190:47,1,150,2|0,0:0|0:0,0:0:0:0:
40,148,156098,2,0,L|112:296,1,150,2|0,0:0|0:0,0:0:0:0:
148,360,156741,1,2,0:0:0:0:
460,36,157813,6,0,P|484:100|464:196,1,150,2|0,0:0|0:0,0:0:0:0:
300,124,158670,2,0,L|144:128,1,150,2|0,0:0|0:0,0:0:0:0:
100,300,159527,2,0,P|144:324|248:296,1,150,2|0,0:0|0:0,0:0:0:0:
304,244,160170,1,2,0:0:0:0:
332,68,160598,2,0,P|276:44|184:84,1,150
176,160,161241,6,0,P|116:188|32:148,1,150,2|0,0:0|0:0,0:0:0:0:
176,40,162098,2,0,P|243:11|312:36,1,150,2|0,0:0|0:0,0:0:0:0:
344,212,162955,2,0,P|402:252|460:212,1,150,2|0,0:0|0:0,0:0:0:0:
484,124,163598,1,2,0:0:0:0:
32,188,164670,6,0,P|28:236|120:272,1,150,0|8,0:0|0:0,0:0:0:0:
184,232,165313,2,0,L|340:200,1,150,0|0,0:0|0:0,0:0:0:0:
412,240,165955,2,0,L|456:304,2,75,8|0|0,0:0|0:0|0:0,0:0:0:0:
444,156,166598,2,0,L|508:104,2,75,0|8|0,0:0|0:0|0:0,0:0:0:0:
356,144,167241,2,0,L|340:48,2,75,0|0|8,0:0|0:0|0:0,0:0:0:0:
364,236,167884,1,0,0:0:0:0:
304,304,168098,6,0,P|220:332|84:264,1,225
56,200,168955,1,0,0:0:0:0:
32,20,169384,1,8,0:0:0:0:
112,64,169598,1,0,0:0:0:0:
112,64,169813,2,0,P|184:80|268:36,2,150,0|8|0,0:0|0:0|0:0,0:0:0:0:
36,108,170884,1,0,0:0:0:0:
220,312,171527,6,0,P|264:340|352:292,1,150,0|8,0:0|0:0,0:0:0:0:
412,244,172170,2,0,L|340:104,1,150
268,64,172813,2,0,P|200:20|116:36,2,150,8|0|8,0:0|0:0|0:0,0:0:0:0:
276,152,173884,1,0,0:0:0:0:
224,224,174098,2,0,P|150:228|90:186,1,150,0|8,0:0|0:0,0:0:0:0:
188,32,174955,6,0,P|240:12|404:64,1,225
432,140,175813,1,0,0:0:0:0:
464,316,176241,1,8,0:0:0:0:
376,328,176455,1,0,0:0:0:0:
376,328,176670,2,0,L|204:316,2,150,0|8|0,0:0|0:0|0:0,0:0:0:0:
464,316,177741,1,0,0:0:0:0:
360,68,178384,6,0,P|280:84|204:52,1,150,0|8,0:0|0:0,0:0:0:0:
60,152,179241,2,0,P|76:224|53:294,1,150,0|8,0:0|0:0,0:0:0:0:
232,320,180098,2,0,P|304:303|374:326,2,150,0|8|0,0:0|0:0|0:0,0:0:0:0:
56,360,181384,1,8,0:0:0:0:
64,180,181813,6,0,P|76:72|108:44,1,150,0|8,0:0|0:0,0:0:0:0:
284,40,182670,2,0,P|327:99|322:172,1,150,0|8,0:0|0:0,0:0:0:0:
144,132,183527,2,0,L|144:300,2,150,0|8|0,0:0|0:0|0:0,0:0:0:0:
284,16,184813,1,8,0:0:0:0:
320,192,185241,6,0,P|340:256|436:268,1,150,0|8,0:0|0:0,0:0:0:0:
464,104,186098,2,0,P|444:40|348:28,1,150,0|8,0:0|0:0,0:0:0:0:
200,76,186955,2,0,L|100:52,2,75,0|0|8,0:0|0:0|0:0,0:0:0:0:
228,256,187813,2,0,P|172:296|68:284,1,150,0|8,0:0|0:0,0:0:0:0:
28,128,188670,6,0,L|188:132,1,150,0|8,0:0|0:0,0:0:0:0:
348,192,189527,2,0,L|188:220,1,150,0|8,0:0|0:0,0:0:0:0:
68,340,190384,2,0,L|-8:296,2,75,0|0|8,0:0|0:0|0:0,0:0:0:0:
152,372,191027,1,0,0:0:0:0:
240,352,191241,2,0,L|308:300,1,75
372,252,191670,2,0,L|472:212,1,75,8|0,0:0|0:0,0:0:0:0:
488,148,192098,1,0,0:0:0:0:
280,136,198527,5,0,0:0:0:0:
372,292,198955,2,0,P|316:332|220:300,1,150,2|0,0:0|0:0,0:0:0:0:
164,268,199598,2,0,P|108:212|16:232,1,150,2|0,0:0|0:0,0:0:0:0:
12,300,200241,2,0,P|68:356|160:336,1,150,0|2,0:0|0:0,0:0:0:0:
312,336,201098,2,0,L|388:360,2,75,0|0|2,0:0|0:0|0:0,0:0:0:0:
232,176,201955,1,0,0:0:0:0:
232,176,202170,6,0,P|168:172|132:92,2,150,2|0|0,0:0|0:0|0:0,0:0:0:0:
316,148,203241,1,2,0:0:0:0:
304,328,203670,2,0,L|204:324,1,75
140,328,204098,2,0,P|76:304|56:224,2,150,2|0|2,0:0|0:0|0:0,0:0:0:0:
320,344,205384,6,0,L|404:324,1,75,0|2,0:0|0:0,0:0:0:0:
424,60,206241,2,0,L|316:52,1,75,0|2,0:0|0:0,0:0:0:0:
80,92,207098,6,0,L|149:120,1,75,0|2,0:0|0:0,0:0:0:0:
252,372,207955,2,0,L|164:320,1,75,0|2,0:0|0:0,0:0:0:0:
188,64,208813,6,0,L|190:138,1,75,0|2,0:0|0:0,0:0:0:0:
424,276,209670,2,0,L|424:201,1,75,0|2,0:0|0:0,0:0:0:0:
188,64,210527,5,0,0:0:0:0:
320,184,210955,2,0,P|280:300|164:328,1,225,2|0,0:0|0:0,0:0:0:0:
20,276,212027,2,0,B|60:220|8:188|60:124,1,150,2|0,0:0|0:0,0:0:0:0:
96,56,212670,6,0,P|172:28|252:64,1,150,2|0,0:0|0:0,0:0:0:0:
192,224,213527,2,0,P|262:244|330:216,1,150,2|0,0:0|0:0,0:0:0:0:
424,60,214384,2,0,L|424:228,1,150,2|0,0:0|0:0,0:0:0:0:
400,296,215027,2,0,P|368:340|264:340,1,150,2|0,0:0|0:0,0:0:0:0:
208,180,215884,1,0,0:0:0:0:
120,188,216098,6,0,P|64:176|60:88,1,150,2|0,0:0|0:0,0:0:0:0:
216,16,216955,2,0,P|272:28|276:116,1,150,2|0,0:0|0:0,0:0:0:0:
252,288,217813,2,0,P|308:312|404:272,1,150,2|0,0:0|0:0,0:0:0:0:
436,208,218455,1,2,0:0:0:0:
0,56,219527,6,0,P|48:24|148:68,1,150,2|0,0:0|0:0,0:0:0:0:
128,228,220384,2,0,P|116:288|184:364,1,150,2|0,0:0|0:0,0:0:0:0:
344,336,221241,2,0,P|356:276|288:200,1,150,2|0,0:0|0:0,0:0:0:0:
248,140,221884,2,0,L|132:44,2,150,2|0|0,0:0|0:0|0:0,0:0:0:0:
324,92,222955,6,0,L|384:36,2,75,2|0|0,0:0|0:0|0:0,0:0:0:0:
160,172,223813,2,0,L|72:140,2,75,2|0|0,0:0|0:0|0:0,0:0:0:0:
340,192,224670,2,0,P|327:263|256:302,1,150,2|0,0:0|0:0,0:0:0:0:
255,214,225313,2,0,L|376:304,1,150,2|0,0:0|0:0,0:0:0:0:
136,176,226384,6,0,P|112:112|160:28,1,150,0|8,0:0|0:0,0:0:0:0:
232,40,227027,2,0,P|264:106|240:175,1,150,0|0,0:0|0:0,0:0:0:0:
188,248,227670,2,0,P|128:264|56:212,2,150,8|0|8,0:0|0:0|0:0,0:0:0:0:
284,96,228955,2,0,L|440:104,1,150,0|8,0:0|0:0,0:0:0:0:
380,276,229813,6,0,P|264:284|176:224,2,225,0|0|8,0:0|0:0|0:0,0:0:0:0:
456,228,231313,1,0,0:0:0:0:
456,228,231527,1,0,0:0:0:0:
508,56,231955,1,8,0:0:0:0:
328,44,232384,1,0,0:0:0:0:
328,44,232598,1,0,0:0:0:0:
128,220,233241,6,0,P|196:220|252:148,1,150,0|8,0:0|0:0,0:0:0:0:
160,132,233884,2,0,L|212:288,1,150
296,296,234527,2,0,L|376:280,2,75,8|0|0,0:0|0:0|0:0,0:0:0:0:
232,360,235170,2,0,L|144:368,1,75,0|8,0:0|0:0,0:0:0:0:
84,316,235598,1,0,0:0:0:0:
36,240,235813,2,0,P|40:176|132:132,2,150,0|8|0,0:0|0:0|0:0,0:0:0:0:
212,212,237098,5,8,0:0:0:0:
304,216,237313,2,0,P|415:259|476:173,1,225,0|8,0:0|0:0,0:0:0:0:
385,171,238170,1,0,0:0:0:0:
324,108,238384,2,0,B|396:48|396:48|456:24,2,150,0|8|0,0:0|0:0|0:0,0:0:0:0:
248,156,239455,2,0,P|172:188|112:156,1,150
80,76,240098,6,0,L|-24:104,2,75,0|0|8,0:0|0:0|0:0,0:0:0:0:
168,56,240741,1,0,0:0:0:0:
256,36,240955,2,0,P|328:35|373:92,1,150,0|8,0:0|0:0,0:0:0:0:
324,264,241813,2,0,P|251:264|206:207,1,150,0|8,0:0|0:0,0:0:0:0:
232,120,242455,2,0,P|300:92|448:148,1,225,0|8,0:0|0:0,0:0:0:0:
408,224,243313,1,0,0:0:0:0:
444,304,243527,6,0,L|512:272,2,75,0|0|8,0:0|0:0|0:0,0:0:0:0:
372,356,244170,2,0,L|276:364,2,75
336,272,244813,2,0,L|244:276,1,75,8|0,0:0|0:0,0:0:0:0:
172,284,245241,2,0,P|84:260|64:192,1,150,0|8,0:0|0:0,0:0:0:0:
60,120,245884,2,0,B|108:48|140:104|180:36,1,150
268,16,246527,1,8,0:0:0:0:
272,196,246955,6,0,P|288:248|400:256,1,150,0|8,0:0|0:0,0:0:0:0:
448,220,247598,1,0,0:0:0:0:
472,132,247813,2,0,P|444:80|348:80,1,150,0|8,0:0|0:0,0:0:0:0:
220,184,248670,2,0,P|152:216|76:176,1,150,0|8,0:0|0:0,0:0:0:0:
152,124,249313,2,0,L|308:60,2,150
72,76,250384,6,0,P|0:120|16:200,1,150,0|8,0:0|0:0,0:0:0:0:
64,244,251027,1,0,0:0:0:0:
152,264,251241,2,8,P|216:260|288:332,1,150,0|8,0:0|0:0,0:0:0:0:
352,364,251884,1,0,0:0:0:0:
428,312,252098,2,0,P|488:264|488:184,1,150,0|8,0:0|0:0,0:0:0:0:
408,224,252741,2,0,P|380:156|420:76,1,150
476,32,253384,1,8,0:0:0:0:
304,88,253813,6,0,L|148:120,1,150,0|8,0:0|0:0,0:0:0:0:
124,36,254455,2,0,P|76:82|84:168,1,150
156,208,255098,2,0,B|180:300|180:300|136:376,2,150,8|0|8,0:0|0:0|0:0,0:0:0:0:
232,160,256170,1,0,0:0:0:0:
320,172,256384,2,0,P|376:180|444:116,2,150,0|8|0,0:0|0:0|0:0,0:0:0:0:
184,56,257670,5,8,0:0:0:0:
184,56,257884,2,0,L|412:36,1,225,0|8,0:0|0:0,0:0:0:0:
324,192,258955,2,0,P|320:248|408:308,1,150,0|8,0:0|0:0,0:0:0:0:
472,288,259598,1,0,0:0:0:0:
412,220,259813,1,0,0:0:0:0:
412,220,260027,2,0,L|252:272,1,150
196,216,260670,6,0,P|128:184|28:212,1,150,0|8,0:0|0:0,0:0:0:0:
40,284,261313,2,0,P|108:316|208:288,1,150
268,320,261955,2,0,L|424:368,2,150,8|0|8,0:0|0:0|0:0,0:0:0:0:
180,308,263027,1,0,0:0:0:0:
116,244,263241,2,0,P|92:172|108:84,2,150,0|8|0,0:0|0:0|0:0,0:0:0:0:
272,156,264527,5,8,0:0:0:0:
272,156,264741,2,0,P|328:174|499:153,1,225,0|8,0:0|0:0,0:0:0:0:
456,332,265813,2,0,B|404:320|368:364|304:340,1,150,0|8,0:0|0:0,0:0:0:0:
228,300,266455,1,0,0:0:0:0:
140,324,266670,2,0,P|151:248|242:208,1,150,0|8,0:0|0:0,0:0:0:0:
76,84,267527,5,0,0:0:0:0:
76,84,267955,1,8,0:0:0:0:
252,48,268384,1,0,0:0:0:0:
252,48,268813,1,8,0:0:0:0:
284,220,269241,2,0,P|308:266|415:270,1,150,0|8,0:0|0:0,0:0:0:0:
504,136,270098,2,0,P|480:90|373:86,1,150,0|8,0:0|0:0,0:0:0:0:
216,120,270955,5,0,0:0:0:0:
216,120,271384,1,8,0:0:0:0:
80,240,271813,1,0,0:0:0:0:
80,240,272241,1,8,0:0:0:0:
240,324,272670,2,0,L|411:326,1,150,0|8,0:0|0:0,0:0:0:0:
464,160,273527,2,0,L|308:158,1,150,0|8,0:0|0:0,0:0:0:0:
152,80,274384,5,0,0:0:0:0:
152,80,274813,1,8,0:0:0:0:
332,60,275241,1,0,0:0:0:0:
332,60,275670,1,8,0:0:0:0:
428,212,276098,2,0,L|497:177,2,75,0|0|8,0:0|0:0|0:0,0:0:0:0:
272,304,276955,2,0,L|186:366,2,75,0|0|8,0:0|0:0|0:0,0:0:0:0:
284,124,277813,6,0,L|140:46,1,150,0|8,0:0|0:0,0:0:0:0:
4,152,278670,2,0,L|135:223,1,150,0|8,0:0|0:0,0:0:0:0:
292,312,279527,2,0,L|459:320,2,150,0|8|0,0:0|0:0|0:0,0:0:0:0:
116,348,280813,1,8,0:0:0:0:
28,192,281241,5,0,0:0:0:0:
196,124,281670,1,8,0:0:0:0:
340,232,282098,1,0,0:0:0:0:
472,112,282527,1,8,0:0:0:0:
300,56,282955,2,0,P|263:31|158:53,1,150,0|8,0:0|0:0,0:0:0:0:
160,228,283813,2,0,P|197:253|302:231,2,150,0|8|0,0:0|0:0|0:0,0:0:0:0:
40,92,285098,5,8,0:0:0:0:
212,36,285527,2,0,P|270:24|357:70,1,150,0|8,0:0|0:0,0:0:0:0:
416,228,286384,2,0,L|513:368,2,150,0|8|0,0:0|0:0|0:0,0:0:0:0:
260,140,287670,1,8,0:0:0:0:
256,192,288098,12,0,291527,0:0:0:0:
