osu file format v14

[General]
AudioFilename: Yuki Kaai - Calalini.mp3
AudioLeadIn: 0
PreviewTime: 96098
Countdown: 0
SampleSet: Soft
StackLeniency: 0.7
Mode: 0
LetterboxInBreaks: 0
WidescreenStoryboard: 0

[Editor]
Bookmarks: 248241
DistanceSpacing: 1
BeatDivisor: 4
GridSize: 4
TimelineZoom: 1

[Metadata]
Title:Calalini
TitleUnicode:Calalini
Artist:Childhood Crusher-P
ArtistUnicode:Childhood Crusher-P
Creator:neonat
Version:Hard
Source:
Tags:Kaai Yuki Vocaloid Planty-P Bunnybutt Cien
BeatmapID:292605
BeatmapSetID:112664

[Difficulty]
HPDrainRate:5
CircleSize:4
OverallDifficulty:6
ApproachRate:7
SliderMultiplier:1.8
SliderTickRate:2

[Events]
//Background and Video events
0,0,"Calalini.png",0,0
Video,-300,"Calalini.avi"
//Break Periods
2,192099,197627
//Storyboard Layer 0 (Background)
//Storyboard Layer 1 (Fail)
//Storyboard Layer 2 (Pass)
//Storyboard Layer 3 (Foreground)
//Storyboard Sound Samples

[TimingPoints]
13813,428.571428571429,4,1,0,70,1,0
54955,-100,4,2,1,70,0,0
96098,-90.9090909090909,4,2,1,70,0,1
123527,-100,4,2,1,70,0,0
150955,-125,4,2,1,70,0,0
164670,-90.9090909090909,4,2,1,70,0,1
192098,-100,4,2,1,70,0,0
226384,-90.9090909090909,4,2,1,70,0,1
281241,-90.9090909090909,4,2,1,40,0,1
288098,-100,4,2,1,25,0,0

[Colours]
Combo1 : 245,224,71
Combo2 : 180,82,182
Combo3 : 103,146,134
Combo4 : 243,160,219

[HitObjects]
136,312,27527,6,0,P|200:328|232:304,1,90
296,280,27956,1,8,0:0:0:0:
260,200,28170,2,0,L|304:184,1,45
348,184,28385,2,0,L|452:184,1,90
484,104,28813,1,8,0:0:0:0:
420,40,29027,6,0,L|464:8,2,45
336,76,29456,1,0,0:0:0:0:
248,56,29670,2,0,P|196:64|148:52,1,90,8|0,0:0|0:0,0:0:0:0:
116,40,29991,1,0,0:0:0:0:
76,56,30098,2,0,L|60:172,1,90
16,220,30527,2,0,P|84:232|120:212,1,90,8|0,0:0|0:0,0:0:0:0:
188,232,30956,6,0,P|224:264|272:268,2,90,0|0|8,0:0|0:0|0:0,0:0:0:0:
196,144,31599,2,0,L|168:100,2,45
276,184,32027,1,0,0:0:0:0:
360,152,32242,2,0,P|360:216|329:254,1,90,8|0,0:0|0:0,0:0:0:0:
272,284,32670,6,0,P|232:320|240:372,1,90
320,352,33099,2,0,P|372:338|389:289,1,90,8|0,0:0|0:0,0:0:0:0:
420,276,33420,1,0,0:0:0:0:
456,252,33527,2,0,L|468:156,1,90
488,72,33955,2,0,B|448:48|424:76|372:56,1,90,8|0,0:0|0:0,0:0:0:0:
308,72,34385,5,0,0:0:0:0:
224,40,34599,1,0,0:0:0:0:
148,84,34813,2,0,P|112:128|60:136,1,90,8|0,0:0|0:0,0:0:0:0:
40,152,35135,1,0,0:0:0:0:
24,196,35242,2,0,L|24:288,1,90
52,372,35670,1,8,0:0:0:0:
116,308,35885,1,0,0:0:0:0:
188,360,36099,6,0,L|292:360,1,90
356,316,36527,1,8,0:0:0:0:
284,264,36742,2,0,L|224:232,2,45
364,224,37170,1,0,0:0:0:0:
444,264,37385,2,0,P|452:216|432:164,1,90,8|0,0:0|0:0,0:0:0:0:
364,136,37813,6,0,P|308:136|264:100,1,90
232,44,38242,1,8,0:0:0:0:
144,68,38456,1,0,0:0:0:0:
144,68,38563,1,0,0:0:0:0:
144,68,38670,1,0,0:0:0:0:
96,144,38885,1,0,0:0:0:0:
56,64,39099,2,0,P|16:108|8:164,1,90,8|0,0:0|0:0,0:0:0:0:
36,224,39527,6,0,L|84:308,1,90
168,288,39956,1,8,0:0:0:0:
240,340,40170,2,0,L|192:368,2,45
324,308,40599,2,0,L|376:344,2,45,0|0|8,0:0|0:0|0:0,0:0:0:0:
256,252,41027,1,0,0:0:0:0:
224,168,41242,6,0,L|224:68,1,90
300,32,41670,1,8,0:0:0:0:
388,44,41885,2,0,L|432:60,1,45
468,80,42099,2,0,P|492:124|484:172,1,90
400,144,42527,1,8,0:0:0:0:
332,204,42742,1,0,0:0:0:0:
304,288,42956,6,0,P|344:344|388:352,1,90
448,332,43385,2,0,P|408:276|364:268,1,90,8|0,0:0|0:0,0:0:0:0:
390,269,43706,1,0,0:0:0:0:
390,269,43813,1,0,0:0:0:0:
304,288,44027,1,0,0:0:0:0:
212,288,44242,2,0,P|184:284|116:288,1,90,8|0,0:0|0:0,0:0:0:0:
44,332,44670,6,0,P|32:280|60:224,1,90
88,164,45099,1,8,0:0:0:0:
124,84,45313,2,0,L|80:40,2,45
184,152,45741,1,0,0:0:0:0:
272,172,45955,2,0,P|328:176|372:148,1,90,8|0,0:0|0:0,0:0:0:0:
356,68,46385,6,0,P|412:52|468:80,1,90
484,136,46813,2,0,P|500:184|480:240,1,90,8|0,0:0|0:0,0:0:0:0:
460,256,47135,2,0,L|384:256,1,45
324,256,47455,2,0,P|272:232|264:200,2,90,0|8|0,0:0|0:0|0:0,0:0:0:0:
384,320,48099,6,0,P|348:356|280:356,1,90
228,328,48527,1,8,0:0:0:0:
140,344,48742,2,0,L|88:368,2,45
168,260,49170,1,0,0:0:0:0:
236,200,49385,2,0,P|196:172|148:172,1,90,8|0,0:0|0:0,0:0:0:0:
80,220,49813,6,0,P|44:188|40:140,1,90
68,64,50242,1,8,0:0:0:0:
156,72,50456,1,0,0:0:0:0:
156,72,50563,1,0,0:0:0:0:
156,72,50670,1,0,0:0:0:0:
240,40,50885,1,0,0:0:0:0:
324,68,51099,2,0,P|376:80|416:72,1,90,8|0,0:0|0:0,0:0:0:0:
452,152,51527,5,0,0:0:0:0:
376,200,51742,1,0,0:0:0:0:
452,244,51956,2,0,P|400:284|352:284,1,90,8|0,0:0|0:0,0:0:0:0:
332,288,52277,1,0,0:0:0:0:
288,304,52385,2,0,L|256:348,2,45
264,216,52813,2,0,P|240:152|188:144,1,90,8|0,0:0|0:0,0:0:0:0:
136,168,53242,5,0,0:0:0:0:
56,212,53456,1,0,0:0:0:0:
60,124,53670,1,8,0:0:0:0:
136,168,53885,1,0,0:0:0:0:
172,248,54098,2,0,L|184:300,3,45,0|0|0|0,0:0|0:0|0:0|0:0,0:0:0:0:
220,316,54527,2,0,P|264:324|320:312,1,90,8|0,0:0|0:0,0:0:0:0:
388,280,54955,6,0,P|404:216|376:96,1,180,4|0,0:0|0:0,0:0:0:0:
148,68,55813,2,0,P|112:40|64:44,2,90
180,152,56456,6,0,B|136:248|236:252|168:352,1,180,2|0,0:0|0:0,0:0:0:0:
100,288,57099,1,0,0:0:0:0:
72,204,57313,2,0,L|292:204,1,180,2|0,0:0|0:0,0:0:0:0:
336,236,57956,1,0,0:0:0:0:
424,236,58170,1,0,0:0:0:0:
500,160,58385,6,0,P|472:112|352:108,1,180,2|0,0:0|0:0,0:0:0:0:
272,124,59027,1,0,0:0:0:0:
184,96,59242,2,0,P|168:60|176:12,2,90,2|0|0,0:0|0:0|0:0,0:0:0:0:
260,44,59885,6,0,P|308:52|336:172,1,180,2|0,0:0|0:0,0:0:0:0:
268,216,60527,1,0,0:0:0:0:
212,288,60742,1,0,0:0:0:0:
212,288,60956,2,0,P|156:312|72:224,1,180,2|0,0:0|0:0,0:0:0:0:
128,84,61813,5,2,0:0:0:0:
300,108,62242,2,0,P|348:156|464:128,1,180
476,56,62885,1,0,0:0:0:0:
388,72,63099,1,0,0:0:0:0:
388,72,63313,6,0,L|340:276,1,180,2|0,0:0|0:0,0:0:0:0:
260,264,63956,1,0,0:0:0:0:
172,280,64170,2,0,P|200:332|324:324,1,180,2|0,0:0|0:0,0:0:0:0:
372,268,64813,1,0,0:0:0:0:
448,320,65027,1,0,0:0:0:0:
464,232,65242,6,0,P|432:184|369:176,1,90,2|0,0:0|0:0,0:0:0:0:
316,184,65670,1,0,0:0:0:0:
300,88,65885,1,0,0:0:0:0:
236,24,66099,2,0,P|180:44|164:88,2,90,2|0|0,0:0|0:0|0:0,0:0:0:0:
392,124,66742,6,0,P|392:184|280:204,1,180,2|0,0:0|0:0,0:0:0:0:
228,152,67385,1,0,0:0:0:0:
140,140,67599,2,0,L|92:320,1,180,2|0,0:0|0:0,0:0:0:0:
94,314,68242,1,0,0:0:0:0:
272,296,68670,6,0,P|328:284|456:296,1,180,2|0,0:0|0:0,0:0:0:0:
456,204,69313,1,0,0:0:0:0:
376,160,69527,1,0,0:0:0:0:
288,172,69742,1,0,0:0:0:0:
208,216,69956,1,0,0:0:0:0:
120,240,70170,6,0,P|56:232|16:112,1,180,2|0,0:0|0:0,0:0:0:0:
96,152,70813,2,0,L|232:24,1,180,2|0,0:0|0:0,0:0:0:0:
320,48,71456,2,0,L|172:188,1,180,2|0,0:0|0:0,0:0:0:0:
128,240,72099,5,2,0:0:0:0:
156,324,72313,1,0,0:0:0:0:
240,356,72527,1,0,0:0:0:0:
324,324,72742,2,0,P|367:351|488:318,1,180,2|2,0:0|0:0,0:0:0:0:
492,232,73385,2,0,L|492:136,1,90,0|0,0:0|0:0,0:0:0:0:
416,96,73813,6,0,P|380:128|252:108,1,180,2|0,0:0|0:0,0:0:0:0:
288,28,74456,2,0,P|216:32|172:136,1,180,2|0,0:0|0:0,0:0:0:0:
208,200,75099,1,0,0:0:0:0:
212,288,75313,1,0,0:0:0:0:
140,340,75527,6,0,P|72:336|56:216,1,180,2|0,0:0|0:0,0:0:0:0:
100,172,76170,1,0,0:0:0:0:
172,120,76385,1,0,0:0:0:0:
236,56,76599,1,0,0:0:0:0:
320,28,76813,1,0,0:0:0:0:
404,60,77027,6,0,B|496:104|408:168|512:208,1,180,2|0,0:0|0:0,0:0:0:0:
352,312,77885,2,0,P|360:252|264:212,1,180,2|0,0:0|0:0,0:0:0:0:
120,320,78742,1,0,0:0:0:0:
72,244,78956,6,0,P|60:192|16:176,2,90,2|0|0,0:0|0:0|0:0,0:0:0:0:
164,244,79599,2,0,P|212:244|256:288,1,90,2|0,0:0|0:0,0:0:0:0:
296,340,80027,2,0,P|380:344|448:256,1,180
428,192,80670,5,2,0:0:0:0:
364,128,80885,1,0,0:0:0:0:
276,132,81099,1,0,0:0:0:0:
221,199,81313,1,2,0:0:0:0:
312,356,81955,2,0,P|333:356|357:356,3,45
392,328,82385,6,0,L|448:248,1,90,2|0,0:0|0:0,0:0:0:0:
360,220,82813,2,0,L|324:128,1,90,2|0,0:0|0:0,0:0:0:0:
392,72,83242,2,0,P|432:60|500:84,2,90,2|0|2,0:0|0:0|0:0,0:0:0:0:
308,44,83885,1,0,0:0:0:0:
232,96,84099,6,0,P|160:148|88:96,1,180,2|0,0:0|0:0,0:0:0:0:
160,56,84742,2,0,L|164:264,1,180,2|0,0:0|0:0,0:0:0:0:
164,328,85385,1,0,0:0:0:0:
164,328,85599,1,0,0:0:0:0:
284,324,85813,6,0,P|321:346|364:336,1,90,2|0,0:0|0:0,0:0:0:0:
332,248,86241,2,0,P|294:225|252:236,1,90,2|0,0:0|0:0,0:0:0:0:
484,272,86670,2,0,P|504:216|472:180,1,90,2|0,0:0|0:0,0:0:0:0:
414,144,87099,2,0,P|393:182|408:224,1,90,2|0,0:0|0:0,0:0:0:0:
412,52,87527,6,0,P|360:32|212:48,1,180,2|0,0:0|0:0,0:0:0:0:
172,100,88170,2,0,B|72:160|152:192|56:244,1,180,2|0,0:0|0:0,0:0:0:0:
52,328,88813,2,0,L|156:352,1,90
252,312,89242,6,0,L|380:328,1,90,2|0,0:0|0:0,0:0:0:0:
324,236,89670,2,0,L|420:232,1,90,2|0,0:0|0:0,0:0:0:0:
417,141,90098,2,0,L|512:124,2,90,2|0|2,0:0|0:0|0:0,0:0:0:0:
328,152,90742,1,0,0:0:0:0:
320,64,90956,6,0,P|276:44|216:68,1,90,2|0,0:0|0:0,0:0:0:0:
180,124,91385,1,0,0:0:0:0:
120,188,91599,2,0,P|53:168|26:67,1,180,2|0,0:0|0:0,0:0:0:0:
108,100,92242,1,0,0:0:0:0:
108,100,92456,1,0,0:0:0:0:
120,188,92670,6,0,L|124:296,1,90,2|0,0:0|0:0,0:0:0:0:
196,332,93099,2,0,L|194:224,1,90,2|0,0:0|0:0,0:0:0:0:
276,280,93527,2,0,B|300:336|352:336,2,90,2|0|2,0:0|0:0|0:0,0:0:0:0:
288,192,94170,1,0,0:0:0:0:
376,204,94385,6,0,P|347:123|257:108,1,180,2|0,0:0|0:0,0:0:0:0:
192,156,95027,2,0,P|104:128|92:40,1,180,2|0,0:0|0:0,0:0:0:0:
175,68,95670,2,0,L|227:36,3,45
260,28,96099,6,0,P|324:32|372:152,1,198.000006042481,0|8,0:0|0:0,0:0:0:0:
256,152,96742,2,0,P|307:262|371:266,1,198.000006042481
375,142,97385,1,8,0:0:0:0:
304,72,97599,1,0,0:0:0:0:
204,84,97813,5,0,0:0:0:0:
204,84,98027,1,0,0:0:0:0:
164,176,98242,2,0,P|112:200|52:172,1,99.0000030212403,8|0,0:0|0:0,0:0:0:0:
20,108,98670,2,0,P|72:84|110:94,1,99.0000030212403
164,176,99099,1,8,0:0:0:0:
260,196,99313,1,0,0:0:0:0:
356,172,99527,6,0,P|412:132|396:0,1,198.000006042481,0|8,0:0|0:0,0:0:0:0:
332,76,100170,2,0,L|112:112,1,198.000006042481
40,88,100813,1,8,0:0:0:0:
24,184,101027,1,0,0:0:0:0:
128,260,101242,6,0,P|184:285|236:272,1,99.0000030212403
288,208,101670,2,0,P|232:183|180:196,1,99.0000030212403,8|0,0:0|0:0,0:0:0:0:
128,260,102099,1,0,0:0:0:0:
128,260,102313,2,0,P|84:312|-8:240,1,198.000006042481
4,204,102849,1,0,0:0:0:0:
44,172,102956,6,0,P|112:168|156:40,1,198.000006042481,0|8,0:0|0:0,0:0:0:0:
264,60,103599,2,0,P|315:166|383:170,1,198.000006042481
424,80,104242,2,0,P|472:120|476:184,1,99.0000030212403,8|0,0:0|0:0,0:0:0:0:
440,244,104670,5,0,0:0:0:0:
440,244,104884,1,0,0:0:0:0:
360,300,105098,1,8,0:0:0:0:
264,276,105313,1,0,0:0:0:0:
164,272,105527,2,0,P|100:284|64:268,1,99.0000030212403
116,184,105956,2,0,P|180:172|216:188,1,99.0000030212403,8|0,0:0|0:0,0:0:0:0:
336,200,106385,6,0,P|400:200|460:64,1,198.000006042481,0|8,0:0|0:0,0:0:0:0:
396,28,107027,2,0,P|332:28|263:130,1,198.000006042481
252,228,107670,2,0,L|252:332,1,99.0000030212403,8|0,0:0|0:0,0:0:0:0:
372,280,108099,6,0,L|480:216,1,99.0000030212403
392,120,108527,2,0,L|296:68,1,99.0000030212403,8|0,0:0|0:0,0:0:0:0:
199,36,108956,2,0,P|158:20|104:42,1,99.0000030212403
104,136,109385,2,0,P|146:153|200:132,1,99.0000030212403,8|0,0:0|0:0,0:0:0:0:
336,196,109813,6,0,L|336:316,1,99.0000030212403
196,348,110242,2,0,L|196:232,1,99.0000030212403,8|0,0:0|0:0,0:0:0:0:
208,120,110670,1,0,0:0:0:0:
117,29,110884,1,0,0:0:0:0:
25,120,111098,1,8,0:0:0:0:
117,212,111313,1,0,0:0:0:0:
260,256,111527,6,0,L|388:256,1,99.0000030212403
464,152,111956,2,0,L|352:152,1,99.0000030212403,8|0,0:0|0:0,0:0:0:0:
160,128,112384,1,0,0:0:0:0:
264,52,112598,1,0,0:0:0:0:
276,180,112813,1,8,0:0:0:0:
276,180,113027,1,0,0:0:0:0:
288,300,113242,6,0,L|392:248,1,99.0000030212403
464,208,113670,1,8,0:0:0:0:
464,208,113885,1,0,0:0:0:0:
424,64,114099,2,0,L|335:108,1,99.0000030212403
248,156,114527,1,8,0:0:0:0:
248,156,114742,1,0,0:0:0:0:
128,240,114956,5,0,0:0:0:0:
20,160,115170,1,0,0:0:0:0:
152,92,115384,1,8,0:0:0:0:
40,240,115598,1,0,0:0:0:0:
168,168,115813,1,0,0:0:0:0:
68,96,116027,1,0,0:0:0:0:
92,172,116242,1,8,0:0:0:0:
92,172,116455,1,0,0:0:0:0:
100,316,116670,6,0,P|152:344|208:320,1,99.0000030212403
264,268,117099,1,8,0:0:0:0:
264,268,117313,1,0,0:0:0:0:
372,168,117527,2,0,P|320:140|264:164,1,99.0000030212403
208,216,117956,1,8,0:0:0:0:
208,216,118170,1,0,0:0:0:0:
168,72,118385,6,0,L|296:44,1,99.0000030212403
292,196,118813,2,0,L|324:100,1,99.0000030212403,8|0,0:0|0:0,0:0:0:0:
472,148,119242,2,0,L|388:72,1,99.0000030212403
332,24,119670,1,8,0:0:0:0:
332,24,119885,1,0,0:0:0:0:
208,108,120099,6,0,P|152:148|100:144,1,99.0000030212403
36,104,120527,1,8,0:0:0:0:
36,104,120742,1,0,0:0:0:0:
44,252,120955,2,0,P|100:292|128:293,1,99.0000030212403
216,248,121384,1,8,0:0:0:0:
216,248,121599,1,0,0:0:0:0:
324,148,121813,5,0,0:0:0:0:
468,188,122027,1,0,0:0:0:0:
432,332,122242,1,8,0:0:0:0:
288,296,122456,1,0,0:0:0:0:
156,336,122670,2,0,P|88:332|64:296,1,99.0000030212403
28,216,123099,1,8,0:0:0:0:
28,216,123313,1,0,0:0:0:0:
104,148,123527,6,0,P|188:136|236:48,1,180,2|0,0:0|0:0,0:0:0:0:
376,172,124385,2,0,P|392:228|452:248,2,90
408,88,125027,6,0,P|352:84|292:196,1,180,2|0,0:0|0:0,0:0:0:0:
296,268,125670,1,0,0:0:0:0:
372,316,125885,2,0,P|332:352|216:312,1,180,2|0,0:0|0:0,0:0:0:0:
184,240,126527,1,0,0:0:0:0:
96,256,126742,1,0,0:0:0:0:
16,296,126955,6,0,P|8:212|20:112,1,180,2|0,0:0|0:0,0:0:0:0:
88,60,127599,1,0,0:0:0:0:
148,128,127813,2,0,P|208:136|252:120,2,90
176,44,128456,6,0,P|248:40|368:48,1,180,2|0,0:0|0:0,0:0:0:0:
432,96,129099,1,0,0:0:0:0:
368,160,129313,1,0,0:0:0:0:
296,216,129527,2,0,P|224:220|104:212,1,180,2|0,0:0|0:0,0:0:0:0:
260,324,130385,6,0,P|304:356|360:356,1,90,2|0,0:0|0:0,0:0:0:0:
412,312,130813,2,0,P|368:280|312:280,1,90
248,244,131242,2,0,P|200:268|188:328,2,90
328,204,131884,6,0,P|396:180|420:64,1,180,2|0,0:0|0:0,0:0:0:0:
356,28,132527,1,0,0:0:0:0:
264,32,132742,2,0,P|196:56|172:172,1,180,2|0,0:0|0:0,0:0:0:0:
240,204,133385,2,0,L|144:272,1,90
76,256,133813,6,0,P|56:209|80:140,2,90,2|0|0,0:0|0:0|0:0,0:0:0:0:
116,336,134456,1,0,0:0:0:0:
200,364,134670,2,0,L|252:364|296:364,1,90
372,324,135099,1,0,0:0:0:0:
428,256,135313,6,0,P|464:216|472:176,1,90,2|0,0:0|0:0,0:0:0:0:
380,176,135742,1,0,0:0:0:0:
300,212,135956,1,0,0:0:0:0:
216,240,136170,2,0,P|132:248|48:164,1,180,2|0,0:0|0:0,0:0:0:0:
36,104,136813,2,0,L|84:64,3,45
108,52,137242,6,0,L|288:52,1,180,2|0,0:0|0:0,0:0:0:0:
356,108,137885,1,0,0:0:0:0:
416,176,138099,1,0,0:0:0:0:
348,236,138313,1,0,0:0:0:0:
408,304,138527,1,0,0:0:0:0:
332,352,138742,6,0,P|240:364|144:352,1,180,2|0,0:0|0:0,0:0:0:0:
104,280,139385,2,0,P|168:272|292:276,1,180,2|0,0:0|0:0,0:0:0:0:
264,188,140027,2,0,P|188:192|76:188,1,180,2|0,0:0|0:0,0:0:0:0:
32,116,140670,6,0,P|27:66|45:24,2,90,2|0|0,0:0|0:0|0:0,0:0:0:0:
116,80,141313,2,0,L|296:80,1,180,2|2,0:0|0:0,0:0:0:0:
296,80,141956,1,0,0:0:0:0:
296,80,142170,1,0,0:0:0:0:
324,168,142384,6,0,P|296:228|360:332,1,180,2|0,0:0|0:0,0:0:0:0:
432,316,143027,2,0,P|460:256|396:152,1,180,2|0,0:0|0:0,0:0:0:0:
324,168,143670,1,0,0:0:0:0:
324,168,143885,1,0,0:0:0:0:
284,248,144099,6,0,P|209:287|118:204,1,180,2|0,0:0|0:0,0:0:0:0:
108,156,144742,1,0,0:0:0:0:
101,62,144956,1,0,0:0:0:0:
180,103,145170,1,0,0:0:0:0:
174,10,145385,1,0,0:0:0:0:
256,48,145599,6,0,P|316:56|436:48,1,180,2|0,0:0|0:0,0:0:0:0:
472,128,146242,1,2,0:0:0:0:
392,164,146456,2,0,P|372:216|404:256,1,90
476,224,146885,2,0,P|436:320|352:328,1,180,2|0,0:0|0:0,0:0:0:0:
292,296,147527,6,0,P|243:324|234:366,2,90,2|0|0,0:0|0:0|0:0,0:0:0:0:
292,204,148170,2,0,B|196:216|196:216|148:216|128:164,1,180,2|0,0:0|0:0,0:0:0:0:
48,140,148813,1,0,0:0:0:0:
108,72,149027,1,0,0:0:0:0:
192,36,149242,6,0,B|288:24|288:24|336:24|352:68,1,180,2|0,0:0|0:0,0:0:0:0:
428,152,149884,2,0,B|377:239|474:237|417:336,1,180,2|0,0:0|0:0,0:0:0:0:
424,322,150420,1,0,0:0:0:0:
424,322,150527,1,0,0:0:0:0:
332,284,150742,2,0,L|256:320,1,45
260,320,150956,6,0,P|184:340|108:308,1,144,2|0,0:0|0:0,0:0:0:0:
152,168,151813,2,0,P|148:116|112:80,2,72,0|0|2,0:0|0:0|0:0,0:0:0:0:
216,216,152456,1,0,0:0:0:0:
280,172,152670,6,0,P|348:144|424:196,1,144,2|0,0:0|0:0,0:0:0:0:
344,232,153313,2,0,P|404:260|472:232,1,144,2|0,0:0|0:0,0:0:0:0:
492,156,153956,2,0,L|492:84,1,72
416,36,154385,6,0,L|324:36,1,72,2|0,0:0|0:0,0:0:0:0:
272,68,154813,2,0,L|176:68,1,72,2|0,0:0|0:0,0:0:0:0:
120,84,155242,1,2,0:0:0:0:
56,132,155456,1,0,0:0:0:0:
36,208,155670,1,2,0:0:0:0:
64,284,155885,1,0,0:0:0:0:
124,332,156099,6,0,P|168:360|256:332,1,144,2|0,0:0|0:0,0:0:0:0:
316,284,156742,2,0,P|272:256|188:284,1,144,2|0,0:0|0:0,0:0:0:0:
108,296,157384,1,0,0:0:0:0:
108,296,157598,1,0,0:0:0:0:
136,224,157813,6,0,L|196:164,1,72,2|0,0:0|0:0,0:0:0:0:
264,156,158242,1,0,0:0:0:0:
328,200,158456,1,0,0:0:0:0:
396,160,158670,2,0,L|488:132,1,72,2|0,0:0|0:0,0:0:0:0:
468,60,159099,2,0,L|392:36,1,72,2|0,0:0|0:0,0:0:0:0:
320,48,159527,6,0,P|248:72|176:40,1,144,2|0,0:0|0:0,0:0:0:0:
124,100,160170,2,0,P|148:172|116:244,1,144,2|0,0:0|0:0,0:0:0:0:
68,288,160813,1,0,0:0:0:0:
100,360,161027,1,0,0:0:0:0:
176,344,161242,6,0,P|220:352|260:344,1,72,2|0,0:0|0:0,0:0:0:0:
280,276,161670,2,0,P|306:272|350:280,1,72,2|0,0:0|0:0,0:0:0:0:
404,336,162099,1,2,0:0:0:0:
472,300,162313,1,0,0:0:0:0:
500,228,162527,1,2,0:0:0:0:
476,152,162742,1,0,0:0:0:0:
408,108,162956,6,0,P|336:116|256:104,1,144,2|0,0:0|0:0,0:0:0:0:
232,36,163599,2,0,P|160:28|80:40,1,144,2|0,0:0|0:0,0:0:0:0:
264,316,164670,6,0,P|276:256|400:232,1,198.000006042481,0|8,0:0|0:0,0:0:0:0:
496,236,165313,2,0,P|484:296|360:320,1,198.000006042481,0|0,0:0|0:0,0:0:0:0:
300,248,165956,1,8,0:0:0:0:
204,232,166170,1,0,0:0:0:0:
108,256,166385,6,0,P|56:288|4:272,1,99.0000030212403
40,184,166813,2,0,P|92:152|144:168,1,99.0000030212403,8|0,0:0|0:0,0:0:0:0:
236,156,167242,2,0,P|296:156|340:136,2,99.0000030212403,0|0|8,0:0|0:0|0:0,0:0:0:0:
160,92,167885,1,0,0:0:0:0:
228,20,168099,6,0,P|296:16|436:24,1,198.000006042481,0|8,0:0|0:0,0:0:0:0:
468,120,168742,2,0,B|416:188|448:260|448:260|392:256,1,198.000006042481
316,312,169385,1,8,0:0:0:0:
216,292,169599,1,0,0:0:0:0:
136,352,169813,6,0,P|72:364|44:324,1,99.0000030212403
104,260,170242,1,8,0:0:0:0:
104,260,170456,1,0,0:0:0:0:
176,192,170670,1,0,0:0:0:0:
276,204,170885,2,0,P|268:144|132:100,1,198.000006042481
68,140,171527,6,0,P|20:212|72:332,1,198.000006042481,0|8,0:0|0:0,0:0:0:0:
148,316,172170,2,0,P|196:244|144:124,1,198.000006042481
116,56,172813,2,0,P|168:28|240:48,1,99.0000030212403,8|0,0:0|0:0,0:0:0:0:
280,96,173242,5,0,0:0:0:0:
372,64,173456,1,0,0:0:0:0:
372,164,173670,1,8,0:0:0:0:
468,136,173885,1,0,0:0:0:0:
460,236,174099,2,0,L|464:356,2,99.0000030212403,0|0|8,0:0|0:0|0:0,0:0:0:0:
364,260,174742,1,0,0:0:0:0:
280,308,174956,6,0,P|224:336|84:296,1,198.000006042481,0|8,0:0|0:0,0:0:0:0:
100,208,175599,2,0,P|156:180|283:208,1,198.000006042481
380,192,176242,1,8,0:0:0:0:
472,232,176456,1,0,0:0:0:0:
440,324,176670,6,0,L|312:356,1,99.0000030212403
252,308,177099,2,0,L|332:248,1,99.0000030212403,8|0,0:0|0:0,0:0:0:0:
360,208,177420,1,0,0:0:0:0:
364,152,177527,2,0,P|360:108|332:48,2,99.0000030212403,0|0|8,0:0|0:0|0:0,0:0:0:0:
444,212,178170,1,0,0:0:0:0:
432,328,178385,6,0,L|320:352,1,99.0000030212403
240,332,178813,1,8,0:0:0:0:
240,332,179027,1,0,0:0:0:0:
96,292,179242,2,0,L|192:212,1,99.0000030212403
248,164,179670,1,8,0:0:0:0:
248,164,179885,1,0,0:0:0:0:
384,108,180099,6,0,P|394:158|438:179,1,99.0000030212403
344,44,180527,2,0,P|304:12|256:24,1,99.0000030212403,8|0,0:0|0:0,0:0:0:0:
416,40,180956,2,0,P|459:48|499:16,1,99.0000030212403
344,44,181385,1,8,0:0:0:0:
344,44,181599,1,0,0:0:0:0:
252,84,181813,6,0,L|164:160,1,99.0000030212403
100,212,182242,1,8,0:0:0:0:
100,212,182456,1,0,0:0:0:0:
172,320,182670,2,0,L|272:240,1,99.0000030212403
324,192,183099,1,8,0:0:0:0:
324,192,183313,1,0,0:0:0:0:
416,76,183527,5,0,0:0:0:0:
296,28,183742,1,0,0:0:0:0:
192,108,183956,1,8,0:0:0:0:
60,128,184170,1,0,0:0:0:0:
104,248,184385,1,0,0:0:0:0:
192,344,184599,1,0,0:0:0:0:
232,224,184813,1,8,0:0:0:0:
232,224,185027,1,0,0:0:0:0:
372,180,185242,6,0,P|440:160|448:120,1,99.0000030212403
320,60,185670,2,0,P|252:80|244:100,1,99.0000030212403,8|0,0:0|0:0,0:0:0:0:
304,236,186099,2,0,P|332:280|300:328,1,99.0000030212403
172,272,186527,2,0,P|144:228|176:180,1,99.0000030212403,8|0,0:0|0:0,0:0:0:0:
296,128,186956,5,0,0:0:0:0:
412,76,187170,1,0,0:0:0:0:
284,48,187385,1,8,0:0:0:0:
372,144,187599,1,0,0:0:0:0:
360,16,187813,1,0,0:0:0:0:
296,128,188027,1,0,0:0:0:0:
200,160,188242,1,8,0:0:0:0:
200,160,188456,1,0,0:0:0:0:
108,276,188670,6,0,P|144:320|212:304,1,99.0000030212403
268,268,189099,1,8,0:0:0:0:
268,268,189313,1,0,0:0:0:0:
360,152,189527,2,0,P|324:108|256:124,1,99.0000030212403
200,160,189956,1,8,0:0:0:0:
200,160,190170,1,0,0:0:0:0:
68,232,190385,6,0,L|68:120,1,99.0000030212403
200,60,190813,2,0,L|200:160,1,99.0000030212403,8|0,0:0|0:0,0:0:0:0:
252,300,191242,1,0,0:0:0:0:
368,248,191456,1,0,0:0:0:0:
380,120,191670,1,8,0:0:0:0:
380,120,191885,1,0,0:0:0:0:
144,160,198527,6,0,P|172:120|232:116,1,90
224,196,198956,2,0,P|280:244|396:188,1,180,2|0,0:0|0:0,0:0:0:0:
308,156,199599,2,0,L|312:56,1,90,2|0,0:0|0:0,0:0:0:0:
228,28,200027,2,0,P|152:24|92:104,1,180
184,108,200670,6,0,L|180:304,1,180,2|0,0:0|0:0,0:0:0:0:
232,360,201313,1,0,0:0:0:0:
316,328,201527,2,0,P|360:320|420:336,1,90,2|0,0:0|0:0,0:0:0:0:
488,296,201956,1,0,0:0:0:0:
428,232,202170,6,0,P|360:172|400:72,1,180,2|0,0:0|0:0,0:0:0:0:
460,60,202813,2,0,P|468:112|440:152,1,90
375,92,203241,1,2,0:0:0:0:
308,152,203456,1,0,0:0:0:0:
224,116,203670,2,0,P|172:92|124:112,1,90
72,156,204099,6,0,P|40:212|100:312,1,180,2|0,0:0|0:0,0:0:0:0:
132,228,204742,1,0,0:0:0:0:
132,228,204956,1,2,0:0:0:0:
312,232,205385,6,0,L|392:280,1,90,2|0,0:0|0:0,0:0:0:0:
244,48,206242,2,0,L|176:112,1,90,2|0,0:0|0:0,0:0:0:0:
436,188,207099,5,2,0:0:0:0:
436,188,207313,1,0,0:0:0:0:
184,280,207956,1,2,0:0:0:0:
184,280,208170,1,0,0:0:0:0:
456,284,208813,5,2,0:0:0:0:
456,284,209027,1,0,0:0:0:0:
248,112,209670,1,2,0:0:0:0:
248,112,209884,1,0,0:0:0:0:
72,316,210527,5,0,0:0:0:0:
244,264,210956,2,0,P|288:228|404:280,1,180,2|0,0:0|0:0,0:0:0:0:
472,312,211599,2,0,P|428:348|312:296,1,180,2|0,0:0|0:0,0:0:0:0:
188,76,212670,6,0,P|240:112|352:68,1,180,2|0,0:0|0:0,0:0:0:0:
268,32,213313,1,0,0:0:0:0:
188,76,213527,2,0,P|120:100|96:80,1,90,2|0,0:0|0:0,0:0:0:0:
56,168,213956,2,0,P|80:236|74:245,1,90,2|0,0:0|0:0,0:0:0:0:
144,304,214385,6,0,P|220:336|308:280,1,180,2|0,0:0|0:0,0:0:0:0:
220,248,215027,2,0,P|260:212|380:248,1,180,2|0,0:0|0:0,0:0:0:0:
440,300,215670,2,0,P|484:272|488:216,1,90
468,152,216099,6,0,P|412:120|404:84,1,90,2|0,0:0|0:0,0:0:0:0:
488,68,216527,2,0,P|480:47|424:15,1,90,2|0,0:0|0:0,0:0:0:0:
340,48,216956,1,2,0:0:0:0:
252,64,217170,1,0,0:0:0:0:
168,36,217385,1,0,0:0:0:0:
80,48,217599,1,0,0:0:0:0:
52,132,217813,6,0,P|40:188|132:272,1,180,2|0,0:0|0:0,0:0:0:0:
132,180,218456,2,0,P|208:260|188:328,1,180,2|0,0:0|0:0,0:0:0:0:
404,148,219527,6,0,P|368:188|380:236,1,90,2|0,0:0|0:0,0:0:0:0:
440,280,219956,1,0,0:0:0:0:
468,364,220170,1,0,0:0:0:0:
380,352,220385,2,0,P|332:332|292:352,1,90,2|0,0:0|0:0,0:0:0:0:
212,368,220813,2,0,P|148:352|132:312,1,90,2|0,0:0|0:0,0:0:0:0:
144,244,221242,6,0,P|212:220|224:108,1,180,2|0,0:0|0:0,0:0:0:0:
148,152,221885,1,0,0:0:0:0:
148,152,222099,1,0,0:0:0:0:
64,184,222313,2,0,P|83:86|151:62,1,180,2|0,0:0|0:0,0:0:0:0:
240,88,222956,6,0,P|300:96|336:80,1,90,2|0,0:0|0:0,0:0:0:0:
388,20,223385,2,0,P|414:10|474:18,1,90,2|0,0:0|0:0,0:0:0:0:
480,108,223813,2,0,P|453:117|393:109,1,90,2|0,0:0|0:0,0:0:0:0:
316,60,224242,1,0,0:0:0:0:
240,16,224456,1,0,0:0:0:0:
152,40,224670,6,0,P|76:52|28:152,1,180,2|0,0:0|0:0,0:0:0:0:
72,216,225313,1,2,0:0:0:0:
292,252,226385,6,0,P|360:260|408:132,1,198.000006042481,0|8,0:0|0:0,0:0:0:0:
352,88,227027,2,0,P|284:80|236:208,1,198.000006042481,0|0,0:0|0:0,0:0:0:0:
216,280,227670,2,0,P|192:324|140:320,1,99.0000030212403,8|0,0:0|0:0,0:0:0:0:
80,252,228099,5,0,0:0:0:0:
20,176,228313,1,0,0:0:0:0:
108,132,228527,1,8,0:0:0:0:
60,44,228742,1,0,0:0:0:0:
156,28,228956,2,0,P|216:20|256:24,2,99.0000030212403,0|0|8,0:0|0:0|0:0,0:0:0:0:
108,132,229599,1,0,0:0:0:0:
204,160,229813,6,0,P|264:168|312:292,1,198.000006042481,0|8,0:0|0:0,0:0:0:0:
216,264,230456,2,0,L|376:108,1,198.000006042481
456,124,231099,1,8,0:0:0:0:
488,32,231313,1,0,0:0:0:0:
388,20,231527,6,0,P|332:12|272:20,1,99.0000030212403
204,68,231956,2,0,P|148:76|84:64,1,99.0000030212403,8|0,0:0|0:0,0:0:0:0:
8,48,232385,1,0,0:0:0:0:
33,144,232599,2,0,P|102:182|106:299,1,198.000006042481
25,244,233242,6,0,P|118:194|203:261,1,198.000006042481,0|8,0:0|0:0,0:0:0:0:
110,292,233885,2,0,P|111:178|208:143,1,198.000006042481
268,172,234527,2,0,P|341:193|389:165,1,99.0000030212403,8|0,0:0|0:0,0:0:0:0:
446,137,234956,5,0,0:0:0:0:
500,52,235170,1,0,0:0:0:0:
404,24,235385,1,8,0:0:0:0:
328,88,235599,1,0,0:0:0:0:
237,39,235813,2,0,P|171:43|127:37,1,99.0000030212403
88,124,236242,2,0,P|144:119|204:133,1,99.0000030212403,8|0,0:0|0:0,0:0:0:0:
269,173,236670,6,0,P|327:240|432:211,1,198.000006042481,0|8,0:0|0:0,0:0:0:0:
363,144,237313,2,0,L|292:353,1,198.000006042481
200,340,237955,1,8,0:0:0:0:
108,308,238170,1,0,0:0:0:0:
50,167,238385,6,0,P|109:130|171:143,1,99.0000030212403
225,172,238813,2,0,P|281:146|300:98,1,99.0000030212403,8|0,0:0|0:0,0:0:0:0:
319,70,239135,1,0,0:0:0:0:
363,48,239242,2,0,L|471:76,1,99.0000030212403
426,166,239670,2,0,L|365:147,2,49.5000015106202,8|0|0,0:0|0:0|0:0,0:0:0:0:
454,261,240099,5,0,0:0:0:0:
407,348,240313,1,0,0:0:0:0:
336,279,240527,1,8,0:0:0:0:
251,331,240742,1,0,0:0:0:0:
152,332,240956,2,0,P|86:336|54:288,1,99.0000030212403
42,219,241385,2,0,P|108:215|129:234,1,99.0000030212403,8|0,0:0|0:0,0:0:0:0:
227,223,241813,6,0,P|317:201|326:77,1,198.000006042481,0|8,0:0|0:0,0:0:0:0:
243,123,242456,2,0,P|218:70|91:91,1,198.000006042481
85,130,242992,1,0,0:0:0:0:
82,179,243099,2,0,P|89:232|75:279,1,99.0000030212403,8|0,0:0|0:0,0:0:0:0:
162,324,243527,6,0,P|226:293|262:307,1,99.0000030212403
333,351,243956,1,8,0:0:0:0:
390,270,244170,1,0,0:0:0:0:
485,240,244385,1,0,0:0:0:0:
496,144,244599,1,0,0:0:0:0:
440,64,244813,2,0,P|394:37|309:63,1,99.0000030212403,8|0,0:0|0:0,0:0:0:0:
303,57,245135,1,0,0:0:0:0:
267,91,245242,6,0,P|202:120|77:90,1,198.000006042481,0|8,0:0|0:0,0:0:0:0:
149,20,245885,2,0,P|183:106|99:189,1,198.000006042481
123,182,246420,1,0,0:0:0:0:
123,182,246527,1,8,0:0:0:0:
120,284,246741,1,0,0:0:0:0:
272,254,246956,6,0,P|330:258|361:296,1,99.0000030212403
282,352,247385,2,0,P|224:348|195:304,1,99.0000030212403,8|0,0:0|0:0,0:0:0:0:
182,221,247813,2,0,P|192:172|176:120,1,99.0000030212403
92,172,248241,2,0,P|82:123|98:71,1,99.0000030212403,8|0,0:0|0:0,0:0:0:0:
179,125,248670,6,0,P|247:166|352:112,1,198.000006042481,0|8,0:0|0:0,0:0:0:0:
264,68,249313,2,0,L|272:294,1,198.000006042481
320,352,249956,1,8,0:0:0:0:
416,332,250170,1,0,0:0:0:0:
448,236,250385,6,0,L|433:132,1,99.0000030212403
339,106,250813,2,0,L|320:212,1,99.0000030212403,8|0,0:0|0:0,0:0:0:0:
225,229,251242,1,0,0:0:0:0:
128,251,251456,1,0,0:0:0:0:
33,222,251670,1,8,0:0:0:0:
7,126,251885,1,0,0:0:0:0:
81,61,252099,6,0,P|170:47|238:145,1,198.000006042481,0|8,0:0|0:0,0:0:0:0:
139,143,252742,2,0,P|186:46|297:48,1,198.000006042481
312,54,253277,1,0,0:0:0:0:
360,64,253385,2,0,P|411:45|431:17,2,49.5000015106202,8|0|0,0:0|0:0|0:0,0:0:0:0:
331,158,253813,6,0,P|275:194|294:329,1,198.000006042481,0|8,0:0|0:0,0:0:0:0:
373,344,254456,2,0,P|429:308|425:187,1,198.000006042481
331,158,255099,2,0,P|264:144|239:98,1,99.0000030212403,8|0,0:0|0:0,0:0:0:0:
174,52,255527,5,0,0:0:0:0:
74,52,255742,1,0,0:0:0:0:
17,133,255956,1,8,0:0:0:0:
34,230,256170,1,0,0:0:0:0:
128,261,256385,2,0,P|103:310|58:328,2,99.0000030212403,0|0|8,0:0|0:0|0:0,0:0:0:0:
183,179,257027,1,0,0:0:0:0:
268,127,257242,6,0,P|338:123|467:203,1,198.000006042481,0|8,0:0|0:0,0:0:0:0:
420,275,257885,2,0,P|350:279|221:199,1,198.000006042481
201,130,258527,1,8,0:0:0:0:
119,72,258742,1,0,0:0:0:0:
44,137,258956,6,0,P|19:198|97:320,1,198.000006042481,0|8,0:0|0:0,0:0:0:0:
167,274,259599,1,0,0:0:0:0:
265,277,259813,2,0,P|318:281|361:330,1,99.0000030212403
446,338,260242,1,8,0:0:0:0:
446,338,260349,1,0,0:0:0:0:
446,338,260456,1,0,0:0:0:0:
471,242,260670,6,0,P|489:175|427:65,1,198.000006042481,0|8,0:0|0:0,0:0:0:0:
332,86,261313,2,0,P|314:153|372:260,1,198.000006042481
446,338,261956,2,0,P|385:373|344:355,1,99.0000030212403,8|0,0:0|0:0,0:0:0:0:
271,325,262385,5,0,0:0:0:0:
176,295,262599,1,0,0:0:0:0:
81,323,262813,2,0,P|15:298|5:256,1,99.0000030212403,8|0,0:0|0:0,0:0:0:0:
60,193,263242,1,0,0:0:0:0:
44,95,263456,1,0,0:0:0:0:
112,24,263670,2,0,B|152:36|192:16|228:32,1,99.0000030212403,8|0,0:0|0:0,0:0:0:0:
300,72,264099,6,0,P|360:92|379:230,1,198.000006042481,0|8,0:0|0:0,0:0:0:0:
298,172,264742,2,0,L|124:305,1,198.000006042481
83,373,265385,1,8,0:0:0:0:
26,292,265599,1,0,0:0:0:0:
26,292,265706,1,0,0:0:0:0:
26,292,265813,6,0,P|56:225|35:183,1,99.0000030212403
11,112,266242,1,8,0:0:0:0:
57,24,266456,1,0,0:0:0:0:
57,24,266563,1,0,0:0:0:0:
57,24,266670,2,0,P|111:58|164:44,1,99.0000030212403
190,36,266992,1,0,0:0:0:0:
239,33,267099,2,0,L|361:31,1,99.0000030212403,8|0,0:0|0:0,0:0:0:0:
447,131,267527,6,0,P|463:197|425:226,1,99.0000030212403
349,237,267956,1,8,0:0:0:0:
349,237,268170,1,0,0:0:0:0:
200,228,268385,2,0,P|184:294|222:323,1,99.0000030212403
298,334,268814,1,8,0:0:0:0:
298,334,269028,1,0,0:0:0:0:
441,298,269242,6,0,L|493:202,1,99.0000030212403
427,75,269670,2,0,L|374:168,1,99.0000030212403,8|0,0:0|0:0,0:0:0:0:
259,70,270099,2,0,L|151:73,1,99.0000030212403
79,129,270527,1,8,0:0:0:0:
79,129,270742,1,0,0:0:0:0:
176,240,270956,6,0,P|225:214|281:238,1,99.0000030212403
347,279,271385,1,8,0:0:0:0:
347,279,271599,1,0,0:0:0:0:
302,137,271813,2,0,P|253:111|213:121,1,99.0000030212403
131,176,272242,1,8,0:0:0:0:
131,176,272456,1,0,0:0:0:0:
56,47,272670,5,0,0:0:0:0:
176,32,272885,1,0,0:0:0:0:
301,61,273099,1,8,0:0:0:0:
416,32,273313,1,0,0:0:0:0:
482,149,273527,2,0,L|374:196,1,99.0000030212403
292,178,273956,1,8,0:0:0:0:
292,178,274170,1,0,0:0:0:0:
246,319,274385,6,0,L|128:302,1,99.0000030212403
61,256,274813,1,8,0:0:0:0:
61,256,275027,1,0,0:0:0:0:
105,113,275242,2,0,L|223:96,1,99.0000030212403
290,50,275670,1,8,0:0:0:0:
290,50,275884,1,0,0:0:0:0:
410,137,276099,5,0,0:0:0:0:
369,258,276313,1,0,0:0:0:0:
472,181,276527,1,8,0:0:0:0:
342,183,276742,1,0,0:0:0:0:
446,258,276955,1,0,0:0:0:0:
409,349,277170,1,0,0:0:0:0:
309,356,277385,1,8,0:0:0:0:
309,356,277599,1,0,0:0:0:0:
228,231,277813,6,0,P|217:169|179:147,1,99.0000030212403
91,136,278242,1,8,0:0:0:0:
91,136,278456,1,0,0:0:0:0:
13,262,278670,2,0,P|24:324|62:346,1,99.0000030212403
150,357,279099,1,8,0:0:0:0:
150,357,279313,1,0,0:0:0:0:
280,286,279527,6,0,L|363:226,1,99.0000030212403
392,112,279956,1,8,0:0:0:0:
280,76,280170,1,0,0:0:0:0:
164,108,280385,1,0,0:0:0:0:
80,192,280599,2,0,P|136:224|188:224,2,99.0000030212403,0|8|0,0:0|0:0|0:0,0:0:0:0:
147,319,281242,6,0,L|260:322,1,99.0000030212403
344,322,281670,1,8,0:0:0:0:
344,322,281885,1,0,0:0:0:0:
424,197,282099,2,0,L|325:194,1,99.0000030212403
227,194,282527,1,8,0:0:0:0:
227,194,282742,1,0,0:0:0:0:
102,112,282956,6,0,P|84:58|122:3,1,99.0000030212403
248,22,283385,2,0,P|266:76|228:131,1,99.0000030212403,8|0,0:0|0:0,0:0:0:0:
128,197,283813,2,0,P|105:259|156:308,1,99.0000030212403
202,336,284242,1,8,0:0:0:0:
202,336,284456,1,0,0:0:0:0:
333,267,284670,6,0,L|383:168,1,99.0000030212403
419,88,285099,1,8,0:0:0:0:
419,88,285313,1,0,0:0:0:0:
292,0,285527,2,0,L|342:99,1,99.0000030212403
378,179,285956,1,8,0:0:0:0:
378,179,286170,1,0,0:0:0:0:
235,135,286385,5,0,0:0:0:0:
140,221,286599,1,0,0:0:0:0:
167,95,286813,1,8,0:0:0:0:
218,212,287027,1,0,0:0:0:0:
104,150,287241,1,0,0:0:0:0:
104,150,287456,1,0,0:0:0:0:
44,228,287670,2,0,L|48:352,1,99.0000030212403,8|0,0:0|0:0,0:0:0:0:
256,192,288099,12,0,291528,0:0:0:0:
