osu file format v14

[General]
AudioFilename: Yuki Kaai - Calalini.mp3
AudioLeadIn: 0
PreviewTime: 96098
Countdown: 0
SampleSet: Soft
StackLeniency: 0.7
Mode: 0
LetterboxInBreaks: 0
WidescreenStoryboard: 0

[Editor]
DistanceSpacing: 1
BeatDivisor: 4
GridSize: 4
TimelineZoom: 1

[Metadata]
Title:Calalini
TitleUnicode:Calalini
Artist:Childhood Crusher-P
ArtistUnicode:Childhood Crusher-P
Creator:neonat
Version:Calalini
Source:
Tags:Kaai Yuki Vocaloid Planty-P Bunnybutt Cien
BeatmapID:299011
BeatmapSetID:112664

[Difficulty]
HPDrainRate:6
CircleSize:4
OverallDifficulty:7
ApproachRate:8
SliderMultiplier:1.9
SliderTickRate:2

[Events]
//Background and Video events
0,0,"Calalini.png",0,0
Video,-300,"Calalini.avi"
//Break Periods
2,192298,197777
//Storyboard Layer 0 (Background)
//Storyboard Layer 1 (Fail)
//Storyboard Layer 2 (Pass)
//Storyboard Layer 3 (Foreground)
//Storyboard Sound Samples

[TimingPoints]
13813,428.571428571429,4,1,0,70,1,0
54955,-100,4,2,1,70,0,0
96098,-90.9090909090909,4,2,1,70,0,1
123527,-100,4,2,1,70,0,0
150955,-125,4,2,1,70,0,0
164670,-90.9090909090909,4,2,1,70,0,1
192098,-100,4,2,1,70,0,0
226384,-90.9090909090909,4,2,1,70,0,1
281241,-90.9090909090909,4,2,1,60,0,1
282955,-90.9090909090909,4,2,1,50,0,1
284670,-90.9090909090909,4,2,1,35,0,1
288098,-100,4,2,1,20,0,0

[Colours]
Combo1 : 245,224,71
Combo2 : 180,82,182
Combo3 : 103,146,134
Combo4 : 243,160,219

[HitObjects]
256,112,27527,5,0,0:0:0:0:
256,112,27741,1,0,0:0:0:0:
336,56,27955,2,0,P|392:72|424:136,1,95,8|0,0:0|0:0,0:0:0:0:
424,120,28277,1,0,0:0:0:0:
424,144,28384,1,0,0:0:0:0:
368,220,28598,1,0,0:0:0:0:
272,220,28813,2,0,P|216:212|168:248,1,95,8|0,0:0|0:0,0:0:0:0:
228,356,29241,6,0,P|284:364|332:328,1,95
368,268,29670,2,0,L|356:152,1,95,8|0,0:0|0:0,0:0:0:0:
356,148,29991,1,0,0:0:0:0:
352,124,30098,1,0,0:0:0:0:
272,72,30313,1,0,0:0:0:0:
184,108,30527,2,0,P|144:144|88:140,1,95,8|0,0:0|0:0,0:0:0:0:
84,136,30848,1,0,0:0:0:0:
60,128,30955,6,0,L|24:248,1,95
108,328,31384,2,0,L|135:237,1,95,8|0,0:0|0:0,0:0:0:0:
152,220,31705,1,0,0:0:0:0:
172,204,31813,2,0,L|232:176,2,47.5
204,308,32241,2,0,L|312:308,1,95,8|0,0:0|0:0,0:0:0:0:
420,228,32670,6,0,L|312:228,1,95
136,112,33098,2,0,L|256:112,1,95,8|0,0:0|0:0,0:0:0:0:
256,112,33420,1,0,0:0:0:0:
280,112,33527,2,0,P|328:112|376:56,1,95
296,24,33955,1,8,0:0:0:0:
296,24,34170,1,0,0:0:0:0:
344,216,34384,6,0,L|344:328,1,95
204,344,34813,2,0,L|204:244,1,95,8|0,0:0|0:0,0:0:0:0:
204,224,35134,1,0,0:0:0:0:
204,200,35241,1,0,0:0:0:0:
204,176,35348,1,0,0:0:0:0:
204,152,35455,1,0,0:0:0:0:
300,48,35670,2,0,L|408:48,1,95,8|0,0:0|0:0,0:0:0:0:
420,48,35991,1,0,0:0:0:0:
444,48,36098,5,0,0:0:0:0:
500,124,36313,1,0,0:0:0:0:
408,148,36527,2,0,P|384:192|412:252,1,95,8|0,0:0|0:0,0:0:0:0:
412,252,36848,1,0,0:0:0:0:
432,260,36955,1,0,0:0:0:0:
496,332,37170,2,0,L|436:360,1,47.5
416,356,37384,2,0,P|348:360|308:352,1,95,8|0,0:0|0:0,0:0:0:0:
192,352,37813,5,0,0:0:0:0:
192,352,38027,1,0,0:0:0:0:
100,244,38241,2,0,P|144:208|144:136,1,95,8|0,0:0|0:0,0:0:0:0:
148,148,38563,1,0,0:0:0:0:
132,132,38670,2,0,L|80:88,2,47.5
256,64,39098,2,0,P|264:124|248:172,1,95,8|0,0:0|0:0,0:0:0:0:
244,176,39420,1,0,0:0:0:0:
240,200,39527,6,0,L|340:264,1,95
480,224,39955,2,0,L|384:160,1,95,8|0,0:0|0:0,0:0:0:0:
380,156,40277,1,0,0:0:0:0:
360,140,40384,2,0,P|320:100|336:44,1,95
344,48,40705,1,0,0:0:0:0:
372,36,40813,2,0,P|407:65|410:111,1,95,8|0,0:0|0:0,0:0:0:0:
312,232,41241,6,0,P|276:284|288:320,1,95
372,340,41670,2,0,P|408:288|396:252,1,95,8|0,0:0|0:0,0:0:0:0:
392,240,41991,1,0,0:0:0:0:
384,220,42098,1,0,0:0:0:0:
376,196,42205,1,0,0:0:0:0:
368,176,42313,1,0,0:0:0:0:
240,72,42527,2,0,L|284:176,1,95,8|0,0:0|0:0,0:0:0:0:
232,292,42955,6,0,P|176:312|136:284,1,95
92,220,43384,1,8,0:0:0:0:
212,140,43598,1,0,0:0:0:0:
212,140,43705,1,0,0:0:0:0:
212,140,43813,1,0,0:0:0:0:
344,192,44027,1,0,0:0:0:0:
344,192,44134,1,0,0:0:0:0:
344,192,44241,2,0,P|364:136|352:88,1,95,8|0,0:0|0:0,0:0:0:0:
348,80,44563,1,0,0:0:0:0:
348,80,44670,6,0,P|400:64|440:84,1,95
480,164,45098,2,0,P|484:244|464:280,1,95,8|0,0:0|0:0,0:0:0:0:
464,276,45420,1,0,0:0:0:0:
444,288,45527,1,0,0:0:0:0:
420,292,45634,1,0,0:0:0:0:
396,288,45741,1,0,0:0:0:0:
260,244,45955,2,0,P|208:236|148:244,1,95,8|0,0:0|0:0,0:0:0:0:
56,152,46384,6,0,P|108:160|168:152,1,95
232,104,46813,1,8,0:0:0:0:
356,32,47027,1,0,0:0:0:0:
380,32,47134,1,0,0:0:0:0:
404,32,47241,2,0,P|456:24|504:36,1,95
496,56,47563,1,0,0:0:0:0:
496,80,47670,2,0,P|496:164|504:204,1,95,8|0,0:0|0:0,0:0:0:0:
392,224,48098,6,0,P|356:164|312:152,1,95
231,223,48527,2,0,P|248:266|288:292,1,95,8|0,0:0|0:0,0:0:0:0:
312,292,48848,1,0,0:0:0:0:
336,292,48955,2,0,L|400:292,2,47.5
116,260,49384,2,0,P|88:304|44:312,1,95,8|0,0:0|0:0,0:0:0:0:
24,172,49813,6,0,P|52:128|96:120,1,95
200,28,50241,2,0,L|264:112,1,95,8|0,0:0|0:0,0:0:0:0:
280,108,50563,1,0,0:0:0:0:
304,112,50670,2,0,P|372:104|400:128,1,95
404,136,50991,1,0,0:0:0:0:
408,160,51098,2,0,P|420:220|456:244,1,95,8|0,0:0|0:0,0:0:0:0:
348,344,51527,6,0,P|300:296|252:280,1,95
144,232,51955,2,0,P|216:228|240:216,1,95,8|0,0:0|0:0,0:0:0:0:
244,196,52277,1,0,0:0:0:0:
248,172,52384,2,0,L|304:152,2,47.5
144,72,52813,1,8,0:0:0:0:
144,72,53027,1,0,0:0:0:0:
56,184,53241,5,0,0:0:0:0:
80,300,53455,1,0,0:0:0:0:
200,268,53670,2,0,P|252:252|312:272,1,95,8|0,0:0|0:0,0:0:0:0:
308,276,53991,1,0,0:0:0:0:
320,296,54098,2,0,P|366:303|410:287,1,95
428,268,54420,1,0,0:0:0:0:
444,248,54527,2,0,L|480:176,1,47.5,8|0,0:0|0:0,0:0:0:0:
412,100,54741,2,0,L|390:142,1,47.5
272,156,54955,6,0,P|208:164|148:152,1,95,2|0,0:0|0:0,0:0:0:0:
56,84,55384,2,0,P|120:76|180:88,1,95
288,44,55813,2,0,P|344:48|392:40,2,95
56,84,56455,6,0,P|32:140|100:256,1,190,2|0,0:0|0:0,0:0:0:0:
176,276,57098,1,0,0:0:0:0:
268,248,57313,2,0,P|332:224|440:288,1,190,2|0,0:0|0:0,0:0:0:0:
340,336,57955,1,0,0:0:0:0:
340,336,58170,1,0,0:0:0:0:
200,200,58384,6,0,P|192:152|204:92,1,95,2|0,0:0|0:0,0:0:0:0:
320,32,58813,2,0,P|328:80|316:140,1,95
372,256,59241,2,0,P|424:248|480:264,2,95
208,332,59884,6,0,P|152:356|24:328,1,190,2|0,0:0|0:0,0:0:0:0:
32,188,60527,1,0,0:0:0:0:
32,188,60741,1,0,0:0:0:0:
168,120,60955,2,0,P|228:116|276:120,1,95,2|0,0:0|0:0,0:0:0:0:
332,276,61384,2,0,P|328:228|330:181,1,95
480,104,61813,6,0,P|432:107|385:105,1,95,2|0,0:0|0:0,0:0:0:0:
288,12,62241,2,0,P|285:59|289:106,1,95
192,216,62670,2,0,P|144:218|97:214,2,95
308,132,63313,6,0,P|376:132|456:244,1,190,2|0,0:0|0:0,0:0:0:0:
440,312,63955,1,0,0:0:0:0:
308,364,64170,2,0,P|240:364|160:252,1,190,2|0,0:0|0:0,0:0:0:0:
224,108,64813,2,0,L|224:220,1,95
356,260,65241,5,2,0:0:0:0:
356,260,65455,1,0,0:0:0:0:
428,136,65670,1,0,0:0:0:0:
428,136,65884,1,0,0:0:0:0:
286,136,66098,2,0,P|235:134|181:163,2,95
356,260,66741,6,0,P|288:308|172:288,1,190,2|0,0:0|0:0,0:0:0:0:
116,232,67384,1,0,0:0:0:0:
124,76,67598,2,0,P|192:28|308:48,1,190,2|0,0:0|0:0,0:0:0:0:
256,128,68241,1,0,0:0:0:0:
256,144,68348,1,0,0:0:0:0:
256,160,68455,1,0,0:0:0:0:
256,176,68563,1,0,0:0:0:0:
256,192,68670,6,0,P|264:260|440:264,1,285,2|0,0:0|0:0,0:0:0:0:
388,132,69527,2,0,L|344:236,2,95
400,36,70170,6,0,P|336:52|204:32,1,190
84,92,70813,2,0,P|56:136|72:188,1,95,2|0,0:0|0:0,0:0:0:0:
136,236,71241,2,0,P|164:192|148:140,1,95,0|2,0:0|0:0,0:0:0:0:
64,176,71670,2,0,P|36:220|52:272,1,95
168,328,72098,6,0,P|236:320|264:348,2,95,2|0|0,0:0|0:0|0:0,0:0:0:0:
64,176,72741,2,0,P|108:80|196:64,1,190,2|2,0:0|0:0,0:0:0:0:
256,124,73384,1,0,0:0:0:0:
348,100,73598,1,0,0:0:0:0:
281,38,73813,6,0,P|257:74|265:146,1,95,2|0,0:0|0:0,0:0:0:0:
432,120,74241,1,0,0:0:0:0:
492,236,74455,2,0,P|476:288|328:332,1,190,2|0,0:0|0:0,0:0:0:0:
256,276,75098,1,0,0:0:0:0:
256,276,75313,1,0,0:0:0:0:
100,344,75527,6,0,P|44:324|72:128,1,285,2|0,0:0|0:0,0:0:0:0:
148,156,76384,2,0,P|196:136|228:80,2,95
96,236,77027,6,0,P|180:232|272:172,1,190,2|0,0:0|0:0,0:0:0:0:
312,92,77670,1,0,0:0:0:0:
420,32,77884,2,0,L|488:224,1,190,2|2,0:0|0:0,0:0:0:0:
452,300,78527,1,0,0:0:0:0:
452,300,78741,1,0,0:0:0:0:
312,276,78955,6,0,P|244:272|200:284,1,95,2|0,0:0|0:0,0:0:0:0:
152,344,79384,1,0,0:0:0:0:
56,336,79598,2,0,P|19:250|49:162,1,190,2|2,0:0|0:0,0:0:0:0:
48,68,80241,2,0,L|49:163,1,95
200,200,80670,6,0,L|300:264,2,95,2|0|0,0:0|0:0|0:0,0:0:0:0:
148,68,81313,2,0,P|220:40|344:92,1,190,2|0,0:0|0:0,0:0:0:0:
404,140,81955,1,0,0:0:0:0:
404,160,82063,1,0,0:0:0:0:
404,180,82170,1,0,0:0:0:0:
404,200,82277,1,0,0:0:0:0:
404,220,82384,6,0,L|404:332,1,95,2|0,0:0|0:0,0:0:0:0:
320,360,82813,2,0,L|320:260,1,95,2|0,0:0|0:0,0:0:0:0:
236,220,83241,2,0,L|236:315,2,95,2|0|2,0:0|0:0|0:0,0:0:0:0:
144,188,83884,1,0,0:0:0:0:
72,248,84098,6,0,L|72:360,2,95,2|0|2,0:0|0:0|0:0,0:0:0:0:
44,80,84741,2,0,P|100:48|228:64,1,190,2|0,0:0|0:0,0:0:0:0:
260,148,85384,1,0,0:0:0:0:
260,148,85598,1,0,0:0:0:0:
360,76,85813,5,2,0:0:0:0:
496,76,86027,1,0,0:0:0:0:
428,204,86241,1,2,0:0:0:0:
428,28,86455,1,0,0:0:0:0:
496,156,86670,1,2,0:0:0:0:
360,156,86884,1,0,0:0:0:0:
496,76,87098,1,2,0:0:0:0:
428,204,87313,1,0,0:0:0:0:
360,76,87527,6,0,P|288:120|316:220,1,190,2|0,0:0|0:0,0:0:0:0:
228,60,88170,2,0,P|148:16|64:72,1,190,2|0,0:0|0:0,0:0:0:0:
148,112,88813,1,0,0:0:0:0:
148,112,89027,1,0,0:0:0:0:
40,204,89241,6,0,P|28:256|60:304,1,95,2|0,0:0|0:0,0:0:0:0:
160,336,89670,2,0,P|172:284|140:236,1,95,2|0,0:0|0:0,0:0:0:0:
40,204,90098,2,0,L|40:92,1,95,2|0,0:0|0:0,0:0:0:0:
160,84,90527,2,0,L|160:204,1,95,2|0,0:0|0:0,0:0:0:0:
260,252,90955,6,0,L|260:352,2,95,2|0|2,0:0|0:0|0:0,0:0:0:0:
284,140,91598,2,0,P|368:92|440:144,1,190,2|0,0:0|0:0,0:0:0:0:
361,180,92241,2,0,L|349:288,1,95
252,324,92670,5,2,0:0:0:0:
184,232,92884,1,0,0:0:0:0:
184,232,92991,1,0,3:0:0:0:
184,232,93098,1,2,0:0:0:0:
304,268,93313,1,0,0:0:0:0:
180,308,93527,5,2,0:0:0:0:
260,204,93741,1,0,0:0:0:0:
260,204,93848,1,0,3:0:0:0:
260,204,93955,1,2,0:0:0:0:
120,184,94170,1,0,0:0:0:0:
44,56,94384,6,0,P|128:80|232:56,1,190,2|0,0:0|0:0,0:0:0:0:
344,28,95027,2,0,P|416:48|484:168,1,190,2|0,0:0|0:0,0:0:0:0:
372,176,95670,1,0,0:0:0:0:
352,184,95777,1,0,0:0:0:0:
340,204,95884,1,0,0:0:0:0:
336,228,95991,1,0,0:0:0:0:
336,256,96098,6,0,P|316:312|182:347,1,209.000006378174,0|8,0:0|0:0,0:0:0:0:
92,208,96741,2,0,P|112:152|248:120,1,209.000006378174
344,168,97384,2,0,P|400:188|448:164,1,104.500003189087,8|0,0:0|0:0,0:0:0:0:
456,152,97705,1,0,0:0:0:0:
456,124,97813,6,0,L|424:20,1,104.500003189087
272,44,98241,2,0,L|228:156,1,104.500003189087,8|0,0:0|0:0,0:0:0:0:
224,168,98563,1,0,0:0:0:0:
212,192,98670,2,0,P|168:236|116:236,2,104.500003189087,0|0|8,0:0|0:0|0:0,0:0:0:0:
260,268,99313,1,0,0:0:0:0:
260,268,99420,1,0,0:0:0:0:
260,268,99527,6,0,P|352:232|388:252,2,104.500003189087,0|0|8,0:0|0:0|0:0,0:0:0:0:
60,344,100170,1,0,0:0:0:0:
56,328,100277,1,0,0:0:0:0:
56,312,100384,1,0,0:0:0:0:
60,296,100491,1,0,0:0:0:0:
68,284,100598,1,0,0:0:0:0:
80,272,100705,1,0,0:0:0:0:
92,260,100813,2,0,P|120:208|104:152,1,104.500003189087,8|0,0:0|0:0,0:0:0:0:
96,144,101134,1,0,0:0:0:0:
76,128,101241,6,0,L|76:12,1,104.500003189087
292,32,101670,2,0,L|292:160,1,104.500003189087,8|0,0:0|0:0,0:0:0:0:
292,164,101991,1,0,0:0:0:0:
292,192,102098,2,0,P|336:240|420:240,1,104.500003189087
400,248,102420,1,0,0:0:0:0:
424,248,102527,1,8,0:0:0:0:
380,336,102741,1,0,0:0:0:0:
352,336,102848,1,0,0:0:0:0:
324,336,102955,6,0,L|96:336,1,209.000006378174,0|8,0:0|0:0,0:0:0:0:
60,224,103598,2,0,L|300:224,1,209.000006378174
356,168,104241,1,8,0:0:0:0:
428,92,104455,1,0,0:0:0:0:
428,92,104563,1,0,0:0:0:0:
428,92,104670,6,0,P|384:52|324:52,1,104.500003189087
236,88,105098,1,8,0:0:0:0:
116,192,105313,1,0,0:0:0:0:
116,192,105420,1,0,0:0:0:0:
116,192,105527,2,0,P|148:224|212:220,1,104.500003189087
228,208,105848,1,0,0:0:0:0:
248,192,105955,2,0,P|332:184|364:220,1,104.500003189087,8|0,0:0|0:0,0:0:0:0:
396,352,106384,6,0,P|448:352|496:312,2,104.500003189087,0|0|8,0:0|0:0|0:0,0:0:0:0:
296,256,107027,2,0,L|244:292,1,52.2500015945435,0|0,0:0|0:0,0:0:0:0:
236,324,107241,2,0,L|268:376,2,52.2500015945435,0|0|0,0:0|0:0|0:0,0:0:0:0:
132,284,107670,2,0,L|60:160,1,104.500003189087,8|0,0:0|0:0,0:0:0:0:
76,168,107991,1,0,0:0:0:0:
76,140,108098,5,0,0:0:0:0:
228,56,108313,1,0,0:0:0:0:
152,204,108527,1,8,0:0:0:0:
156,36,108741,1,0,0:0:0:0:
156,36,108848,1,0,0:0:0:0:
156,36,108955,2,0,P|160:88|208:128,1,104.500003189087
220,132,109277,1,0,0:0:0:0:
246,132,109384,1,8,0:0:0:0:
376,196,109598,2,0,L|392:284,1,52.2500015945435
392,284,109813,5,0,0:0:0:0:
340,372,110027,1,0,0:0:0:0:
244,340,110241,1,8,0:0:0:0:
208,212,110455,1,0,0:0:0:0:
196,204,110563,1,0,0:0:0:0:
180,200,110670,1,0,0:0:0:0:
164,200,110777,1,0,0:0:0:0:
148,204,110884,1,0,0:0:0:0:
80,344,111098,2,0,L|12:252,1,104.500003189087,8|0,0:0|0:0,0:0:0:0:
16,232,111420,1,0,0:0:0:0:
16,204,111527,6,0,L|39:89,1,104.500003189087
240,36,111955,2,0,L|152:116,1,104.500003189087,8|0,0:0|0:0,0:0:0:0:
162,106,112277,1,0,0:0:0:0:
162,106,112384,1,0,0:0:0:0:
216,256,112598,1,0,0:0:0:0:
216,256,112705,1,0,0:0:0:0:
216,256,112813,2,0,L|336:280,1,104.500003189087,8|0,0:0|0:0,0:0:0:0:
380,132,113241,5,0,0:0:0:0:
460,196,113455,1,0,0:0:0:0:
472,92,113670,1,8,0:0:0:0:
380,132,113884,1,0,0:0:0:0:
371,118,113991,1,0,0:0:0:0:
356,110,114098,1,0,0:0:0:0:
340,107,114205,1,0,0:0:0:0:
324,111,114313,1,0,0:0:0:0:
196,184,114527,2,0,L|292:224,1,104.500003189087,8|0,0:0|0:0,0:0:0:0:
192,292,114955,5,0,0:0:0:0:
56,264,115170,1,0,0:0:0:0:
228,220,115384,1,8,0:0:0:0:
84,336,115598,1,0,0:0:0:0:
84,336,115705,1,0,0:0:0:0:
84,336,115813,1,0,0:0:0:0:
172,164,116027,1,0,0:0:0:0:
172,164,116134,1,0,0:0:0:0:
172,164,116241,1,8,0:0:0:0:
156,360,116455,1,0,0:0:0:0:
156,360,116563,1,0,0:0:0:0:
156,360,116670,6,0,L|280:364,1,104.500003189087
424,268,117098,2,0,L|296:264,1,104.500003189087,8|0,0:0|0:0,0:0:0:0:
300,264,117420,1,0,0:0:0:0:
279,263,117527,1,0,0:0:0:0:
259,262,117634,1,0,0:0:0:0:
239,262,117741,1,0,0:0:0:0:
96,160,117955,2,0,L|212:168,1,104.500003189087,8|0,0:0|0:0,0:0:0:0:
220,168,118277,1,0,0:0:0:0:
240,169,118384,5,0,0:0:0:0:
336,88,118598,1,0,0:0:0:0:
348,212,118813,1,8,0:0:0:0:
224,92,119027,1,0,0:0:0:0:
224,92,119134,1,0,0:0:0:0:
224,92,119241,1,0,0:0:0:0:
396,60,119455,1,0,0:0:0:0:
396,60,119563,1,0,0:0:0:0:
396,60,119670,1,8,0:0:0:0:
348,212,119884,1,0,0:0:0:0:
348,212,119991,1,0,0:0:0:0:
348,212,120098,6,0,P|300:256|304:292,1,104.500003189087
408,284,120527,2,0,P|456:240|452:204,1,104.500003189087,8|0,0:0|0:0,0:0:0:0:
440,188,120848,1,0,0:0:0:0:
432,168,120955,2,0,P|432:116|444:104,2,52.2500015945435
284,112,121384,2,0,P|228:152|176:144,1,104.500003189087,8|0,0:0|0:0,0:0:0:0:
176,140,121705,1,0,0:0:0:0:
156,128,121813,6,0,P|108:108|52:124,1,104.500003189087
96,272,122241,2,0,P|144:292|200:276,1,104.500003189087,8|0,0:0|0:0,0:0:0:0:
193,280,122563,1,0,0:0:0:0:
193,280,122670,1,0,0:0:0:0:
320,188,122884,2,0,L|392:200,1,52.2500015945435
392,204,123098,1,8,0:0:0:0:
408,216,123205,1,0,0:0:0:0:
420,236,123313,1,0,0:0:0:0:
428,256,123420,1,0,0:0:0:0:
428,276,123527,6,0,L|380:368,1,95,2|0,0:0|0:0,0:0:0:0:
304,268,123955,2,0,L|244:344,1,95
216,348,124277,1,0,0:0:0:0:
188,340,124384,2,0,P|136:320|80:328,2,95
97,323,125027,6,0,L|140:209,1,95,2|0,0:0|0:0,0:0:0:0:
128,48,125455,2,0,L|93:136,1,95
280,160,125884,2,0,P|324:204|460:180,1,190,2|0,0:0|0:0,0:0:0:0:
406,16,126527,2,0,L|378:108,1,95
280,160,126955,6,0,L|168:136,1,95,2|0,0:0|0:0,0:0:0:0:
112,228,127384,2,0,L|216:280,1,95
280,160,127813,2,0,L|228:72,1,95
140,68,128241,1,0,0:0:0:0:
32,148,128455,6,0,P|12:212|44:344,1,190,2|0,0:0|0:0,0:0:0:0:
156,276,129098,1,0,0:0:0:0:
272,344,129313,1,0,0:0:0:0:
396,252,129527,2,0,L|396:152,1,95,2|0,0:0|0:0,0:0:0:0:
276,128,129955,2,0,L|276:28,1,95
172,120,130384,6,0,P|120:144|68:144,1,95,2|0,0:0|0:0,0:0:0:0:
64,264,130813,2,0,P|116:264|172:284,1,95
232,332,131241,1,0,0:0:0:0:
328,336,131455,1,0,0:0:0:0:
380,256,131670,1,0,0:0:0:0:
348,168,131884,6,0,P|360:116|392:80,2,95,2|0|0,0:0|0:0|0:0,0:0:0:0:
252,176,132527,1,0,0:0:0:0:
180,240,132741,2,0,P|128:260|28:172,1,190,2|0,0:0|0:0,0:0:0:0:
56,96,133384,2,0,L|8:56,2,47.5
152,68,133813,6,0,P|216:64|260:40,1,95,2|0,0:0|0:0,0:0:0:0:
384,68,134241,2,0,P|436:84|468:124,1,95
368,220,134670,1,0,0:0:0:0:
312,352,134884,1,0,0:0:0:0:
220,244,135098,1,0,0:0:0:0:
152,68,135313,6,0,L|104:164,1,95,2|0,0:0|0:0,0:0:0:0:
124,248,135741,1,0,0:0:0:0:
152,68,135955,1,0,0:0:0:0:
260,168,136170,2,0,P|324:176|416:84,1,190,2|0,0:0|0:0,0:0:0:0:
500,64,136813,1,0,0:0:0:0:
500,88,136920,1,0,0:0:0:0:
500,112,137027,1,0,0:0:0:0:
500,136,137134,1,0,0:0:0:0:
500,160,137241,6,0,P|476:240|380:272,1,190,2|0,0:0|0:0,0:0:0:0:
224,104,137884,1,0,0:0:0:0:
348,176,138098,1,2,0:0:0:0:
220,240,138313,1,0,0:0:0:0:
188,100,138527,1,0,0:0:0:0:
332,100,138741,6,0,L|332:308,1,190,2|0,0:0|0:0,0:0:0:0:
192,320,139384,2,0,P|136:324|64:220,1,190,2|0,0:0|0:0,0:0:0:0:
188,100,140027,2,0,P|244:96|316:200,1,190,2|0,0:0|0:0,0:0:0:0:
348,284,140670,5,2,0:0:0:0:
436,316,140884,1,0,0:0:0:0:
416,224,141098,1,0,0:0:0:0:
324,200,141313,2,0,L|224:216,1,95,2|0,0:0|0:0,0:0:0:0:
228,120,141741,2,0,L|136:140,1,95,2|0,0:0|0:0,0:0:0:0:
80,224,142170,1,0,0:0:0:0:
204,292,142384,6,0,P|288:320|368:244,1,190,2|0,0:0|0:0,0:0:0:0:
292,36,143027,2,0,L|276:228,1,190,2|0,0:0|0:0,0:0:0:0:
80,224,143670,1,0,0:0:0:0:
80,224,143777,1,0,0:0:0:0:
80,224,143884,1,0,0:0:0:0:
144,96,144098,6,0,P|232:100|360:116,1,190,2|0,0:0|0:0,0:0:0:0:
440,168,144741,1,0,0:0:0:0:
421,39,144955,1,2,0:0:0:0:
333,111,145170,1,0,0:0:0:0:
313,223,145384,1,0,0:0:0:0:
380,332,145598,6,0,P|444:352|508:240,1,190,2|0,0:0|0:0,0:0:0:0:
508,244,146134,1,0,0:0:0:0:
496,224,146241,2,0,P|472:184|472:124,1,95,2|0,0:0|0:0,0:0:0:0:
412,64,146670,1,0,0:0:0:0:
288,132,146884,2,0,P|224:168|88:128,1,190,2|0,0:0|0:0,0:0:0:0:
164,304,147527,5,2,0:0:0:0:
349,222,147741,1,0,0:0:0:0:
464,328,147955,1,0,0:0:0:0:
248,344,148170,2,0,L|236:228,1,95,2|0,0:0|0:0,0:0:0:0:
340,128,148598,2,0,L|349:222,1,95,2|0,0:0|0:0,0:0:0:0:
464,328,149027,1,0,0:0:0:0:
452,136,149241,6,0,P|416:80|296:56,1,190,2|0,0:0|0:0,0:0:0:0:
268,192,149884,2,0,P|204:200|108:112,1,190,2|0,0:0|0:0,0:0:0:0:
108,104,150420,1,0,0:0:0:0:
108,80,150527,2,0,L|108:4,1,47.5,0|0,0:0|0:0,0:0:0:0:
208,16,150741,2,0,L|208:63,1,47.5,0|0,0:0|0:0,0:0:0:0:
300,24,150955,6,0,P|364:28|404:20,1,76,2|0,0:0|0:0,0:0:0:0:
332,136,151384,2,0,P|328:180|336:220,1,76,2|0,0:0|0:0,0:0:0:0:
440,136,151813,2,0,P|448:96|440:48,1,76,2|0,0:0|0:0,0:0:0:0:
404,228,152241,2,0,P|412:272|400:312,1,76,2|0,0:0|0:0,0:0:0:0:
292,288,152670,5,2,0:0:0:0:
184,328,152884,1,0,0:0:0:0:
96,256,153098,1,0,0:0:0:0:
8,328,153313,2,0,P|-16:248|16:176,1,152,2|0,0:0|0:0,0:0:0:0:
104,48,153955,2,0,L|96:136,1,76
200,168,154384,5,2,0:0:0:0:
276,84,154598,1,0,0:0:0:0:
172,132,154813,1,2,0:0:0:0:
284,124,155027,1,0,0:0:0:0:
180,84,155241,1,2,0:0:0:0:
264,160,155455,1,0,0:0:0:0:
224,52,155670,2,0,P|260:16|304:16,1,76,2|0,0:0|0:0,0:0:0:0:
380,88,156098,6,0,P|404:140|504:132,1,152,2|0,0:0|0:0,0:0:0:0:
380,88,156741,2,0,P|372:188|316:236,1,152,2|0,0:0|0:0,0:0:0:0:
184,192,157384,1,0,0:0:0:0:
184,192,157598,1,0,0:0:0:0:
108,108,157813,6,0,L|56:36,1,76,2|0,0:0|0:0,0:0:0:0:
84,204,158241,2,0,L|16:272,1,76,2|0,0:0|0:0,0:0:0:0:
144,348,158670,2,0,L|232:324,1,76,2|0,0:0|0:0,0:0:0:0:
368,348,159098,2,0,L|280:324,1,76,2|0,0:0|0:0,0:0:0:0:
244,220,159527,6,0,P|236:160|332:108,1,152,2|0,0:0|0:0,0:0:0:0:
407,92,160170,2,0,P|410:165|352:208,1,152,2|0,0:0|0:0,0:0:0:0:
140,36,160813,2,0,L|244:48,1,76
128,168,161241,5,2,0:0:0:0:
264,240,161455,1,0,0:0:0:0:
280,88,161670,1,2,0:0:0:0:
186,224,161884,1,0,0:0:0:0:
324,156,162098,1,2,0:0:0:0:
204,64,162313,1,0,0:0:0:0:
264,240,162527,1,2,0:0:0:0:
264,240,162741,1,0,0:0:0:0:
416,256,162955,6,0,P|452:216|456:100,1,152,2|0,0:0|0:0,0:0:0:0:
312,104,163598,2,0,P|276:144|272:260,1,152,2|0,0:0|0:0,0:0:0:0:
416,256,164241,1,0,0:0:0:0:
416,256,164455,1,0,0:0:0:0:
380,48,164670,6,0,P|316:32|160:56,1,209.000006378174,0|8,0:0|0:0,0:0:0:0:
212,256,165313,2,0,P|276:272|432:248,1,209.000006378174
464,108,165955,2,0,P|488:164|480:212,1,104.500003189087,8|0,0:0|0:0,0:0:0:0:
472,232,166277,1,0,0:0:0:0:
468,256,166384,2,0,P|464:316|484:360,1,104.500003189087
336,348,166813,6,0,L|224:348,1,104.500003189087,8|0,0:0|0:0,0:0:0:0:
212,348,167134,1,0,0:0:0:0:
192,348,167241,1,0,0:0:0:0:
88,224,167455,1,0,0:0:0:0:
88,224,167563,1,0,0:0:0:0:
88,224,167670,2,0,P|96:168|116:124,1,104.500003189087,8|0,0:0|0:0,0:0:0:0:
140,104,167991,1,0,0:0:0:0:
168,92,168098,6,0,P|224:84|288:128,1,104.500003189087
336,180,168527,1,8,0:0:0:0:
452,88,168741,1,0,0:0:0:0:
464,104,168848,1,0,0:0:0:0:
472,124,168955,1,0,0:0:0:0:
476,144,169063,1,0,0:0:0:0:
476,164,169170,1,0,0:0:0:0:
384,304,169384,2,0,P|328:308|256:312,1,104.500003189087,8|0,0:0|0:0,0:0:0:0:
252,312,169705,1,0,0:0:0:0:
224,312,169813,6,0,P|160:300|120:264,1,104.500003189087
160,108,170241,2,0,P|224:120|264:156,1,104.500003189087,8|0,0:0|0:0,0:0:0:0:
264,160,170563,1,0,0:0:0:0:
272,180,170670,1,0,0:0:0:0:
456,256,170884,1,0,0:0:0:0:
468,220,170991,1,0,0:0:0:0:
472,184,171098,2,0,P|464:128|428:96,1,104.500003189087,8|0,0:0|0:0,0:0:0:0:
396,88,171420,1,0,0:0:0:0:
360,84,171527,6,0,P|292:92|140:84,1,209.000006378174,0|8,0:0|0:0,0:0:0:0:
76,268,172170,2,0,P|144:260|296:268,1,209.000006378174
424,336,172813,1,8,0:0:0:0:
484,192,173027,1,0,0:0:0:0:
484,192,173134,1,0,0:0:0:0:
484,192,173241,5,0,0:0:0:0:
316,136,173455,2,0,P|260:108|236:64,1,104.500003189087,0|8,0:0|0:0,0:0:0:0:
104,52,173884,1,0,0:0:0:0:
116,68,173991,1,0,0:0:0:0:
124,88,174098,2,0,P|124:144|84:176,1,104.500003189087
64,180,174420,2,0,L|20:248,1,52.2500015945435,0|8,0:0|0:0,0:0:0:0:
136,300,174741,1,0,0:0:0:0:
168,284,174848,1,0,0:0:0:0:
204,276,174955,6,0,P|264:272|312:288,1,104.500003189087
428,260,175384,1,8,0:0:0:0:
312,136,175598,1,0,0:0:0:0:
303,110,175705,1,0,0:0:0:0:
305,85,175813,1,0,0:0:0:0:
316,62,175920,1,0,0:0:0:0:
335,42,176027,1,0,0:0:0:0:
476,88,176241,2,0,L|424:184,1,104.500003189087,8|0,0:0|0:0,0:0:0:0:
392,208,176563,1,0,0:0:0:0:
356,224,176670,6,0,P|280:240|232:232,1,104.500003189087
108,136,177098,2,0,P|192:116|224:124,1,104.500003189087,8|0,0:0|0:0,0:0:0:0:
228,148,177420,2,0,L|300:152,1,52.2500015945435
392,56,177741,1,0,0:0:0:0:
368,52,177848,1,0,0:0:0:0:
344,48,177955,1,8,0:0:0:0:
168,48,178170,1,0,0:0:0:0:
144,60,178277,1,0,0:0:0:0:
124,72,178384,6,0,L|32:124,1,104.500003189087
60,292,178813,2,0,L|152:236,1,104.500003189087,8|0,0:0|0:0,0:0:0:0:
172,236,179134,1,0,0:0:0:0:
192,236,179241,1,0,0:0:0:0:
212,236,179348,1,0,0:0:0:0:
232,236,179455,1,0,0:0:0:0:
440,260,179670,2,0,P|500:224|504:160,1,104.500003189087,8|0,0:0|0:0,0:0:0:0:
504,160,179991,1,0,0:0:0:0:
484,128,180098,5,0,0:0:0:0:
328,68,180313,1,0,0:0:0:0:
356,232,180527,1,8,0:0:0:0:
124,180,180741,1,0,0:0:0:0:
124,180,180848,1,0,0:0:0:0:
124,180,180955,1,0,0:0:0:0:
296,72,181170,1,0,0:0:0:0:
296,72,181277,1,0,0:0:0:0:
296,72,181384,1,8,0:0:0:0:
440,260,181598,1,0,0:0:0:0:
440,260,181705,1,0,0:0:0:0:
440,260,181813,6,0,L|348:324,1,104.500003189087
124,180,182241,2,0,L|224:104,1,104.500003189087,8|0,0:0|0:0,0:0:0:0:
236,96,182563,1,0,0:0:0:0:
261,77,182670,1,0,0:0:0:0:
287,59,182777,1,0,0:0:0:0:
313,41,182884,1,0,0:0:0:0:
424,132,183098,2,0,P|464:176|472:244,1,104.500003189087,8|0,0:0|0:0,0:0:0:0:
468,244,183420,1,0,0:0:0:0:
456,268,183527,5,0,0:0:0:0:
328,196,183741,1,0,0:0:0:0:
244,316,183955,1,8,0:0:0:0:
132,220,184170,1,0,0:0:0:0:
116,192,184277,1,0,0:0:0:0:
116,160,184384,1,0,0:0:0:0:
248,40,184598,1,0,0:0:0:0:
264,68,184705,1,0,0:0:0:0:
264,100,184812,1,8,0:0:0:0:
244,316,185027,1,0,0:0:0:0:
244,316,185134,1,0,0:0:0:0:
244,316,185241,6,0,P|312:332|352:320,1,104.500003189087
412,244,185670,1,8,0:0:0:0:
264,100,185884,1,0,0:0:0:0:
236,88,185991,1,0,0:0:0:0:
204,84,186098,1,0,0:0:0:0:
172,88,186205,1,0,0:0:0:0:
144,104,186313,1,0,0:0:0:0:
124,260,186527,2,0,P|192:276|236:256,1,104.500003189087,8|0,0:0|0:0,0:0:0:0:
252,244,186848,1,0,0:0:0:0:
284,224,186955,6,0,P|340:200|396:240,1,104.500003189087
336,280,187384,2,0,L|336:164,1,104.500003189087,8|0,0:0|0:0,0:0:0:0:
336,144,187705,1,0,0:0:0:0:
336,112,187813,1,0,0:0:0:0:
224,32,188027,1,0,0:0:0:0:
200,52,188134,1,0,0:0:0:0:
176,72,188241,2,0,L|88:144,1,104.500003189087,8|0,0:0|0:0,0:0:0:0:
148,256,188670,5,0,0:0:0:0:
264,208,188884,1,0,0:0:0:0:
332,316,189098,1,8,0:0:0:0:
216,364,189313,1,0,0:0:0:0:
216,364,189420,1,0,0:0:0:0:
216,364,189527,1,0,0:0:0:0:
216,364,189634,1,0,0:0:0:0:
216,364,189741,1,0,0:0:0:0:
212,240,189955,1,8,0:0:0:0:
320,308,190170,1,0,0:0:0:0:
348,284,190277,1,0,0:0:0:0:
372,260,190384,5,0,0:0:0:0:
356,92,190598,2,0,L|312:192,1,104.500003189087,0|8,0:0|0:0,0:0:0:0:
192,304,191027,1,0,0:0:0:0:
164,288,191134,1,0,0:0:0:0:
140,268,191241,2,0,P|96:224|92:176,1,104.500003189087
104,156,191563,2,0,L|128:104,1,52.2500015945435,0|8,0:0|0:0,0:0:0:0:
320,188,191884,2,0,L|384:192,1,52.2500015945435
408,192,192098,1,0,0:0:0:0:
376,288,198527,6,0,P|436:264|452:228,1,95
404,116,198955,2,0,P|324:120|252:216,1,190,2|0,0:0|0:0,0:0:0:0:
216,284,199598,2,0,P|164:332|48:280,1,190,2|0,0:0|0:0,0:0:0:0:
48,204,200241,2,0,L|56:80,1,95
144,76,200670,6,0,L|252:16,2,95,2|0|2,0:0|0:0|0:0,0:0:0:0:
140,172,201313,1,0,0:0:0:0:
220,220,201527,2,0,P|292:228|392:144,1,190,2|0,0:0|0:0,0:0:0:0:
312,52,202170,6,0,L|248:136,1,95,2|0,0:0|0:0,0:0:0:0:
140,256,202598,2,0,P|128:308|252:344,1,190,2|0,0:0|0:0,0:0:0:0:
352,304,203241,1,2,0:0:0:0:
352,304,203455,1,0,0:0:0:0:
464,232,203670,2,0,P|476:172|464:124,1,95,2|0,0:0|0:0,0:0:0:0:
364,100,204098,6,0,P|320:136|252:136,1,95,2|0,0:0|0:0,0:0:0:0:
284,28,204527,2,0,P|216:36|172:20,1,95,2|0,0:0|0:0,0:0:0:0:
80,40,204955,2,0,P|40:76|48:216,1,190,2|0,0:0|0:0,0:0:0:0:
38,203,205598,1,2,0:0:0:0:
368,300,206241,5,0,0:0:0:0:
368,300,206455,1,2,0:0:0:0:
56,40,207098,1,0,0:0:0:0:
56,40,207313,1,2,0:0:0:0:
440,176,207955,1,0,0:0:0:0:
440,176,208170,1,2,0:0:0:0:
64,288,208813,6,0,L|64:184,1,95,0|2,0:0|0:0,0:0:0:0:
360,60,209670,2,0,L|360:168,1,95,0|2,0:0|0:0,0:0:0:0:
184,352,210527,2,2,P|252:328|296:344,1,95,2|0,0:0|0:0,0:0:0:0:
368,344,210955,6,0,P|428:336|472:224,1,190,2|0,0:0|0:0,0:0:0:0:
384,252,211598,1,2,0:0:0:0:
152,43,212027,2,0,P|140:134|211:190,1,190,2|0,0:0|0:0,0:0:0:0:
312,44,212670,6,0,L|292:140,1,95,2|0,0:0|0:0,0:0:0:0:
384,252,213098,2,0,L|412:140,1,95,2|0,0:0|0:0,0:0:0:0:
268,56,213527,2,0,L|244:148,1,95,2|0,0:0|0:0,0:0:0:0:
432,240,213955,2,0,L|464:140,1,95,2|0,0:0|0:0,0:0:0:0:
221,242,214384,6,0,P|300:288|384:252,1,190,2|0,0:0|0:0,0:0:0:0:
212,108,215027,2,0,P|140:88|44:152,1,190,2|0,0:0|0:0,0:0:0:0:
116,276,215670,2,0,L|140:180,1,95
272,200,216098,5,2,0:0:0:0:
404,220,216313,1,0,0:0:0:0:
376,92,216527,1,2,0:0:0:0:
508,120,216741,1,0,0:0:0:0:
404,220,216955,2,0,L|396:344,1,95,2|0,0:0|0:0,0:0:0:0:
272,200,217384,2,0,L|280:96,1,95,2|0,0:0|0:0,0:0:0:0:
148,84,217813,6,0,P|112:128|144:272,1,190,2|0,0:0|0:0,0:0:0:0:
272,200,218455,2,0,P|308:156|276:12,1,190,2|0,0:0|0:0,0:0:0:0:
200,24,219098,2,0,L|84:48,1,95
72,196,219527,6,0,L|120:288,1,95,2|0,0:0|0:0,0:0:0:0:
164,200,219955,2,0,L|212:288,1,95,2|0,0:0|0:0,0:0:0:0:
300,296,220384,2,0,L|256:200,1,95,2|0,0:0|0:0,0:0:0:0:
348,216,220813,2,0,L|304:128,1,95,2|0,0:0|0:0,0:0:0:0:
164,116,221241,6,0,P|70:99|45:4,1,190,2|0,0:0|0:0,0:0:0:0:
176,16,221884,2,0,P|236:39|241:174,1,190,2|0,0:0|0:0,0:0:0:0:
252,268,222527,1,0,0:0:0:0:
356,316,222741,1,0,0:0:0:0:
492,288,222955,5,2,0:0:0:0:
496,144,223170,1,0,0:0:0:0:
352,136,223384,1,2,0:0:0:0:
344,280,223598,1,0,0:0:0:0:
422,165,223813,1,2,0:0:0:0:
320,63,224027,1,0,0:0:0:0:
275,198,224241,1,2,0:0:0:0:
275,198,224455,1,0,0:0:0:0:
180,288,224670,6,0,P|96:284|56:196,1,190,2|0,0:0|0:0,0:0:0:0:
148,204,225313,2,0,L|268:52,1,190,2|0,0:0|0:0,0:0:0:0:
372,72,225955,2,0,L|408:32,3,47.5
448,32,226384,6,0,P|488:80|452:212,1,209.000006378174,0|8,0:0|0:0,0:0:0:0:
300,212,227027,2,0,P|246:122|300:32,1,209.000006378174
448,132,227670,2,0,L|320:120,1,104.500003189087,8|0,0:0|0:0,0:0:0:0:
343,122,227991,1,0,0:0:0:0:
343,122,228098,5,0,0:0:0:0:
300,212,228313,1,0,0:0:0:0:
168,128,228527,1,8,0:0:0:0:
64,248,228741,1,0,0:0:0:0:
64,248,228848,1,0,0:0:0:0:
64,248,228955,2,0,P|114:236|162:255,1,104.500003189087
184,268,229277,1,0,0:0:0:0:
204,284,229384,2,0,P|260:312|328:296,1,104.500003189087,8|0,0:0|0:0,0:0:0:0:
404,192,229813,5,0,0:0:0:0:
404,192,230027,1,0,0:0:0:0:
316,64,230241,2,0,P|248:56|184:92,1,104.500003189087,8|0,0:0|0:0,0:0:0:0:
188,92,230563,1,0,0:0:0:0:
176,128,230670,1,0,0:0:0:0:
188,160,230777,1,0,0:0:0:0:
220,176,230884,2,0,P|272:208|272:252,1,104.500003189087,0|8,0:0|0:0,0:0:0:0:
192,348,231313,1,0,0:0:0:0:
160,328,231420,1,0,0:0:0:0:
128,308,231527,6,0,L|36:248,1,104.500003189087
44,116,231955,2,0,L|128:40,1,104.500003189087,8|0,0:0|0:0,0:0:0:0:
121,45,232277,1,0,0:0:0:0:
121,45,232384,1,0,0:0:0:0:
256,152,232598,1,0,0:0:0:0:
288,140,232705,1,0,0:0:0:0:
320,124,232813,1,8,0:0:0:0:
472,56,233027,1,0,0:0:0:0:
484,92,233134,1,0,0:0:0:0:
496,128,233241,6,0,P|488:188|356:256,1,209.000006378174,0|8,0:0|0:0,0:0:0:0:
320,76,233884,2,0,P|225:110|193:206,1,209.000006378174
357,352,234527,2,0,L|349:232,1,104.500003189087,8|0,0:0|0:0,0:0:0:0:
336,215,234848,1,0,0:0:0:0:
320,182,234955,6,0,L|320:74,1,104.500003189087
164,68,235384,2,0,P|116:100|104:164,1,104.500003189087,8|0,0:0|0:0,0:0:0:0:
104,180,235705,1,0,0:0:0:0:
128,208,235813,1,0,0:0:0:0:
320,182,236027,1,0,0:0:0:0:
356,178,236134,1,0,0:0:0:0:
392,186,236241,1,8,0:0:0:0:
468,284,236455,1,0,0:0:0:0:
324,348,236670,6,0,P|272:352|204:344,1,104.500003189087
128,208,237098,2,0,P|192:204|244:208,1,104.500003189087,8|0,0:0|0:0,0:0:0:0:
268,212,237420,1,0,0:0:0:0:
304,216,237527,1,0,0:0:0:0:
340,212,237634,1,0,0:0:0:0:
372,200,237741,1,0,0:0:0:0:
452,88,237955,2,0,P|452:36|396:8,1,104.500003189087,8|0,0:0|0:0,0:0:0:0:
384,8,238277,1,0,0:0:0:0:
356,8,238384,5,0,0:0:0:0:
240,108,238598,1,0,0:0:0:0:
96,196,238813,2,0,L|96:80,1,104.500003189087,8|0,0:0|0:0,0:0:0:0:
96,91,239134,1,0,0:0:0:0:
96,91,239241,1,0,0:0:0:0:
240,108,239455,1,0,0:0:0:0:
268,120,239563,1,0,0:0:0:0:
292,140,239670,1,8,0:0:0:0:
300,168,239777,1,0,0:0:0:0:
292,200,239884,1,0,0:0:0:0:
272,224,239991,1,0,0:0:0:0:
252,248,240098,6,0,P|240:284|284:352,1,104.500003189087
400,260,240527,2,0,P|412:224|368:156,1,104.500003189087,8|0,0:0|0:0,0:0:0:0:
360,152,240848,1,0,0:0:0:0:
336,132,240955,1,0,0:0:0:0:
332,100,241063,1,0,0:0:0:0:
344,72,241170,1,0,0:0:0:0:
168,52,241384,2,0,L|136:172,1,104.500003189087,8|0,0:0|0:0,0:0:0:0:
141,152,241705,1,0,0:0:0:0:
141,152,241813,5,0,0:0:0:0:
176,296,242027,1,0,0:0:0:0:
308,228,242241,1,8,0:0:0:0:
344,72,242455,1,0,0:0:0:0:
384,80,242563,1,0,0:0:0:0:
416,104,242670,1,0,0:0:0:0:
440,228,242884,1,0,0:0:0:0:
416,256,242991,1,0,0:0:0:0:
384,272,243098,1,8,0:0:0:0:
248,268,243313,2,0,L|180:224,1,52.2500015945435
164,216,243527,6,0,P|104:212|48:216,1,104.500003189087
56,80,243955,2,0,P|108:84|168:80,1,104.500003189087,8|0,0:0|0:0,0:0:0:0:
192,72,244277,1,0,0:0:0:0:
224,72,244384,1,0,0:0:0:0:
256,76,244491,1,0,0:0:0:0:
284,84,244598,1,0,0:0:0:0:
316,228,244813,2,0,P|380:224|412:188,1,104.500003189087,8|0,0:0|0:0,0:0:0:0:
424,168,245134,1,0,0:0:0:0:
432,132,245241,6,0,P|440:80|404:24,1,104.500003189087
284,84,245670,1,8,0:0:0:0:
164,116,245884,1,0,0:0:0:0:
164,116,245991,1,0,0:0:0:0:
164,116,246098,2,0,P|112:144|64:152,1,104.500003189087
32,172,246420,2,0,L|20:240,1,52.2500015945435,0|8,0:0|0:0,0:0:0:0:
128,312,246741,2,0,L|168:268,1,52.2500015945435
204,252,246955,6,0,L|312:256,1,104.500003189087
404,208,247384,1,8,0:0:0:0:
324,84,247598,1,0,0:0:0:0:
292,92,247705,1,0,0:0:0:0:
260,92,247813,1,0,0:0:0:0:
228,84,247920,1,0,0:0:0:0:
200,68,248027,1,0,0:0:0:0:
84,60,248241,1,8,0:0:0:0:
48,168,248455,1,0,0:0:0:0:
72,184,248563,1,0,0:0:0:0:
92,200,248670,5,0,0:0:0:0:
176,308,248884,2,0,L|284:272,1,104.500003189087,0|8,0:0|0:0,0:0:0:0:
384,196,249313,2,0,L|436:232,2,52.2500015945435
332,72,249741,1,0,0:0:0:0:
332,72,249848,1,0,0:0:0:0:
332,72,249955,1,8,0:0:0:0:
244,176,250170,1,0,0:0:0:0:
244,176,250277,1,0,0:0:0:0:
244,176,250384,6,0,L|128:192,1,104.500003189087
28,68,250813,2,0,L|148:48,1,104.500003189087,8|0,0:0|0:0,0:0:0:0:
156,48,251134,1,0,0:0:0:0:
182,46,251241,1,0,0:0:0:0:
332,72,251455,2,0,L|424:152,1,104.500003189087,0|8,0:0|0:0,0:0:0:0:
328,248,251884,1,0,0:0:0:0:
332,284,251991,1,0,0:0:0:0:
332,320,252098,6,0,L|220:360,1,104.500003189087
112,320,252527,1,8,0:0:0:0:
52,212,252741,2,0,L|64:144,1,52.2500015945435
68,124,252955,1,0,0:0:0:0:
160,40,253170,1,0,0:0:0:0:
188,52,253277,1,0,0:0:0:0:
220,60,253384,1,8,0:0:0:0:
252,56,253491,1,0,0:0:0:0:
280,44,253598,1,0,0:0:0:0:
312,40,253705,1,0,0:0:0:0:
344,48,253813,6,0,P|396:76|408:216,1,209.000006378174,0|8,0:0|0:0,0:0:0:0:
304,260,254455,2,0,P|237:224|242:91,1,209.000006378174
316,160,255098,2,0,L|192:208,1,104.500003189087,8|0,0:0|0:0,0:0:0:0:
188,208,255420,1,0,0:0:0:0:
160,220,255527,5,0,0:0:0:0:
48,260,255741,1,0,0:0:0:0:
144,340,255955,2,0,L|260:336,1,104.500003189087,8|0,0:0|0:0,0:0:0:0:
280,335,256277,1,0,0:0:0:0:
321,333,256384,1,0,0:0:0:0:
428,228,256598,1,0,0:0:0:0:
404,196,256705,1,0,0:0:0:0:
380,164,256813,1,8,0:0:0:0:
284,68,257027,1,0,0:0:0:0:
248,80,257134,1,0,0:0:0:0:
212,76,257241,6,0,P|128:68|28:148,1,209.000006378174,0|8,0:0|0:0,0:0:0:0:
144,304,257884,2,0,P|228:312|328:232,1,209.000006378174,0|0,0:0|0:0,0:0:0:0:
212,76,258527,1,8,0:0:0:0:
80,224,258741,1,0,0:0:0:0:
80,224,258848,1,0,0:0:0:0:
80,224,258955,5,0,0:0:0:0:
144,304,259170,1,0,0:0:0:0:
212,76,259384,2,0,L|352:88,1,104.500003189087,8|0,0:0|0:0,0:0:0:0:
348,88,259705,1,0,0:0:0:0:
380,92,259813,1,0,0:0:0:0:
396,248,260027,1,0,0:0:0:0:
364,240,260134,1,0,0:0:0:0:
332,232,260241,1,8,0:0:0:0:
212,76,260455,1,0,0:0:0:0:
188,104,260563,1,0,0:0:0:0:
164,132,260670,6,0,P|131:188|185:311,1,209.000006378174,0|8,0:0|0:0,0:0:0:0:
364,240,261313,2,0,P|396:183|342:60,1,209.000006378174
188,104,261955,2,0,L|72:132,1,104.500003189087,8|0,0:0|0:0,0:0:0:0:
60,152,262277,1,0,0:0:0:0:
36,180,262384,6,0,L|8:296,1,104.500003189087
136,332,262813,2,0,L|160:208,1,104.500003189087,8|0,0:0|0:0,0:0:0:0:
164,200,263134,1,0,0:0:0:0:
172,168,263241,1,0,0:0:0:0:
304,204,263455,1,0,0:0:0:0:
336,200,263563,1,0,0:0:0:0:
360,180,263670,1,8,0:0:0:0:
276,36,263884,1,0,0:0:0:0:
444,52,264098,6,0,P|484:88|472:240,1,209.000006378174,0|8,0:0|0:0,0:0:0:0:
336,316,264741,1,0,0:0:0:0:
300,340,264848,1,0,0:0:0:0:
260,340,264955,1,0,0:0:0:0:
220,332,265063,1,0,0:0:0:0:
188,308,265170,1,0,0:0:0:0:
268,152,265384,1,8,0:0:0:0:
440,196,265598,6,0,L|480:240,2,52.2500015945435
340,48,266027,1,0,0:0:0:0:
292,220,266241,1,8,0:0:0:0:
176,84,266455,1,0,0:0:0:0:
176,84,266563,1,0,0:0:0:0:
176,84,266670,1,0,0:0:0:0:
220,200,266884,1,0,0:0:0:0:
224,232,266991,1,0,0:0:0:0:
212,260,267098,1,8,0:0:0:0:
188,280,267205,1,0,0:0:0:0:
160,288,267313,1,0,0:0:0:0:
128,284,267420,1,0,0:0:0:0:
100,272,267527,6,0,L|16:200,1,104.500003189087
176,84,267955,2,0,L|280:72,1,104.500003189087,8|0,0:0|0:0,0:0:0:0:
312,68,268277,1,0,0:0:0:0:
344,68,268384,1,0,0:0:0:0:
376,68,268491,1,0,0:0:0:0:
408,68,268598,1,0,0:0:0:0:
344,176,268813,2,0,P|328:240|340:296,1,104.500003189087,8|0,0:0|0:0,0:0:0:0:
352,308,269134,1,0,0:0:0:0:
380,332,269241,6,0,L|488:316,1,104.500003189087
476,160,269670,2,0,L|364:156,1,104.500003189087,8|0,0:0|0:0,0:0:0:0:
340,155,269991,1,0,0:0:0:0:
309,152,270098,1,0,0:0:0:0:
184,224,270313,2,0,L|124:200,2,52.2500015945435,0|0|8,0:0|0:0|0:0,0:0:0:0:
300,312,270741,1,0,0:0:0:0:
156,344,270955,6,0,P|96:348|40:340,1,104.500003189087
36,196,271384,2,0,P|96:192|152:200,1,104.500003189087,8|0,0:0|0:0,0:0:0:0:
160,202,271705,1,0,0:0:0:0:
180,208,271813,1,0,0:0:0:0:
200,209,271920,1,0,0:0:0:0:
220,204,272027,1,0,0:0:0:0:
352,104,272241,2,0,P|416:96|452:112,1,104.500003189087,8|0,0:0|0:0,0:0:0:0:
468,132,272563,1,0,0:0:0:0:
480,156,272670,6,0,P|492:236|480:268,1,104.500003189087
260,264,273098,2,0,P|248:184|260:152,1,104.500003189087,8|0,0:0|0:0,0:0:0:0:
264,144,273420,1,0,0:0:0:0:
276,128,273527,1,0,0:0:0:0:
420,20,273741,1,0,0:0:0:0:
420,20,273848,1,0,0:0:0:0:
420,20,273955,1,8,0:0:0:0:
448,184,274170,1,0,0:0:0:0:
448,184,274277,1,0,0:0:0:0:
448,184,274384,6,0,P|452:244|476:296,1,104.500003189087
292,336,274813,2,0,P|288:276|264:224,1,104.500003189087,8|0,0:0|0:0,0:0:0:0:
252,220,275134,1,0,0:0:0:0:
232,204,275241,1,0,0:0:0:0:
212,184,275348,1,0,0:0:0:0:
204,160,275455,1,0,0:0:0:0:
308,60,275670,1,8,0:0:0:0:
424,132,275884,1,0,0:0:0:0:
424,132,275991,1,0,0:0:0:0:
424,132,276098,6,0,L|448:244,1,104.500003189087
160,268,276527,2,0,L|144:160,1,104.500003189087,8|0,0:0|0:0,0:0:0:0:
140,132,276848,1,0,0:0:0:0:
136,100,276955,1,0,0:0:0:0:
288,36,277170,1,0,0:0:0:0:
308,60,277277,1,0,0:0:0:0:
328,84,277384,2,0,L|400:180,1,104.500003189087,8|0,0:0|0:0,0:0:0:0:
356,276,277813,6,0,L|228:304,1,104.500003189087
152,244,278241,1,8,0:0:0:0:
216,148,278455,1,0,0:0:0:0:
216,148,278563,1,0,0:0:0:0:
216,148,278670,1,0,0:0:0:0:
216,148,278777,1,0,0:0:0:0:
216,148,278884,1,0,0:0:0:0:
300,228,279098,1,8,0:0:0:0:
172,304,279313,1,0,0:0:0:0:
172,304,279420,1,0,0:0:0:0:
172,304,279527,5,0,0:0:0:0:
88,184,279741,1,0,0:0:0:0:
224,104,279955,1,8,0:0:0:0:
300,228,280170,1,0,0:0:0:0:
300,228,280277,1,0,0:0:0:0:
300,228,280384,1,0,0:0:0:0:
408,344,280598,1,0,0:0:0:0:
408,344,280705,1,0,0:0:0:0:
408,344,280813,1,8,0:0:0:0:
452,196,281027,1,0,0:0:0:0:
452,196,281134,1,0,0:0:0:0:
452,196,281241,6,0,L|456:84,1,104.500003189087
300,64,281670,2,0,P|264:104|192:112,1,104.500003189087,8|0,0:0|0:0,0:0:0:0:
180,92,281991,1,0,0:0:0:0:
144,72,282098,1,0,0:0:0:0:
104,76,282205,1,0,0:0:0:0:
68,96,282313,1,0,0:0:0:0:
80,240,282527,2,0,P|140:264|184:228,1,104.500003189087,8|0,0:0|0:0,0:0:0:0:
192,232,282848,1,0,0:0:0:0:
216,224,282955,5,0,0:0:0:0:
324,340,283170,1,0,0:0:0:0:
380,128,283384,2,0,L|392:232,1,104.500003189087,8|0,0:0|0:0,0:0:0:0:
412,264,283705,1,0,0:0:0:0:
436,292,283813,2,0,P|488:296|508:240,1,104.500003189087
504,232,284134,1,0,0:0:0:0:
496,208,284241,2,0,P|480:152|496:104,1,104.500003189087,8|0,0:0|0:0,0:0:0:0:
356,32,284670,6,0,L|224:80,1,104.500003189087
120,216,285098,2,0,L|236:160,1,104.500003189087,8|0,0:0|0:0,0:0:0:0:
240,164,285420,1,0,0:0:0:0:
264,160,285527,1,0,0:0:0:0:
288,156,285634,1,0,0:0:0:0:
312,152,285741,1,0,0:0:0:0:
448,204,285955,2,0,L|336:256,1,104.500003189087,8|0,0:0|0:0,0:0:0:0:
324,264,286277,1,0,0:0:0:0:
296,276,286384,5,0,0:0:0:0:
160,280,286598,1,0,0:0:0:0:
200,108,286813,1,8,0:0:0:0:
296,276,287027,2,0,L|328:340,2,52.2500015945435
348,108,287455,1,0,0:0:0:0:
348,108,287563,1,0,0:0:0:0:
348,108,287670,1,8,0:0:0:0:
436,236,287884,1,0,0:0:0:0:
396,268,287991,1,0,0:0:0:0:
356,300,288098,1,0,0:0:0:0:
256,192,288205,12,0,291527,0:0:0:0:
