osu file format v14

[General]
AudioFilename: audio.mp3
AudioLeadIn: 0
PreviewTime: 65743
Countdown: 0
SampleSet: Soft
StackLeniency: 0.7
Mode: 0
LetterboxInBreaks: 0
WidescreenStoryboard: 0

[Editor]
DistanceSpacing: 0.56
BeatDivisor: 4
GridSize: 4
TimelineZoom: 2.5

[Metadata]
Title:Futten Toppa *LOVE IS POWER*
TitleUnicode:沸点突破☆LOVE IS POWER☆
Artist:Chikyuboueibu
ArtistUnicode:地球防衛部
Creator:Regraz
Version:LOVE!
Source:美男高校地球防衛部LOVE!LOVE!
Tags:op opening Binan Koukou Chikyuu Boueibu LOVE! LOVE! 箱根有基 Hakone Yumoto 山本和臣 Yamamoto Kazutomi 由布院煙 Yufuin En 梅原裕一郎 Umehara Yuichiro 鬼怒川熱史 Kinugawa Atsushi 西山宏太朗 Nishiyama Koutarou 鳴子硫黄 Naruko Io 白井悠介 Shirai Yusuke 蔵王立 Zaou Ryuu 増田俊樹 Masuda Toshiki hotaru eba HabiHolic Yasora
BeatmapID:1023464
BeatmapSetID:479272

[Difficulty]
HPDrainRate:6.5
CircleSize:4
OverallDifficulty:8
ApproachRate:9
SliderMultiplier:1.8
SliderTickRate:1

[Events]
//Background and Video events
0,0,"BG (2).jpg",0,0
//Break Periods
//Storyboard Layer 0 (Background)
//Storyboard Layer 1 (Fail)
//Storyboard Layer 2 (Pass)
//Storyboard Layer 3 (Foreground)
//Storyboard Sound Samples

[TimingPoints]
1203,324.324324324324,4,2,7,75,1,0
32338,-133.333333333333,4,2,7,55,0,0
40121,-100,4,2,7,55,0,0
53094,-133.333333333333,4,2,7,55,0,0
58284,-100,4,2,7,55,0,0
66067,-100,4,2,7,75,0,1
75797,-100,4,2,7,75,0,0
76446,-100,4,2,7,75,0,1
85365,-100,4,2,7,75,0,0
88446,-100,4,2,7,15,0,0

[Colours]
Combo1 : 218,181,148
Combo2 : 245,235,150
Combo3 : 225,150,170
Combo4 : 193,211,173
Combo5 : 120,149,189

[HitObjects]
112,80,1203,6,0,P|80:140|128:240,1,180,4|0,0:0|0:0,0:0:0:0:
198,57,1689,2,0,L|-12:35,1,180,4|0,0:0|0:0,0:0:0:0:
175,153,2175,1,4,0:0:0:0:
256,192,2257,12,0,3473,0:0:0:0:
384,197,3797,5,2,0:0:0:0:
220,248,3959,1,2,0:0:0:0:
441,246,4121,6,0,P|458:193|442:148,1,90,12|0,0:0|0:0,0:0:0:0:
374,280,4446,1,2,0:0:0:0:
307,131,4608,1,2,0:0:0:0:
307,131,4689,1,8,3:0:0:0:
307,131,4770,1,8,0:0:0:0:
433,324,4932,6,0,B|383:302|383:302|250:335,1,180,4|2,0:0|0:0,0:0:0:0:
106,311,5419,1,8,0:0:0:0:
325,281,5581,2,0,P|338:202|259:140,1,180,2|2,0:0|0:0,0:0:0:0:
163,246,6067,2,0,L|267:226,1,90,8|0,0:0|0:0,0:0:0:0:
131,161,6392,5,2,0:0:0:0:
90,335,6554,1,2,0:0:0:0:
251,229,6716,1,8,0:0:0:0:
102,85,6878,2,0,P|49:172|101:237,1,180,6|2,0:0|0:0,0:0:0:0:
205,63,7365,1,8,0:0:0:0:
85,229,7527,6,0,L|264:252,1,180,4|2,0:0|0:0,0:0:0:0:
233,155,8013,1,8,0:0:0:0:
123,318,8175,2,0,L|328:342,1,180,4|2,0:0|0:0,0:0:0:0:
465,180,8662,2,0,P|394:171|362:144,1,90,8|0,0:0|0:0,0:0:0:0:
483,98,8986,5,6,0:0:0:0:
491,280,9148,1,2,0:0:0:0:
491,280,9230,1,2,0:0:0:0:
491,280,9311,1,8,0:0:0:0:
326,220,9473,2,0,P|272:197|183:284,1,180,4|2,0:0|0:0,0:0:0:0:
374,333,9959,1,8,0:0:0:0:
360,128,10121,6,0,B|361:195|361:195|373:228|373:228|374:316,1,180,4|2,0:0|0:0,0:0:0:0:
463,228,10608,1,8,0:0:0:0:
277,253,10770,1,0,0:0:0:0:
307,70,10932,2,0,P|354:76|400:48,1,90,2|2,0:0|0:0,0:0:0:0:
119,41,11257,1,12,0:0:0:0:
92,56,11581,6,0,P|80:117|108:158,1,90,4|0,0:0|0:0,0:0:0:0:
292,240,11905,2,0,P|304:179|276:138,1,90,8|0,0:0|0:0,0:0:0:0:
128,248,12230,1,2,0:0:0:0:
224,116,12392,1,2,0:0:0:0:
256,312,12554,1,8,0:0:0:0:
136,64,12716,6,0,L|332:72,1,180,2|2,0:0|0:0,0:0:0:0:
448,256,13202,2,0,P|376:216|364:180,1,90,8|0,0:0|0:0,0:0:0:0:
392,28,13527,2,0,P|393:110|368:138,1,90,2|2,0:0|0:0,0:0:0:0:
220,192,13851,2,0,P|290:149|327:157,1,90,8|0,0:0|0:0,0:0:0:0:
503,207,14175,6,0,L|403:199,1,90,4|0,0:0|0:0,0:0:0:0:
235,295,14500,2,0,L|339:283,1,90,8|0,0:0|0:0,0:0:0:0:
411,101,14824,1,2,0:0:0:0:
399,340,14986,1,2,0:0:0:0:
340,140,15148,1,8,0:0:0:0:
477,367,15311,6,0,B|344:357|344:357|264:366,1,180,2|0,0:0|0:0,0:0:0:0:
104,321,15797,2,0,P|171:305|196:265,1,90,8|0,0:0|0:0,0:0:0:0:
218,138,16121,1,2,0:0:0:0:
61,211,16284,1,2,0:0:0:0:
61,211,16365,1,2,0:0:0:0:
61,211,16446,1,8,0:0:0:0:
257,241,16608,6,0,L|266:62,1,180,4|0,0:0|0:0,0:0:0:0:
183,204,17094,2,0,P|185:284|203:305,1,90,8|0,0:0|0:0,0:0:0:0:
411,197,17419,1,2,0:0:0:0:
271,71,17581,1,2,0:0:0:0:
276,294,17743,1,8,0:0:0:0:
430,122,17905,6,0,P|330:180|359:251,1,180,4|0,0:0|0:0,0:0:0:0:
479,62,18392,2,0,P|417:40|371:49,1,90,8|0,0:0|0:0,0:0:0:0:
220,208,18716,1,8,3:0:0:0:
333,42,18878,1,2,0:0:0:0:
399,240,19040,1,8,0:0:0:0:
233,78,19202,6,0,P|165:128|77:93,1,180,4|0,0:0|0:0,0:0:0:0:
309,49,19689,2,0,L|307:165,1,90,8|0,0:0|0:0,0:0:0:0:
197,342,20013,2,0,L|198:252,1,90,2|2,0:0|0:0,0:0:0:0:
118,151,20338,2,0,L|231:143,1,90,8|2,0:0|0:0,0:0:0:0:
208,145,20581,1,2,0:0:0:0:
208,145,20662,1,8,0:0:0:0:
434,306,21311,5,8,0:0:0:0:
377,136,21473,1,2,0:0:0:0:
352,340,21635,1,8,0:0:0:0:
458,125,21797,6,0,P|365:58|303:106,1,180,4|0,0:0|0:0,0:0:0:0:
185,280,22284,2,0,L|205:175,1,90,8|0,0:0|0:0,0:0:0:0:
92,311,22608,2,0,L|112:206,1,90,2|2,0:0|0:0,0:0:0:0:
3,337,22932,1,8,0:0:0:0:
204,57,23257,6,0,L|184:162,1,90,2|0,0:0|0:0,0:0:0:0:
297,26,23581,2,0,L|277:131,1,90,8|0,0:0|0:0,0:0:0:0:
386,0,23905,1,2,0:0:0:0:
386,0,24067,1,2,0:0:0:0:
476,133,24230,1,8,0:0:0:0:
505,314,24392,6,0,L|325:278,1,180,4|0,0:0|0:0,0:0:0:0:
147,247,24878,2,0,P|185:179|226:167,1,90,8|0,0:0|0:0,0:0:0:0:
255,342,25202,2,0,P|233:268|249:225,1,90,2|2,0:0|0:0,0:0:0:0:
329,279,25527,1,8,0:0:0:0:
485,88,25851,6,0,P|447:20|406:8,1,90,2|0,0:0|0:0,0:0:0:0:
377,183,26175,2,0,P|399:109|383:66,1,90,8|0,0:0|0:0,0:0:0:0:
303,120,26500,1,8,0:0:0:0:
303,120,26581,1,0,0:0:0:0:
303,120,26662,1,2,0:0:0:0:
186,227,26824,2,0,L|240:226,1,45,8|0,0:0|0:0,0:0:0:0:
314,221,26986,6,0,P|246:209|210:91,1,180,4|0,0:0|0:0,0:0:0:0:
388,233,27473,2,0,P|344:291|306:291,1,90,8|0,0:0|0:0,0:0:0:0:
292,136,27797,2,0,L|404:148,1,90,2|2,0:0|0:0,0:0:0:0:
224,216,28121,1,8,0:0:0:0:
257,48,28284,6,0,L|457:68,1,180,4|0,0:0|0:0,0:0:0:0:
477,200,28770,1,8,0:0:0:0:
431,322,28932,1,0,0:0:0:0:
410,155,29094,1,2,0:0:0:0:
353,310,29257,1,2,0:0:0:0:
340,109,29419,1,8,0:0:0:0:
272,303,29581,6,0,P|189:286|120:354,1,180,4|0,0:0|0:0,0:0:0:0:
334,256,30067,2,0,P|264:212|236:206,1,90,8|0,0:0|0:0,0:0:0:0:
129,174,30392,2,0,P|170:156|205:128,1,90,2|2,0:0|0:0,0:0:0:0:
246,33,30716,1,8,0:0:0:0:
63,61,30878,6,0,L|86:249,1,180,4|0,0:0|0:0,0:0:0:0:
38,368,31365,2,0,P|96:344|137:358,1,90,8|0,0:0|0:0,0:0:0:0:
360,294,31689,2,0,P|292:282|265:257,1,90,8|2,3:0|0:0,0:0:0:0:
276,270,31932,1,2,0:0:0:0:
276,270,32013,2,0,L|143:284,1,90,8|2,0:0|0:0,0:0:0:0:
400,164,32338,5,4,0:0:0:0:
465,132,32662,1,2,0:0:0:0:
455,61,32986,1,2,0:0:0:0:
384,48,33311,1,2,0:0:0:0:
350,112,33635,5,2,0:0:0:0:
279,126,33959,1,2,0:0:0:0:
279,198,34284,1,2,0:0:0:0:
350,184,34608,1,10,0:0:0:0:
454,326,34932,5,4,0:0:0:0:
389,293,35257,1,2,0:0:0:0:
317,290,35581,1,2,0:0:0:0:
246,304,35905,1,2,0:0:0:0:
178,328,36230,1,2,0:0:0:0:
130,273,36554,6,0,L|41:295,1,67.5000025749208,2|0,0:0|0:0,0:0:0:0:
176,185,36878,2,0,L|87:207,1,67.5000025749208,2|0,0:0|0:0,0:0:0:0:
214,97,37202,2,0,L|125:119,1,67.5000025749208,2|0,0:0|0:0,0:0:0:0:
400,220,37527,5,4,0:0:0:0:
465,252,37851,1,2,0:0:0:0:
455,323,38175,1,0,0:0:0:0:
384,336,38500,1,2,0:0:0:0:
350,272,38824,5,0,0:0:0:0:
399,214,39148,1,2,0:0:0:0:
465,252,39473,1,2,0:0:0:0:
475,63,39797,1,8,0:0:0:0:
475,63,40121,6,0,P|397:71|336:36,1,135,4|0,0:0|0:0,0:0:0:0:
324,13,40446,2,0,P|294:75|308:122,1,90,8|0,0:0|0:0,0:0:0:0:
485,180,40770,1,2,0:0:0:0:
368,162,40932,1,2,0:0:0:0:
271,236,41094,1,8,0:0:0:0:
368,162,41257,6,0,P|379:95|339:29,1,135,4|0,0:0|0:0,0:0:0:0:
317,28,41581,2,0,L|245:41,1,45,2|0,0:0|0:0,0:0:0:0:
232,131,41743,2,0,L|295:117,1,45,8|0,0:0|0:0,0:0:0:0:
432,183,41905,6,0,L|283:218,1,135,0|0,0:0|0:0,0:0:0:0:
276,220,42230,1,2,0:0:0:0:
374,332,42392,1,2,0:0:0:0:
374,332,42473,1,2,0:0:0:0:
374,332,42554,1,8,0:0:0:0:
210,302,42716,6,0,P|121:288|102:297,1,90,4|0,0:0|0:0,0:0:0:0:
19,358,43040,1,8,0:0:0:0:
48,224,43202,2,0,P|119:198|164:209,1,90,2|0,0:0|0:0,0:0:0:0:
286,169,43527,2,0,P|226:143|214:95,1,90,2|8,0:0|0:0,0:0:0:0:
387,46,43851,6,0,L|370:149,1,90,2|0,0:0|0:0,0:0:0:0:
289,287,44175,2,0,B|341:257|394:310|394:310|353:244,1,180,2|0,0:0|0:0,0:0:0:0:
265,81,44662,2,0,P|254:136|270:179,1,90,2|2,0:0|0:0,0:0:0:0:
357,129,44986,1,8,0:0:0:0:
357,129,45148,1,0,0:0:0:0:
500,45,45311,6,0,L|322:17,1,180,2|8,0:0|0:0,0:0:0:0:
219,81,45797,1,0,0:0:0:0:
357,129,45959,2,0,P|418:125|450:139,2,90,2|2|8,0:0|0:0|0:0,0:0:0:0:
326,252,46446,1,2,0:0:0:0:
210,209,46608,6,0,P|150:198|137:103,1,135,0|0,0:0|0:0,0:0:0:0:
154,97,46932,2,0,L|256:114,1,90,8|0,0:0|0:0,0:0:0:0:
404,111,47257,2,0,L|315:96,1,90,8|2,0:0|0:0,0:0:0:0:
178,22,47581,2,0,L|280:39,1,90,8|2,0:0|0:0,0:0:0:0:
446,37,47905,5,4,0:0:0:0:
411,209,48067,2,0,P|372:162|371:115,1,90,0|8,0:0|0:0,0:0:0:0:
497,221,48392,2,0,L|490:330,1,90,2|0,0:0|0:0,0:0:0:0:
338,351,48716,2,0,L|343:261,1,90,2|8,0:0|0:0,0:0:0:0:
253,134,49040,6,0,P|203:185|200:231,1,90,0|2,0:0|0:0,0:0:0:0:
337,88,49365,2,0,P|265:48|230:56,1,90,2|8,0:0|0:0,0:0:0:0:
291,218,49689,1,0,0:0:0:0:
384,154,49851,2,0,L|486:169,1,90,2|2,0:0|0:0,0:0:0:0:
330,29,50175,1,8,0:0:0:0:
237,228,50338,1,0,0:0:0:0:
73,186,50500,6,0,P|139:196|191:156,1,135,4|0,0:0|0:0,0:0:0:0:
237,138,50824,2,0,P|297:154|328:206,1,90,8|0,0:0|0:0,0:0:0:0:
277,308,51148,1,2,0:0:0:0:
368,94,51311,1,2,0:0:0:0:
398,224,51473,1,8,0:0:0:0:
227,223,51635,6,0,P|133:201|126:136,1,135,4|0,0:0|0:0,0:0:0:0:
108,153,51959,2,0,L|94:220,1,45,2|0,0:0|0:0,0:0:0:0:
0,283,52121,2,0,L|9:238,1,45,8|0,0:0|0:0,0:0:0:0:
52,83,52284,2,0,P|171:81|196:48,1,135,8|0,0:0|0:0,0:0:0:0:
196,28,52608,2,0,L|428:56,1,225,4|0,0:0|0:0,0:0:0:0:
436,72,53094,6,0,P|433:117|403:155,1,67.5000025749208,4|0,0:0|0:0,0:0:0:0:
334,169,53419,2,0,L|260:157,1,67.5000025749208,2|0,0:0|0:0,0:0:0:0:
191,110,53743,2,0,L|96:117,2,67.5000025749208,8|0|0,0:0|0:0|0:0,0:0:0:0:
72,54,54230,6,0,P|44:118|68:171,1,101.250003862381,2|0,0:0|0:0,0:0:0:0:
79,178,54554,2,0,P|85:261|23:303,1,135.000005149842,8|8,0:0|0:0,0:0:0:0:
16,376,55040,2,0,L|107:361,1,67.5000025749208,2|0,0:0|0:0,0:0:0:0:
165,310,55365,1,2,0:0:0:0:
258,344,55527,1,0,0:0:0:0:
390,221,55689,6,0,P|333:211|299:226,1,67.5000025749208,2|0,0:0|0:0,0:0:0:0:
249,244,56013,2,0,L|174:228,1,67.5000025749208,2|0,0:0|0:0,0:0:0:0:
103,260,56338,2,0,P|64:293|32:294,2,67.5000025749208,8|0|2,0:0|0:0|0:0,0:0:0:0:
111,142,56824,6,0,P|83:88|114:30,1,101.250003862381,0|0,0:0|0:0,0:0:0:0:
120,32,57148,2,0,L|280:53,1,135.000005149842,8|2,0:0|0:0,0:0:0:0:
372,28,57635,1,8,0:0:0:0:
250,140,57797,1,2,0:0:0:0:
391,122,57959,1,8,0:0:0:0:
391,122,58040,1,2,0:0:0:0:
391,122,58121,1,2,0:0:0:0:
391,122,58202,1,2,0:0:0:0:
391,122,58284,6,0,P|399:188|385:229,1,90,4|0,0:0|0:0,0:0:0:0:
241,327,58608,2,0,P|233:261|247:220,1,90,8|0,0:0|0:0,0:0:0:0:
152,122,58932,2,0,L|22:103,1,90,2|2,0:0|0:0,0:0:0:0:
250,35,59257,1,8,0:0:0:0:
427,169,59419,6,0,P|342:166|315:71,1,180,4|2,0:0|0:0,0:0:0:0:
512,146,59905,2,0,L|508:262,1,90,8|2,0:0|0:0,0:0:0:0:
507,279,60148,1,8,0:0:0:0:
507,279,60230,2,0,P|455:270|412:287,1,90,2|2,0:0|0:0,0:0:0:0:
464,355,60554,1,8,0:0:0:0:
370,147,60716,6,0,P|329:207|214:188,1,180,4|2,0:0|0:0,0:0:0:0:
373,57,61202,1,8,0:0:0:0:
447,180,61365,1,2,0:0:0:0:
474,95,61527,1,8,0:0:0:0:
314,142,61689,1,2,0:0:0:0:
433,257,61851,1,8,0:0:0:0:
359,68,62013,1,2,0:0:0:0:
359,68,62094,1,8,0:0:0:0:
359,68,62175,5,4,0:0:0:0:
181,93,62338,1,0,0:0:0:0:
277,188,62500,1,8,0:0:0:0:
290,8,62662,1,0,0:0:0:0:
344,140,62824,1,8,0:0:0:0:
181,93,62986,1,8,0:0:0:0:
232,281,63148,1,8,0:0:0:0:
416,182,63311,6,0,B|357:177|357:177|304:196|304:196|219:192,1,180,4|2,0:0|0:0,0:0:0:0:
163,277,63797,1,8,0:0:0:0:
371,328,63959,2,0,P|389:248|289:195,1,180,4|2,0:0|0:0,0:0:0:0:
217,313,64446,1,8,0:0:0:0:
118,84,64608,6,0,B|115:228|115:228|88:256,1,180,4|0,0:0|0:0,0:0:0:0:
35,160,65094,1,8,0:0:0:0:
247,142,65257,2,0,B|293:122|341:144|341:144|385:160|438:138,1,180,4|2,0:0|0:0,0:0:0:0:
457,159,65662,1,0,0:0:0:0:
457,159,65743,2,0,P|470:222|438:279,1,90,8|0,0:0|0:0,0:0:0:0:
232,228,66067,6,0,P|160:176|160:96,1,135,4|0,0:0|0:0,0:0:0:0:
177,101,66392,2,0,L|57:122,1,90,8|0,0:0|0:0,0:0:0:0:
286,117,66716,2,0,L|409:95,1,90,2|2,0:0|0:0,0:0:0:0:
445,196,67040,1,8,0:0:0:0:
249,200,67202,6,0,P|200:126|270:38,1,180,2|2,0:0|0:0,0:0:0:0:
306,249,67689,2,0,L|212:243,1,90,8|0,0:0|0:0,0:0:0:0:
108,157,68013,1,2,0:0:0:0:
108,157,68175,1,2,0:0:0:0:
63,298,68338,2,0,P|28:240|30:195,1,90,8|0,0:0|0:0,0:0:0:0:
112,74,68662,6,0,P|178:115|174:192,1,135,4|0,0:0|0:0,0:0:0:0:
173,214,68986,2,0,L|287:232,1,90,8|0,0:0|0:0,0:0:0:0:
475,204,69311,1,2,0:0:0:0:
327,128,69473,1,2,0:0:0:0:
374,292,69635,1,8,0:0:0:0:
256,85,69797,6,0,P|328:42|406:125,1,180,2|2,0:0|0:0,0:0:0:0:
364,206,70284,2,0,P|328:146|332:98,1,90,8|0,0:0|0:0,0:0:0:0:
495,152,70608,1,2,0:0:0:0:
491,174,70689,1,0,0:0:0:0:
488,196,70770,1,2,0:0:0:0:
364,206,70932,1,8,0:0:0:0:
500,331,71094,6,0,L|494:127,1,180,4|2,0:0|0:0,0:0:0:0:
340,294,71581,2,0,P|422:267|443:232,1,90,8|0,0:0|0:0,0:0:0:0:
262,232,71905,2,0,L|249:345,1,90,2|2,0:0|0:0,0:0:0:0:
349,189,72230,1,8,0:0:0:0:
253,91,72392,6,0,B|207:72|207:72|145:124|68:113,1,180,4|0,0:0|0:0,0:0:0:0:
304,36,72878,2,0,P|368:32|416:48,1,90,8|0,0:0|0:0,0:0:0:0:
436,192,73202,1,2,0:0:0:0:
280,264,73365,1,2,0:0:0:0:
348,112,73527,1,8,0:0:0:0:
324,336,73689,6,0,P|239:337|210:223,1,180,4|2,0:0|0:0,0:0:0:0:
423,142,74175,2,0,L|411:255,1,90,8|2,0:0|0:0,0:0:0:0:
279,269,74500,1,12,0:0:0:0:
365,83,74662,1,2,0:0:0:0:
494,222,74824,1,8,0:0:0:0:
246,192,74986,6,0,B|175:176|175:176|121:184|121:184|52:171,1,180,4|2,0:0|0:0,0:0:0:0:
314,126,75473,2,0,L|420:113,1,90,12|0,0:0|0:0,0:0:0:0:
412,307,75797,5,12,0:0:0:0:
387,296,75878,1,2,0:0:0:0:
367,277,75959,1,2,0:0:0:0:
356,253,76040,1,2,0:0:0:0:
373,208,76121,5,12,0:0:0:0:
386,250,76202,1,2,0:0:0:0:
380,295,76283,1,2,0:0:0:0:
357,333,76364,1,2,0:0:0:0:
320,358,76446,6,0,P|251:323|163:338,1,135,4|0,0:0|0:0,0:0:0:0:
145,317,76770,2,0,P|201:273|256:267,1,90,8|0,0:0|0:0,0:0:0:0:
379,175,77094,2,0,P|317:169|286:144,1,90,2|2,0:0|0:0,0:0:0:0:
465,114,77419,1,8,0:0:0:0:
479,294,77581,6,0,P|389:243|381:164,1,180,2|2,0:0|0:0,0:0:0:0:
473,24,78067,2,0,L|463:134,1,90,8|0,0:0|0:0,0:0:0:0:
285,82,78392,2,0,P|226:67|185:82,1,90,2|2,0:0|0:0,0:0:0:0:
170,94,78635,1,0,0:0:0:0:
170,94,78716,2,0,L|179:188,1,90,8|0,0:0|0:0,0:0:0:0:
296,315,79040,6,0,L|283:166,1,135,4|0,0:0|0:0,0:0:0:0:
305,201,79365,2,0,P|357:214|413:184,1,90,8|0,0:0|0:0,0:0:0:0:
439,120,79689,1,2,0:0:0:0:
308,93,79851,2,0,L|209:105,1,90,2|8,0:0|0:0,0:0:0:0:
385,37,80175,6,0,B|442:49|492:9|492:9|528:40|522:77,1,180,2|2,0:0|0:0,0:0:0:0:
479,282,80662,2,0,P|439:210|458:132,1,135,8|0,0:0|0:0,0:0:0:0:
481,127,80986,5,2,0:0:0:0:
436,120,81067,1,2,0:0:0:0:
391,113,81148,1,2,0:0:0:0:
347,107,81229,1,2,0:0:0:0:
302,100,81310,1,8,0:0:0:0:
90,226,81473,6,0,L|283:199,1,180,4|2,0:0|0:0,0:0:0:0:
122,316,81959,2,0,P|51:326|15:308,1,90,8|0,0:0|0:0,0:0:0:0:
86,128,82284,1,8,0:0:0:0:
241,264,82446,1,2,0:0:0:0:
212,78,82608,1,8,0:0:0:0:
117,230,82770,6,0,P|89:295|189:372,1,180,4|2,0:0|0:0,0:0:0:0:
283,144,83257,2,0,L|194:155,1,90,8|2,0:0|0:0,0:0:0:0:
465,229,83581,1,8,0:0:0:0:
283,144,83743,1,2,0:0:0:0:
364,310,83905,1,8,0:0:0:0:
427,155,84067,6,0,P|452:92|394:132,1,180,4|2,0:0|0:0,0:0:0:0:
289,237,84554,6,0,L|305:323,2,60,8|8|2,0:0|0:0|0:0,0:0:0:0:
214,186,84878,2,0,L|230:100,2,60,12|8|2,0:0|0:0|0:0,0:0:0:0:
152,253,85202,1,2,0:0:0:0:
13,360,85365,6,0,B|88:355|111:328|111:328|148:349|207:325,1,180,6|0,0:0|0:0,0:0:0:0:
353,269,85851,1,8,0:0:0:0:
170,209,86013,1,0,0:0:0:0:
288,366,86175,1,6,0:0:0:0:
292,171,86338,1,2,0:0:0:0:
292,171,86419,1,0,0:0:0:0:
292,171,86500,1,8,0:0:0:0:
183,333,86662,5,4,0:0:0:0:
256,192,86743,12,0,88446,0:0:0:0:
