osu file format v14

[General]
AudioFilename: audio.mp3
AudioLeadIn: 0
PreviewTime: 65743
Countdown: 0
SampleSet: Soft
StackLeniency: 0.7
Mode: 0
LetterboxInBreaks: 0
WidescreenStoryboard: 0

[Editor]
DistanceSpacing: 1.2
BeatDivisor: 4
GridSize: 4
TimelineZoom: 1.5

[Metadata]
Title:Futten Toppa *LOVE IS POWER*
TitleUnicode:沸点突破☆LOVE IS POWER☆
Artist:Chikyuboueibu
ArtistUnicode:地球防衛部
Creator:Regraz
Version:Collab Hard
Source:美男高校地球防衛部LOVE!LOVE!
Tags:op opening Binan Koukou Chikyuu Boueibu LOVE! LOVE! 箱根有基 Hakone Yumoto 山本和臣 Yamamoto Kazutomi 由布院煙 Yufuin En 梅原裕一郎 Umehara Yuichiro 鬼怒川熱史 Kinugawa Atsushi 西山宏太朗 Nishiyama Koutarou 鳴子硫黄 Naruko Io 白井悠介 Shirai Yusuke 蔵王立 Zaou Ryuu 増田俊樹 Masuda Toshiki hotaru eba HabiHolic Yasora
BeatmapID:1090279
BeatmapSetID:479272

[Difficulty]
HPDrainRate:4.5
CircleSize:3.2
OverallDifficulty:6
ApproachRate:7.3
SliderMultiplier:1.5
SliderTickRate:1

[Events]
//Background and Video events
0,0,"BG (2).jpg",0,0
//Break Periods
2,32538,39221
//Storyboard Layer 0 (Background)
//Storyboard Layer 1 (Fail)
//Storyboard Layer 2 (Pass)
//Storyboard Layer 3 (Foreground)
//Storyboard Sound Samples

[TimingPoints]
1203,324.324324324324,4,2,7,75,1,0
32338,-100,4,2,7,55,0,0
66067,-100,4,2,7,75,0,1
75797,-100,4,2,7,75,0,0
76446,-100,4,2,7,75,0,1
85365,-100,4,2,7,75,0,0
88446,-100,4,2,7,15,0,0

[Colours]
Combo1 : 218,181,148
Combo2 : 245,235,150
Combo3 : 225,150,170
Combo4 : 193,211,173
Combo5 : 120,149,189

[HitObjects]
194,243,1203,6,0,P|266:259|338:211,1,150,4|0,0:0|0:0,0:0:0:0:
332,130,1689,2,0,P|260:90|188:110,1,150,4|0,0:0|0:0,0:0:0:0:
142,174,2175,1,4,0:0:0:0:
256,192,2338,12,2,3797,0:0:0:0:
148,106,4121,6,0,B|298:97,1,150,12|2,0:0|0:0,0:0:0:0:
365,157,4608,1,2,0:0:0:0:
365,157,4689,1,8,3:0:0:0:
365,157,4770,1,8,0:0:0:0:
326,238,4932,6,0,P|253:282|173:236,1,150,4|2,0:0|0:0,0:0:0:0:
121,211,5419,1,8,0:0:0:0:
61,278,5581,2,0,L|53:366,2,75,2|0|2,0:0|0:0|0:0,0:0:0:0:
121,211,6067,2,0,L|109:115,1,75,8|0,0:0|0:0,0:0:0:0:
37,84,6392,6,0,L|203:91,1,150,2|8,0:0|0:0,0:0:0:0:
260,39,6878,2,0,P|279:109|223:171,1,150,6|2,0:0|0:0,0:0:0:0:
184,241,7365,1,8,0:0:0:0:
184,241,7527,6,0,P|228:208|342:242,1,150,4|2,0:0|0:0,0:0:0:0:
368,293,8013,1,8,0:0:0:0:
368,293,8175,2,0,L|380:124,1,150,4|2,0:0|0:0,0:0:0:0:
421,64,8662,2,0,P|386:54|349:57,1,75,8|0,0:0|0:0,0:0:0:0:
288,123,8986,5,6,0:0:0:0:
262,36,9148,1,2,0:0:0:0:
262,36,9230,1,2,0:0:0:0:
262,36,9311,1,8,0:0:0:0:
202,103,9473,2,0,P|156:132|67:89,1,150,4|2,0:0|0:0,0:0:0:0:
15,30,9959,1,8,0:0:0:0:
15,30,10121,6,0,L|7:190,1,150,4|2,0:0|0:0,0:0:0:0:
51,258,10608,2,0,P|113:257|137:242,1,75,8|0,0:0|0:0,0:0:0:0:
189,191,10932,2,0,L|291:209,1,75,2|2,0:0|0:0,0:0:0:0:
351,221,11257,1,12,0:0:0:0:
240,79,11581,6,0,P|288:51|320:47,1,75,4|0,0:0|0:0,0:0:0:0:
317,136,11905,2,0,P|369:132|413:160,1,75,8|0,0:0|0:0,0:0:0:0:
350,221,12230,2,0,P|385:232|414:256,1,75,2|2,0:0|0:0,0:0:0:0:
346,315,12554,1,8,0:0:0:0:
256,327,12716,6,0,P|192:303|100:323,1,150,2|2,0:0|0:0,0:0:0:0:
33,356,13202,1,8,0:0:0:0:
75,180,13527,1,2,0:0:0:0:
247,231,13851,1,8,0:0:0:0:
291,56,14175,6,0,L|387:76,1,75,4|0,0:0|0:0,0:0:0:0:
333,156,14500,2,0,L|427:173,1,75,8|0,0:0|0:0,0:0:0:0:
446,250,14824,2,0,P|450:296|424:340,1,75,2|2,0:0|0:0,0:0:0:0:
350,311,15148,1,8,0:0:0:0:
260,321,15311,6,0,P|188:335|116:304,1,150,2|0,0:0|0:0,0:0:0:0:
75,227,15797,2,0,L|-29:237,1,75,8|0,0:0|0:0,0:0:0:0:
6,137,16121,2,0,L|80:147,2,75,2|2|8,0:0|0:0|0:0,0:0:0:0:
34,51,16608,6,0,P|106:19|174:55,1,150,4|0,0:0|0:0,0:0:0:0:
241,96,17094,2,0,L|256:170,1,75,8|0,0:0|0:0,0:0:0:0:
331,119,17419,2,0,L|344:192,2,75,2|2|8,0:0|0:0|0:0,0:0:0:0:
307,32,17905,6,0,P|354:86|427:84,1,150,4|0,0:0|0:0,0:0:0:0:
491,148,18392,2,0,L|492:234,1,75,8|0,0:0|0:0,0:0:0:0:
430,288,18716,2,0,P|357:286|309:340,1,150,8|8,3:0|0:0,0:0:0:0:
225,309,19202,6,0,L|75:297,1,150,4|0,0:0|0:0,0:0:0:0:
33,217,19689,2,0,L|125:205,1,75,8|0,0:0|0:0,0:0:0:0:
151,129,20013,2,0,L|72:117,1,75,2|2,0:0|0:0,0:0:0:0:
30,39,20338,2,0,L|114:23,1,75,8|2,0:0|0:0,0:0:0:0:
190,47,20662,5,8,0:0:0:0:
481,258,21311,2,0,L|489:166,2,75,8|2|8,0:0|0:0|0:0,0:0:0:0:
391,263,21797,6,0,P|347:223|244:227,1,150,4|0,0:0|0:0,0:0:0:0:
190,277,22284,2,0,P|142:285|110:277,1,75,8|0,0:0|0:0,0:0:0:0:
51,217,22608,2,0,L|49:117,1,75,2|0,0:0|0:0,0:0:0:0:
135,169,22932,2,0,L|131:94,1,75,8|0,0:0|0:0,0:0:0:0:
216,124,23257,6,0,L|212:44,1,75,2|0,0:0|0:0,0:0:0:0:
290,28,23581,2,0,P|322:12|374:20,1,75,8|0,0:0|0:0,0:0:0:0:
423,77,23905,2,0,P|467:105|507:109,2,75,2|2|8,0:0|0:0|0:0,0:0:0:0:
354,135,24392,6,0,L|341:293,1,150,4|0,0:0|0:0,0:0:0:0:
262,327,24878,2,0,P|211:307|181:308,1,75,8|0,0:0|0:0,0:0:0:0:
103,327,25202,2,0,L|108:236,1,75,2|0,0:0|0:0,0:0:0:0:
74,167,25527,2,0,P|130:174|175:164,1,75,8|0,0:0|0:0,0:0:0:0:
229,210,25851,6,0,L|325:195,1,75,2|0,0:0|0:0,0:0:0:0:
296,108,26175,2,0,L|221:119,1,75,8|0,0:0|0:0,0:0:0:0:
148,171,26500,1,8,0:0:0:0:
148,171,26581,1,0,0:0:0:0:
148,171,26662,1,2,0:0:0:0:
137,81,26824,1,8,0:0:0:0:
68,139,26986,6,0,P|76:222|131:256,1,150,4|0,0:0|0:0,0:0:0:0:
215,235,27473,2,0,L|289:219,1,75,8|0,0:0|0:0,0:0:0:0:
378,215,27797,2,0,L|464:236,2,75,2|2|8,0:0|0:0|0:0,0:0:0:0:
330,137,28284,6,0,B|165:92,1,150,4|0,0:0|0:0,0:0:0:0:
106,139,28770,2,0,P|102:197|113:228,1,75,8|0,0:0|0:0,0:0:0:0:
97,302,29094,1,2,0:0:0:0:
181,269,29257,1,2,0:0:0:0:
268,299,29419,1,8,0:0:0:0:
348,259,29581,6,0,B|388:190|345:109,1,150,4|0,0:0|0:0,0:0:0:0:
259,104,30067,2,0,B|235:125|186:109,1,75,8|0,0:0|0:0,0:0:0:0:
153,26,30392,2,0,B|119:15|79:29,1,75,2|2,0:0|0:0,0:0:0:0:
29,103,30716,1,8,0:0:0:0:
99,158,30878,6,0,L|75:321,1,150,4|0,0:0|0:0,0:0:0:0:
155,352,31365,2,0,P|207:356|234:345,1,75,8|0,0:0|0:0,0:0:0:0:
281,276,31689,2,0,L|366:286,1,75,8|2,3:0|0:0,0:0:0:0:
397,301,31932,1,2,0:0:0:0:
397,301,32013,2,0,P|385:253|394:223,1,75,8|2,0:0|0:0,0:0:0:0:
427,146,32338,5,4,0:0:0:0:
304,64,40121,6,0,L|464:40,1,150,4|8,0:0|0:0,0:0:0:0:
418,218,40770,2,0,P|370:199|346:154,2,75,2|2|8,0:0|0:0|0:0,0:0:0:0:
433,307,41257,6,0,L|270:277,1,150,4|2,0:0|0:0,0:0:0:0:
199,306,41743,1,8,0:0:0:0:
112,282,41905,2,0,L|25:292,1,75,0|0,0:0|0:0,0:0:0:0:
40,200,42230,2,0,L|114:191,1,75,2|2,0:0|0:0,0:0:0:0:
159,186,42473,1,2,0:0:0:0:
159,186,42554,1,8,0:0:0:0:
236,231,42716,6,0,P|246:201|234:144,1,75,4|0,0:0|0:0,0:0:0:0:
179,93,43040,2,0,L|91:85,1,75,8|2,0:0|0:0,0:0:0:0:
32,140,43365,2,0,P|22:170|34:227,1,75,0|2,0:0|0:0,0:0:0:0:
89,278,43689,2,0,L|177:286,1,75,8|2,0:0|0:0,0:0:0:0:
248,315,44013,6,0,P|361:350|410:322,2,150,2|8|2,0:0|0:0|0:0,0:0:0:0:
235,225,44824,1,2,0:0:0:0:
301,164,44986,2,0,L|310:71,1,75,8|0,0:0|0:0,0:0:0:0:
229,44,45311,6,0,B|181:31|181:31|116:73|74:65,2,150,2|8|2,0:0|0:0|0:0,0:0:0:0:
308,89,46121,1,2,0:0:0:0:
383,38,46284,1,8,0:0:0:0:
465,73,46446,6,0,P|476:161|457:235,1,150,2|0,0:0|0:0,0:0:0:0:
375,200,46932,1,8,0:0:0:0:
290,40,47257,1,8,0:0:0:0:
197,194,47581,1,8,0:0:0:0:
79,330,47905,6,0,B|39:310|39:310|57:193,1,150,4|8,0:0|0:0,0:0:0:0:
114,137,48392,1,2,0:0:0:0:
190,89,48554,2,0,P|201:153|188:191,1,75,0|2,0:0|0:0,0:0:0:0:
238,242,48878,2,0,L|326:224,1,75,8|0,0:0|0:0,0:0:0:0:
401,222,49202,6,0,P|327:196|313:107,1,150,2|8,0:0|0:0,0:0:0:0:
373,72,49689,1,0,0:0:0:0:
285,50,49851,2,0,L|177:55,1,75,2|2,0:0|0:0,0:0:0:0:
157,126,50175,2,0,L|82:122,1,75,8|0,0:0|0:0,0:0:0:0:
28,195,50500,6,0,P|69:254|141:256,1,150,4|8,0:0|0:0,0:0:0:0:
309,193,51148,2,0,B|269:177|269:177|237:181,2,75,2|2|8,0:0|0:0|0:0,0:0:0:0:
365,263,51635,6,0,L|362:86,1,150,4|2,0:0|0:0,0:0:0:0:
304,44,52121,1,8,0:0:0:0:
237,105,52284,2,0,L|237:180,1,75,8|0,0:0|0:0,0:0:0:0:
218,268,52608,2,0,B|182:288|146:268|146:268|110:248|54:272,1,150,4|0,0:0|0:0,0:0:0:0:
60,177,53094,6,0,B|24:137|24:137|40:25,1,150,4|2,0:0|0:0,0:0:0:0:
217,42,53743,2,0,L|369:59,1,150,8|0,0:0|0:0,0:0:0:0:
454,76,54230,2,0,P|407:139|323:139,1,150,2|8,0:0|0:0,0:0:0:0:
255,176,54716,5,0,0:0:0:0:
110,69,55040,1,2,0:0:0:0:
108,249,55365,1,2,0:0:0:0:
188,88,55689,6,0,L|16:100,1,150,2|2,0:0|0:0,0:0:0:0:
30,278,56338,2,0,L|202:290,1,150,8|2,0:0|0:0,0:0:0:0:
269,291,56824,1,0,0:0:0:0:
415,64,57311,5,0,0:0:0:0:
367,235,57635,1,8,0:0:0:0:
245,102,57959,1,8,0:0:0:0:
189,273,58284,6,0,B|137:249|137:249|97:281|41:269,1,150,4|8,0:0|0:0,0:0:0:0:
74,184,58770,1,0,0:0:0:0:
79,94,58932,2,0,L|-2:113,2,75,2|2|8,0:0|0:0|0:0,0:0:0:0:
157,139,59419,6,0,B|204:149|244:117|244:117|296:141,1,150,4|2,0:0|0:0,0:0:0:0:
384,126,59905,2,0,L|374:200,1,75,8|2,0:0|0:0,0:0:0:0:
290,232,60230,2,0,L|299:306,2,75,2|2|8,0:0|0:0|0:0,0:0:0:0:
201,247,60716,6,0,P|108:257|57:215,1,150,4|2,0:0|0:0,0:0:0:0:
45,138,61202,2,0,L|144:121,1,75,8|2,0:0|0:0,0:0:0:0:
206,148,61527,2,0,L|280:137,1,75,8|2,0:0|0:0,0:0:0:0:
364,167,61851,2,0,L|444:156,1,75,8|2,0:0|0:0,0:0:0:0:
450,245,62175,6,0,L|288:269,1,150,4|8,0:0|0:0,0:0:0:0:
213,246,62662,1,0,0:0:0:0:
138,296,62824,2,0,P|91:282|56:289,2,75,8|8|8,0:0|0:0|0:0,0:0:0:0:
213,246,63311,6,0,L|230:73,1,150,4|2,0:0|0:0,0:0:0:0:
154,44,63797,1,8,0:0:0:0:
154,44,63959,2,0,P|83:33|11:83,1,150,4|2,0:0|0:0,0:0:0:0:
42,159,64446,1,8,0:0:0:0:
42,159,64608,6,0,B|26:212|42:260|42:260|86:244,1,150,4|0,0:0|0:0,0:0:0:0:
131,167,65094,1,8,0:0:0:0:
131,167,65256,2,0,B|175:151|175:151|191:199|171:271,1,150,4|2,0:0|0:0,0:0:0:0:
211,335,65743,2,0,L|295:314,1,75,8|0,0:0|0:0,0:0:0:0:
359,268,66067,6,0,L|432:280,1,75,4|0,0:0|0:0,0:0:0:0:
444,190,66392,2,0,L|370:177,1,75,8|0,0:0|0:0,0:0:0:0:
314,106,66716,1,2,0:0:0:0:
242,160,66878,1,2,0:0:0:0:
168,107,67040,1,8,0:0:0:0:
93,156,67202,6,0,P|72:235|111:303,1,150,2|2,0:0|0:0,0:0:0:0:
181,253,67689,2,0,L|190:327,1,75,8|0,0:0|0:0,0:0:0:0:
282,345,68014,2,0,L|273:271,1,75,2|2,0:0|0:0,0:0:0:0:
364,298,68338,2,0,L|373:372,1,75,8|0,0:0|0:0,0:0:0:0:
453,331,68662,5,4,0:0:0:0:
468,151,68986,2,0,L|374:137,1,75,8|0,0:0|0:0,0:0:0:0:
315,94,69311,1,2,0:0:0:0:
253,159,69473,1,2,0:0:0:0:
190,94,69635,1,8,0:0:0:0:
131,162,69797,6,0,P|111:262|151:305,1,150,2|2,0:0|0:0,0:0:0:0:
223,274,70284,2,0,L|297:284,1,75,8|0,0:0|0:0,0:0:0:0:
371,335,70608,2,0,L|372:383,2,37.5,2|0|2,0:0|0:0|0:0,0:0:0:0:
445,285,70932,1,8,0:0:0:0:
371,233,71094,6,0,P|345:161|369:83,1,150,4|2,0:0|0:0,0:0:0:0:
337,5,71581,2,0,L|252:27,1,75,8|0,0:0|0:0,0:0:0:0:
174,24,71905,2,0,L|78:7,2,75,2|2|8,0:0|0:0|0:0,0:0:0:0:
185,113,72392,6,0,P|130:163|45:146,1,150,4|0,0:0|0:0,0:0:0:0:
8,229,72878,2,0,L|13:303,1,75,8|0,0:0|0:0,0:0:0:0:
101,317,73202,1,2,0:0:0:0:
183,279,73365,1,2,0:0:0:0:
261,323,73527,1,8,0:0:0:0:
349,308,73689,6,0,P|380:238|348:145,1,150,4|2,0:0|0:0,0:0:0:0:
350,79,74175,2,0,L|240:91,1,75,8|2,0:0|0:0,0:0:0:0:
182,62,74500,1,12,0:0:0:0:
93,44,74662,1,2,0:0:0:0:
4,27,74824,1,8,0:0:0:0:
24,114,74986,6,0,P|9:193|36:261,1,150,4|2,0:0|0:0,0:0:0:0:
118,229,75473,2,0,L|199:233,1,75,12|0,0:0|0:0,0:0:0:0:
252,165,75797,1,2,0:0:0:0:
252,165,75959,1,2,0:0:0:0:
277,78,76121,2,0,L|376:83,1,75,8|0,0:0|0:0,0:0:0:0:
412,142,76446,6,0,P|395:222|434:292,1,150,4|8,0:0|0:0,0:0:0:0:
246,317,77095,1,2,0:0:0:0:
237,227,77257,1,2,0:0:0:0:
164,279,77419,1,8,0:0:0:0:
164,279,77581,6,0,L|6:265,1,150,2|2,0:0|0:0,0:0:0:0:
32,177,78068,2,0,L|22:102,1,75,8|0,0:0|0:0,0:0:0:0:
103,64,78392,2,0,L|112:138,1,75,2|2,0:0|0:0,0:0:0:0:
201,151,78717,2,0,L|191:76,1,75,8|0,0:0|0:0,0:0:0:0:
261,21,79040,6,0,P|328:20|364:31,1,75,4|0,0:0|0:0,0:0:0:0:
413,67,79365,2,0,L|408:159,1,75,8|0,0:0|0:0,0:0:0:0:
399,231,79690,1,2,0:0:0:0:
314,260,79852,1,2,0:0:0:0:
230,225,80014,1,8,0:0:0:0:
154,175,80176,6,0,L|-11:200,1,150,2|2,0:0|0:0,0:0:0:0:
21,108,80662,2,0,L|100:97,1,75,8|0,0:0|0:0,0:0:0:0:
163,43,80986,2,0,L|156:0,2,37.5,2|0|2,0:0|0:0|0:0,0:0:0:0:
238,84,81311,1,8,0:0:0:0:
311,32,81473,6,0,L|485:61,1,150,4|2,0:0|0:0,0:0:0:0:
464,146,81960,2,0,L|381:133,1,75,8|0,0:0|0:0,0:0:0:0:
380,223,82284,2,0,L|476:240,2,75,8|2|8,0:0|0:0|0:0,0:0:0:0:
320,291,82771,6,0,P|227:295|175:249,1,150,4|2,0:0|0:0,0:0:0:0:
94,263,83257,2,0,L|101:364,1,75,8|2,0:0|0:0,0:0:0:0:
10,350,83581,2,0,L|4:275,2,75,8|2|8,0:0|0:0|0:0,0:0:0:0:
99,337,84067,5,4,0:0:0:0:
272,129,84554,2,0,L|368:119,1,75,8|0,0:0|0:0,0:0:0:0:
374,208,84878,2,0,L|213:225,1,150,12|2,0:0|0:0,0:0:0:0:
153,278,85365,6,0,P|191:205|157:126,1,150,6|0,0:0|0:0,0:0:0:0:
140,59,85851,2,0,L|214:49,1,75,8|0,0:0|0:0,0:0:0:0:
281,109,86175,2,0,P|271:170|286:204,2,75,8|0|0,0:0|0:0|0:0,0:0:0:0:
345,45,86662,5,4,0:0:0:0:
256,192,86743,12,0,88446,0:0:0:0:
