osu file format v14

[General]
AudioFilename: audio.mp3
AudioLeadIn: 0
PreviewTime: 142151
Countdown: 0
SampleSet: Soft
StackLeniency: 0.4
Mode: 0
LetterboxInBreaks: 0
EpilepsyWarning: 1
WidescreenStoryboard: 1

[Editor]
Bookmarks: 22011,42978,47495,59269,59591,59753,59914,60075,65075,65236,65720,65882,72656,74269,84753,90398,109591,123946,134269,134753,135236,154753,156043,158462,160720,165236,170398,182011,200398
DistanceSpacing: 0.9
BeatDivisor: 8
GridSize: 8
TimelineZoom: 1.9

[Metadata]
Title:Jinsei Matatabi
TitleUnicode:人生マタタビ
Artist:Chikuwa
ArtistUnicode:ちくわ
Creator:Present
Version:XLT's Silvervine
Source:
Tags:かいりきベア kairiki bear japanese pop jpop j-pop female vocals vtb Virtual YouTuber vtuber novelty AngelSnow Amateurre Kazato Asa Shizuku- DreaM117er m1223961117 Houshou Hari Calvaria Kuse kubsnia_zhoyl_ Fressive Setu Shikibe Mayu StrengeMistake X Light
BeatmapID:3508876
BeatmapSetID:1717088

[Difficulty]
HPDrainRate:6
CircleSize:4.5
OverallDifficulty:9
ApproachRate:9.5
SliderMultiplier:1.8
SliderTickRate:1

[Events]
//Background and Video events
0,0,"bg.jpg",0,0
//Break Periods
2,142231,146990
//Storyboard Layer 0 (Background)
//Storyboard Layer 1 (Fail)
//Storyboard Layer 2 (Pass)
//Storyboard Layer 3 (Foreground)
//Storyboard Layer 4 (Overlay)
//Storyboard Sound Samples

[TimingPoints]
95,322.58064516129,4,2,2,50,1,0
1707,-125,4,2,2,50,0,0
6385,-100,4,2,2,50,0,0
6546,-100,4,2,2,55,0,0
11707,-100,4,2,2,70,0,0
13482,-66.6666666666667,4,2,2,70,0,0
14449,-100,4,2,2,70,0,0
16062,-66.6666666666667,4,2,2,70,0,0
17191,-100,4,2,2,70,0,0
18643,-66.6666666666667,4,2,2,70,0,0
19611,-100,4,2,2,70,0,0
20417,-66.6666666666667,4,2,2,70,0,0
20740,-55.5555555555556,4,2,2,70,0,0
21062,-66.6666666666667,4,2,2,70,0,0
21224,-100,4,2,3,70,0,0
21385,-100,4,2,2,70,0,0
22030,-100,4,2,2,55,0,0
22353,-125,4,2,2,55,0,0
31707,-125,4,2,2,55,0,0
31949,-125,4,2,2,5,0,0
32030,-80,4,2,2,55,0,0
32272,-80,4,2,2,5,0,0
32353,-125,4,2,2,55,0,0
34530,-125,4,2,2,5,0,0
34611,-125,4,2,3,55,0,0
34691,-125,4,2,2,5,0,0
34772,-125,4,2,2,55,0,0
34853,-125,4,2,2,5,0,0
34933,-125,4,2,2,55,0,0
36465,-125,4,2,2,5,0,0
36546,-125,4,2,2,55,0,0
37111,-125,4,2,2,5,0,0
37191,-125,4,2,3,55,0,0
37272,-125,4,2,2,5,0,0
37353,-125,4,2,2,55,0,0
37433,-125,4,2,2,5,0,0
37514,-125,4,2,2,55,0,0
40014,-125,4,2,2,5,0,0
40094,-125,4,2,2,55,0,0
41062,-76.9230769230769,4,2,2,55,0,0
41385,-66.6666666666667,4,2,2,55,0,0
42191,-66.6666666666667,4,2,2,60,0,0
42675,-83.3333333333333,4,2,2,70,0,0
46546,-125,4,2,2,50,0,0
47836,-125,4,2,2,60,0,0
48159,-100,4,2,2,60,0,0
52675,-100,4,2,3,60,0,0
52998,-100,4,2,2,60,0,0
58159,-100,4,2,2,55,0,0
59288,-66.6666666666667,4,2,2,75,0,0
60094,-76.9230769230769,4,2,2,75,0,0
60578,-66.6666666666667,4,2,2,75,0,0
61385,-100,4,2,2,75,0,0
61869,-58.8235294117647,4,2,2,75,0,0
62353,-66.6666666666667,4,2,2,75,0,0
63159,-66.6666666666667,4,2,2,75,0,0
64611,-83.3333333333333,4,2,2,75,0,0
65256,-62.5,4,2,2,75,0,0
65901,-66.6666666666667,4,2,2,75,0,0
67030,-83.3333333333333,4,2,2,75,0,0
67191,-71.4285714285714,4,2,2,75,0,0
68320,-55.5555555555556,4,2,2,75,0,0
68804,-66.6666666666667,4,2,2,75,0,0
70901,-71.4285714285714,4,2,2,75,0,0
72998,-83.3333333333333,4,2,2,75,0,0
73482,-41.6666666666667,4,2,2,75,0,0
74611,-55.5555555555556,4,2,2,75,0,0
76224,-100,4,2,2,75,0,0
78804,-90.9090909090909,4,2,2,55,0,0
79127,-105.263157894737,4,2,2,55,0,0
79449,-133.333333333333,4,2,2,55,0,0
80094,-100,4,2,2,70,0,0
81869,-71.4285714285714,4,2,2,70,0,0
83159,-100,4,2,2,70,0,0
84449,-66.6666666666667,4,2,2,70,0,0
85740,-100,4,2,2,70,0,0
87030,-66.6666666666667,4,2,2,70,0,0
88320,-100,4,2,2,70,0,0
88643,-62.5,4,2,2,70,0,0
89127,-55.5555555555556,4,2,2,70,0,0
89449,-66.6666666666667,4,2,2,70,0,0
89611,-100,4,2,3,70,0,0
89772,-100,4,2,2,70,0,0
90417,-100,4,2,2,55,0,0
90578,-125,4,2,2,55,0,0
100336,-125,4,2,2,5,0,0
100417,-90.9090909090909,4,2,2,55,0,0
100659,-90.9090909090909,4,2,2,5,0,0
100740,-125,4,2,2,55,0,0
102917,-125,4,2,2,5,0,0
102998,-125,4,2,3,55,0,0
103078,-125,4,2,2,5,0,0
103159,-125,4,2,2,55,0,0
103240,-125,4,2,2,5,0,0
103320,-125,4,2,2,55,0,0
104853,-125,4,2,2,5,0,0
104933,-125,4,2,2,55,0,0
105498,-125,4,2,2,5,0,0
105578,-125,4,2,3,55,0,0
105659,-125,4,2,3,5,0,0
105740,-125,4,2,2,55,0,0
105820,-125,4,2,2,5,0,0
105901,-125,4,2,2,55,0,0
108401,-125,4,2,2,5,0,0
108482,-125,4,2,2,55,0,0
109449,-66.6666666666667,4,2,2,55,0,0
109772,-66.6666666666667,4,2,2,60,0,0
111385,-66.6666666666667,4,2,2,70,0,0
117756,-66.6666666666667,4,2,2,5,0,0
117836,-66.6666666666667,4,2,2,70,0,0
118078,-66.6666666666667,4,2,2,5,0,0
118159,-66.6666666666667,4,2,2,70,0,0
118401,-66.6666666666667,4,2,2,5,0,0
118482,-66.6666666666667,4,2,2,70,0,0
120094,-100,4,2,2,60,0,0
121385,-100,4,2,2,70,0,0
123643,-76.9230769230769,4,2,2,70,0,0
124127,-100,4,2,2,70,0,0
125982,-100,4,2,2,5,0,0
126062,-100,4,2,2,70,0,0
126143,-100,4,2,2,5,0,0
126224,-100,4,2,2,70,0,0
126627,-100,4,2,2,50,0,0
127272,-100,4,2,2,50,0,0
127836,-100,4,2,2,70,0,0
128724,-100,4,2,2,5,0,0
128804,-100,4,2,3,70,0,0
129127,-100,4,2,2,70,0,0
129449,-100,4,2,3,70,0,0
129772,-100,4,2,2,70,0,0
139449,-66.6666666666667,4,2,2,70,0,0
139530,-66.6666666666667,4,2,2,50,0,0
139611,-66.6666666666667,4,2,2,70,0,0
139691,-66.6666666666667,4,2,2,50,0,0
139772,-66.6666666666667,4,2,2,70,0,0
147514,-66.6666666666667,4,2,2,70,0,0
148482,-100,4,2,2,70,0,0
149449,-100,4,2,2,70,0,0
149772,-100,4,2,2,55,0,0
152998,-100,4,2,2,40,0,0
153643,-100,4,2,2,60,0,0
154772,-66.6666666666667,4,2,2,75,0,0
158159,-58.8235294117647,4,2,2,75,0,0
158643,-76.9230769230769,4,2,2,75,0,0
160740,-66.6666666666667,4,2,2,75,0,0
161385,-76.9230769230769,4,2,2,75,0,0
162030,-66.6666666666667,4,2,2,75,0,0
165094,-76.9230769230769,4,2,2,75,0,0
166385,-66.6666666666667,4,2,2,75,0,0
167191,-76.9230769230769,4,2,2,75,0,0
167675,-66.6666666666667,4,2,2,75,0,0
170417,-100,4,2,2,75,0,0
179449,-66.6666666666667,4,2,2,50,0,0
182030,-66.6666666666667,4,2,2,70,0,0
191546,-66.6666666666667,4,2,3,70,0,0
191707,-66.6666666666667,4,2,2,70,0,0
201869,-66.6666666666667,4,2,3,70,0,0
202030,-66.6666666666667,4,2,2,70,0,0

[Colours]
Combo1 : 244,244,138
Combo2 : 162,23,162
Combo3 : 129,243,186
Combo4 : 248,133,150

[HitObjects]
81,117,1386,5,0,1:0:0:0:
177,136,1547,1,0,0:0:0:0:
142,59,1708,2,0,P|194:47|234:36,1,72,4|0,3:1|0:0,0:0:0:0:
122,268,2031,2,0,P|115:217|108:187,2,72,0|4|0,1:0|0:1|3:0,0:0:0:0:
216,292,2515,6,0,P|187:340|78:357,1,144
299,348,2998,2,0,P|353:338|386:330,1,72,4|0,3:1|0:0,0:0:0:0:
303,208,3321,1,0,1:0:0:0:
215,184,3482,1,4,0:1:0:0:
396,231,3644,1,0,3:0:0:0:
471,179,3805,1,0,0:0:0:0:
380,150,3966,6,0,P|371:104|363:61,1,72,0|0,1:0|0:0,0:0:0:0:
471,179,4289,2,0,P|510:204|488:247,1,72,4|0,3:1|0:0,0:0:0:0:
303,207,4611,2,0,P|271:241|304:277,2,72,0|4|0,1:0|0:1|3:0,0:0:0:0:
359,372,5095,6,0,P|273:373|233:328,1,144
222,217,5579,2,0,P|272:208|304:204,1,72,4|0,3:1|0:0,0:0:0:0:
141,316,5902,5,0,1:0:0:0:
51,287,6063,1,2,3:0:0:0:
71,380,6224,1,0,3:0:0:0:
37,193,6386,5,2,0:0:0:0:
37,193,6466,1,2,0:0:0:0:
37,193,6547,2,0,B|53:207|151:227|155:119|111:109|76:128,1,180,6|0,1:2|1:0,0:0:0:0:
77,126,7031,1,2,0:0:0:0:
92,32,7192,5,0,1:0:0:0:
176,97,7353,1,2,0:0:0:0:
9,53,7515,1,0,1:0:0:0:
102,35,7676,6,0,B|213:22|149:88|273:66,1,180,2|2,0:0|0:0,0:0:0:0:
349,36,8160,2,0,L|442:26,1,90,0|2,1:0|0:0,0:0:0:0:
448,52,8402,1,0,0:0:0:0:
470,48,8482,1,0,1:0:0:0:
491,55,8563,1,0,0:0:0:0:
508,68,8644,1,2,0:0:0:0:
357,150,8805,5,2,1:2:0:0:
344,154,8885,1,2,0:0:0:0:
331,158,8966,1,0,3:0:0:0:
318,162,9047,1,0,3:0:0:0:
305,166,9127,1,0,1:0:0:0:
439,187,9289,1,8,0:3:0:0:
359,71,9450,1,0,1:0:0:0:
312,244,9611,1,2,0:0:0:0:
227,54,9773,5,0,1:0:0:0:
458,113,9934,1,8,0:3:0:0:
458,113,10015,1,8,0:3:0:0:
458,113,10095,1,8,0:0:0:0:
322,333,10256,6,0,P|314:261|309:231,1,90,8|0,0:0|0:0,0:0:0:0:
226,45,10579,2,0,P|218:117|213:147,1,90,8|0,0:0|0:0,0:0:0:0:
143,384,10902,2,0,P|135:312|130:282,1,90,8|0,0:0|0:0,0:0:0:0:
76,19,11224,1,0,3:0:0:0:
76,19,11305,1,0,3:0:0:0:
38,46,11385,5,10,0:0:0:0:
69,70,11465,1,2,0:0:0:0:
109,73,11546,1,2,0:0:0:0:
142,50,11626,1,2,0:0:0:0:
155,10,11708,1,6,1:2:0:0:
220,213,11869,5,2,0:1:0:0:
100,143,12031,1,8,0:0:0:0:
257,18,12192,6,0,P|269:69|280:119,1,90,2|0,0:1|1:0,0:0:0:0:
173,362,12515,2,0,P|160:310|146:243,1,90,2|8,0:1|0:0,0:0:0:0:
25,193,12837,6,0,P|64:170|99:142,1,90,2|0,0:1|1:0,0:0:0:0:
350,261,13160,2,0,P|301:240|266:214,1,90,2|8,0:1|0:0,0:0:0:0:
238,28,13482,6,0,P|200:146|184:241,1,202.500007724762,2|0,0:1|0:0,0:0:0:0:
100,310,13805,5,2,0:0:0:0:
89,322,13885,1,2,0:0:0:0:
133,339,13966,5,10,0:0:0:0:
136,296,14046,1,2,0:0:0:0:
111,256,14127,1,2,0:0:0:0:
68,237,14207,1,2,0:0:0:0:
22,250,14288,1,2,1:2:0:0:
163,120,14450,5,2,0:1:0:0:
15,25,14611,1,8,0:0:0:0:
78,79,14773,2,0,P|67:141|61:178,1,90,2|0,0:1|1:0,0:0:0:0:
282,268,15094,2,0,P|293:206|299:169,1,90,2|8,0:1|0:0,0:0:0:0:
149,31,15418,6,0,P|158:92|163:130,1,90,2|0,0:1|1:0,0:0:0:0:
414,188,15740,2,0,P|407:143|400:99,1,90,2|8,0:1|0:0,0:0:0:0:
34,224,16063,2,0,P|64:309|176:289,1,202.500007724762,2|0,0:1|0:0,0:0:0:0:
293,341,16385,5,2,0:0:0:0:
315,348,16465,1,2,0:0:0:0:
263,370,16546,5,10,0:0:0:0:
246,333,16626,1,2,0:0:0:0:
253,286,16707,1,2,0:0:0:0:
289,256,16787,1,2,0:0:0:0:
335,258,16868,1,6,1:2:0:0:
175,164,17031,5,2,0:1:0:0:
265,24,17192,1,8,0:0:0:0:
13,111,17353,2,0,P|78:101|120:94,1,90,2|0,0:1|1:0,0:0:0:0:
401,192,17676,2,0,P|336:202|294:209,1,90,2|8,0:1|0:0,0:0:0:0:
206,99,17998,6,0,P|185:42|164:0,1,90,2|0,0:1|1:0,0:0:0:0:
128,346,18321,2,0,P|163:309|211:289,1,90,2|8,0:1|0:0,0:0:0:0:
47,107,18643,6,0,P|57:184|177:169,1,202.500007724762,2|0,0:1|0:0,0:0:0:0:
284,160,18966,5,2,0:0:0:0:
275,141,19047,1,2,0:0:0:0:
270,181,19127,5,10,0:0:0:0:
315,171,19207,1,2,0:0:0:0:
367,188,19288,1,2,0:0:0:0:
392,227,19368,1,2,0:0:0:0:
401,273,19449,1,2,1:2:0:0:
438,154,19611,5,2,0:1:0:0:
314,300,19773,1,8,0:0:0:0:
488,363,19934,2,0,P|493:309|494:266,1,90,2|0,0:1|1:0,0:0:0:0:
337,131,20256,5,2,3:1:0:0:
297,191,20337,1,0,3:0:0:0:
354,239,20417,2,0,P|399:225|439:221,1,67.5000025749208,8|0,0:0|0:0,0:0:0:0:
185,139,20579,2,0,B|174:122|159:114|159:114|172:99|186:91,1,67.5000025749208,2|0,0:1|0:0,0:0:0:0:
292,11,20740,6,0,P|259:149|239:279,1,242.999992584229,4|0,1:2|0:0,0:0:0:0:
231,332,21063,6,0,B|198:335|198:335|174:310,1,67.5000025749208,0|0,3:0|3:0,0:0:0:0:
251,245,21224,1,10,0:1:0:0:
452,380,21385,5,0,1:0:0:0:
331,335,21547,1,2,0:0:0:0:
325,322,21627,1,2,0:0:0:0:
328,301,21708,5,8,0:0:0:0:
353,263,21789,1,2,0:0:0:0:
353,218,21869,1,2,0:0:0:0:
314,188,21950,1,2,0:0:0:0:
297,140,22031,1,0,1:0:0:0:
158,56,22192,5,2,0:0:0:0:
240,9,22353,2,0,L|233:80,1,72,10|2,0:0|0:0,0:0:0:0:
14,248,22676,2,0,P|58:241|94:235,1,72,2|2,1:2|0:0,0:0:0:0:
74,130,22998,2,0,P|38:135|3:141,1,72,10|2,0:0|0:0,0:0:0:0:
139,180,23321,5,2,1:2:0:0:
139,180,23482,2,0,P|170:197|205:198,1,72,2|8,0:0|0:0,0:0:0:0:
197,115,23805,2,0,P|229:83|234:16,1,108,2|0,0:0|0:0,0:0:0:0:
221,6,24127,1,2,0:0:0:0:
401,104,24289,1,10,0:0:0:0:
310,84,24450,1,2,0:0:0:0:
469,37,24611,5,0,1:0:0:0:
378,17,24772,1,2,0:0:0:0:
378,17,24934,2,0,L|388:93,1,72,10|2,0:0|0:0,0:0:0:0:
247,216,25256,2,0,L|237:144,1,72,2|2,1:2|0:0,0:0:0:0:
346,203,25579,2,0,P|385:219|433:216,1,72,10|2,0:0|0:0,0:0:0:0:
259,66,25902,6,0,P|187:70|157:129,1,144,2|10,1:2|0:0,0:0:0:0:
44,241,26385,2,0,P|82:288|168:280,1,144,2|2,0:0|0:0,0:0:0:0:
272,250,26869,1,10,0:0:0:0:
252,336,27031,1,2,0:0:0:0:
339,192,27192,5,4,1:2:0:0:
191,126,27353,1,2,0:0:0:0:
268,154,27515,2,0,P|264:103|258:78,1,72,10|0,0:0|0:0,0:0:0:0:
308,23,27837,1,2,1:2:0:0:
191,126,27998,5,8,0:1:0:0:
191,126,28079,1,0,0:0:0:0:
191,126,28160,2,0,P|190:161|200:196,1,72,10|0,0:0|0:0,0:0:0:0:
128,219,28482,5,0,1:2:0:0:
250,316,28644,1,2,0:0:0:0:
80,300,28805,2,0,P|139:290|173:281,1,72,10|0,0:0|0:0,0:0:0:0:
199,188,29127,1,2,1:2:0:0:
190,358,29289,5,8,0:1:0:0:
190,358,29369,1,0,0:0:0:0:
190,358,29450,2,0,P|150:364|104:377,1,72,10|0,0:0|0:0,0:0:0:0:
283,313,29773,5,0,1:2:0:0:
185,156,29934,1,2,0:0:0:0:
351,238,30094,5,10,0:0:0:0:
206,333,30256,1,2,0:0:0:0:
256,210,30418,6,0,P|262:174|295:162,1,72,2|2,1:2|0:0,0:0:0:0:
131,55,30740,2,0,P|97:27|64:29,1,72,10|2,0:0|0:0,0:0:0:0:
179,137,31063,5,2,1:2:0:0:
219,12,31224,1,2,0:0:0:0:
94,200,31385,5,10,0:0:0:0:
144,263,31547,1,2,0:0:0:0:
239,255,31708,6,0,P|272:252|317:283,1,72,4|0,3:1|0:0,0:0:0:0:
131,353,32031,2,0,P|92:381|29:366,1,112.5,10|0,3:2|0:0,0:0:0:0:
314,374,32353,5,4,1:2:0:0:
240,333,32515,1,2,0:0:0:0:
314,374,32676,2,0,L|399:360,1,72,10|2,0:0|0:0,0:0:0:0:
470,270,32998,5,2,1:2:0:0:
457,384,33160,1,2,0:0:0:0:
393,285,33321,1,10,0:0:0:0:
510,335,33482,1,2,0:0:0:0:
385,362,33644,5,2,1:2:0:0:
470,270,33805,2,0,P|478:229|473:198,1,72,4|8,0:3|0:0,0:0:0:0:
385,362,34127,2,0,P|382:301|364:240,1,108,4|0,0:3|0:0,0:0:0:0:
358,234,34450,1,4,0:1:0:0:
260,224,34611,1,12,0:1:0:0:
381,151,34773,1,4,0:1:0:0:
306,322,34934,5,4,1:3:0:0:
179,221,35095,1,2,0:0:0:0:
306,322,35256,2,0,P|261:324|218:337,1,72,10|2,0:0|0:0,0:0:0:0:
256,246,35579,2,0,P|257:196|263:160,1,72,2|2,1:2|0:0,0:0:0:0:
115,261,35902,1,10,0:0:0:0:
118,285,35982,1,0,0:0:0:0:
122,310,36063,1,2,3:2:0:0:
125,335,36143,1,0,3:0:0:0:
128,359,36224,6,0,P|66:359|19:288,1,144,2|10,1:2|0:0,0:0:0:0:
114,169,36708,2,0,P|167:155|207:59,1,144,4|4,0:3|0:1,0:0:0:0:
125,8,37191,2,0,B|111:44|111:44|146:69,1,72,12|4,0:1|0:1,0:0:0:0:
349,75,37514,5,4,1:2:0:0:
209,9,37675,1,2,0:0:0:0:
283,123,37837,2,0,P|295:178|298:209,1,72,10|0,0:0|0:0,0:0:0:0:
303,0,38160,1,2,1:2:0:0:
218,169,38321,5,8,0:1:0:0:
218,169,38402,1,0,0:0:0:0:
218,169,38482,2,0,P|171:195|155:185,1,72,10|0,0:0|0:0,0:0:0:0:
61,178,38804,5,0,1:2:0:0:
212,258,38966,1,2,0:0:0:0:
125,126,39127,2,0,P|120:90|114:54,1,72,10|0,0:0|0:0,0:0:0:0:
103,243,39450,1,2,1:2:0:0:
198,82,39611,5,8,0:1:0:0:
198,82,39692,1,0,0:0:0:0:
198,82,39773,2,0,P|240:78|255:102,1,72,10|0,0:0|0:0,0:0:0:0:
204,163,40095,5,0,1:2:0:0:
369,50,40256,1,2,0:0:0:0:
290,194,40418,5,10,0:0:0:0:
240,11,40579,1,2,0:0:0:0:
196,166,40740,5,2,1:2:0:0:
376,243,40902,1,2,3:2:0:0:
430,198,40982,1,0,3:2:0:0:
395,139,41062,2,0,P|361:131|325:124,1,58.4999973220826,10|0,0:0|0:0,0:0:0:0:
157,294,41224,2,0,P|194:277|218:264,1,58.4999973220826,2|0,0:0|0:0,0:0:0:0:
277,191,41385,6,0,P|293:273|304:348,1,135.000005149842,4|0,1:2|0:0,0:0:0:0:
86,370,41707,5,2,3:2:0:0:
18,350,41788,1,0,3:2:0:0:
39,278,41869,1,10,0:0:0:0:
309,333,42030,5,0,1:2:0:0:
161,161,42191,5,2,3:0:0:0:
161,161,42272,1,0,3:2:0:0:
121,233,42353,2,0,P|141:281|149:322,1,67.5000025749208,10|0,0:0|0:0,0:0:0:0:
211,379,42514,2,0,P|219:324|229:291,1,67.5000025749208,2|0,3:0|0:0,0:0:0:0:
49,279,42675,5,4,1:2:0:0:
240,191,42998,5,10,0:0:0:0:
97,377,43160,1,2,1:2:0:0:
49,203,43321,5,10,0:0:0:0:
194,324,43482,1,2,1:2:0:0:
350,263,43644,1,10,0:0:0:0:
456,320,43805,5,0,0:0:0:0:
456,320,43885,1,0,0:0:0:0:
456,320,43966,1,10,0:0:0:0:
293,363,44128,1,2,1:2:0:0:
384,384,44289,5,10,0:0:0:0:
350,263,44450,1,2,1:2:0:0:
316,135,44611,2,0,P|313:104|310:79,1,53.9999983520508,10|0,0:0|0:0,0:0:0:0:
383,17,44773,2,0,B|405:35|405:35|398:61,1,53.9999983520508,0|0,1:0|0:0,0:0:0:0:
221,128,44933,5,10,0:0:0:0:
176,107,45014,1,2,0:0:0:0:
129,121,45095,1,0,3:0:0:0:
98,158,45175,1,0,3:0:0:0:
100,206,45256,1,6,1:2:0:0:
390,175,45579,5,10,0:0:0:0:
494,28,45741,1,0,1:2:0:0:
355,100,45902,5,10,0:0:0:0:
491,192,46063,1,0,1:2:0:0:
298,246,46225,1,10,0:0:0:0:
188,283,46386,5,0,1:2:0:0:
188,283,46466,1,2,0:0:0:0:
188,283,46547,1,10,0:0:0:0:
373,334,46707,1,0,0:0:0:0:
233,372,46870,5,2,0:0:0:0:
298,246,47031,1,0,0:0:0:0:
287,323,47192,5,2,0:0:0:0:
350,151,47515,1,2,1:2:0:0:
368,188,47595,1,2,0:0:0:0:
401,213,47676,1,2,0:0:0:0:
444,221,47756,1,2,0:0:0:0:
486,209,47837,1,12,0:0:0:0:
172,205,48160,6,0,P|241:195|272:190,1,90,10|0,0:0|0:0,0:0:0:0:
370,3,48482,2,0,P|380:54|377:104,1,90,10|0,0:0|1:0,0:0:0:0:
512,196,48805,2,0,P|443:206|412:211,1,90,10|0,0:0|1:0,0:0:0:0:
256,334,49127,6,0,P|181:355|109:278,1,180,10|10,0:0|0:0,0:0:0:0:
33,353,49611,1,2,0:0:0:0:
4,162,49773,2,0,P|12:206|16:251,1,90,10|0,0:0|1:0,0:0:0:0:
107,109,50095,2,0,P|109:64|114:19,1,90,10|0,0:0|1:0,0:0:0:0:
154,221,50418,5,10,0:0:0:0:
258,238,50579,1,2,0:0:0:0:
348,177,50740,1,10,0:0:0:0:
374,74,50902,1,2,0:0:0:0:
453,158,51063,6,0,P|459:209|469:265,1,90,10|0,0:0|1:0,0:0:0:0:
180,100,51385,2,0,P|231:94|287:84,1,90,10|0,0:0|1:0,0:0:0:0:
488,48,51708,5,10,0:0:0:0:
384,75,51869,1,2,0:0:0:0:
329,169,52030,1,10,0:0:0:0:
340,277,52192,1,2,0:0:0:0:
442,307,52353,6,0,L|495:319,1,45,10|0,0:0|0:0,0:0:0:0:
250,381,52515,2,0,L|293:364,1,45,0|0,1:0|0:0,0:0:0:0:
340,277,52676,5,12,0:1:0:0:
339,308,52756,1,2,0:0:0:0:
367,321,52837,5,4,0:1:0:0:
382,351,52917,1,2,0:0:0:0:
380,384,52998,5,12,0:0:0:0:
99,384,53321,6,0,P|100:332|104:287,1,90,10|0,0:0|0:0,0:0:0:0:
50,119,53644,2,0,P|11:153|8:199,1,90,10|0,0:0|1:0,0:0:0:0:
211,211,53966,2,0,P|213:166|186:132,1,90,10|0,0:0|1:0,0:0:0:0:
114,45,54289,6,0,P|211:52|289:-7,1,180,10|10,0:0|0:0,0:0:0:0:
424,102,54773,1,2,0:0:0:0:
342,171,54934,2,0,P|336:112|330:66,1,90,10|0,0:0|1:0,0:0:0:0:
500,16,55256,2,0,P|506:75|512:121,1,90,10|0,0:0|1:0,0:0:0:0:
418,225,55579,5,10,0:0:0:0:
512,254,55740,1,2,0:0:0:0:
302,45,55902,5,10,0:0:0:0:
399,23,56063,1,2,0:0:0:0:
197,59,56224,6,0,P|210:122|214:156,1,90,10|0,0:0|1:0,0:0:0:0:
29,278,56547,2,0,P|82:254|101:206,1,90,10|0,0:0|1:0,0:0:0:0:
369,373,56869,5,10,0:0:0:0:
152,315,57031,1,0,0:0:0:0:
254,291,57192,2,0,P|244:334|237:379,1,90,10|0,0:0|0:0,0:0:0:0:
56,336,57514,6,0,P|65:292|72:247,1,90,10|0,0:0|0:0,0:0:0:0:
151,193,57756,1,2,0:0:0:0:
151,193,57837,2,0,L|99:184,1,45,8|0,0:0|0:0,0:0:0:0:
41,132,57998,2,0,L|96:113,1,45
168,82,58160,5,2,1:3:0:0:
168,82,58482,1,2,1:3:0:0:
168,82,58804,1,2,1:3:0:0:
248,94,58966,1,0,3:0:0:0:
268,70,59046,1,0,3:0:0:0:
261,41,59127,1,8,0:0:0:0:
10,85,59288,6,0,P|100:105|201:148,1,202.500007724762,6|0,1:2|0:0,0:0:0:0:
230,221,59611,1,2,1:2:0:0:
187,71,59772,6,0,P|143:91|118:104,1,67.5000025749208,10|0,0:0|0:0,0:0:0:0:
355,136,59933,2,0,P|388:130|388:97,1,67.5000025749208,2|0,1:2|0:0,0:0:0:0:
251,2,60094,6,0,P|262:62|272:120,1,116.999994644165,2|0,3:2|0:0,0:0:0:0:
249,202,60337,1,2,0:0:0:0:
309,243,60418,1,10,0:0:0:0:
362,377,60579,6,0,B|334:334|382:290|387:300|431:299|456:252|443:201,1,202.500007724762,2|0,1:2|0:0,0:0:0:0:
365,151,60902,1,2,1:2:0:0:
496,344,61063,5,10,0:0:0:0:
309,243,61224,1,2,1:2:0:0:
512,179,61385,6,0,P|447:194|390:213,1,90,2|0,3:2|0:0,0:0:0:0:
382,263,61627,1,2,0:0:0:0:
382,263,61707,1,10,0:0:0:0:
216,200,61869,6,0,B|113:188|97:117|123:72|185:65|191:113,1,229.500004377365,2|0,1:2|0:0,0:0:0:0:
274,140,62192,1,2,1:2:0:0:
136,248,62353,5,10,0:0:0:0:
263,9,62515,1,2,1:2:0:0:
197,111,62675,6,0,P|218:178|233:255,1,135.000005149842,2|0,3:2|0:0,0:0:0:0:
412,321,62998,1,10,0:0:0:0:
298,384,63159,6,0,P|309:275|328:156,1,202.500007724762,2|0,1:2|0:0,0:0:0:0:
349,93,63482,1,2,3:2:0:0:
223,245,63644,5,10,0:0:0:0:
98,194,63805,1,2,0:0:0:0:
285,315,63966,5,2,1:2:0:0:
171,183,64127,2,0,P|211:162|247:149,1,67.5000025749208,8|0,0:1|0:0,0:0:0:0:
378,92,64289,2,0,P|347:83|304:68,1,67.5000025749208,8|0,0:1|0:0,0:0:0:0:
151,27,64450,1,2,0:0:0:0:
151,27,64530,1,2,0:0:0:0:
151,27,64611,6,0,B|228:34|311:107|306:173,1,215.999993408203,6|8,1:2|0:0,0:0:0:0:
120,141,65094,5,2,0:0:0:0:
290,34,65256,2,0,B|328:-30|404:13|360:76|313:48|275:57|245:142|280:202,1,288,2|8,1:2|0:0,0:0:0:0:
396,254,65740,5,2,0:0:0:0:
196,179,65901,2,0,B|158:130|96:185|141:250|205:197|257:188|310:252|305:310,1,270.000010299683,2|8,1:2|0:0,0:0:0:0:
244,367,66385,5,2,0:0:0:0:
329,170,66547,1,2,1:2:0:0:
138,270,66708,6,0,B|169:280|169:280|211:249,1,67.5000025749208
361,322,66869,2,0,P|333:297|292:289,1,67.5000025749208,8|0,0:0|0:0,0:0:0:0:
271,95,67031,6,0,B|253:117|253:117|261:157,1,53.9999983520508,2|0,0:0|0:0,0:0:0:0:
279,220,67192,2,0,P|377:182|463:161,1,188.999994232178,2|0,1:2|0:0,0:0:0:0:
496,71,67514,6,0,P|429:24|377:41,1,125.999996154785,8|0,0:0|0:0,0:0:0:0:
285,26,67837,5,2,1:2:0:0:
438,220,67998,1,2,0:0:0:0:
510,48,68160,1,8,0:0:0:0:
324,108,68320,6,0,B|287:114|263:149|282:196|290:191|343:208|330:291|260:298,1,242.999992584229,6|0,1:2|0:0,0:0:0:0:
431,267,68644,1,2,1:2:0:0:
346,383,68805,6,0,P|353:342|363:305,1,67.5000025749208,10|0,0:0|0:0,0:0:0:0:
202,135,68966,2,0,P|207:174|214:214,1,67.5000025749208,2|0,1:2|0:0,0:0:0:0:
186,371,69127,5,2,3:2:0:0:
163,329,69207,1,0,3:0:0:0:
116,319,69288,1,0,3:0:0:0:
71,289,69368,1,0,3:0:0:0:
79,221,69449,1,8,0:0:0:0:
211,41,69611,6,0,P|185:129|164:238,1,202.500007724762,2|0,1:2|0:0,0:0:0:0:
86,209,69933,1,2,1:2:0:0:
264,256,70095,6,0,B|276:222|276:222|244:202,1,67.5000025749208,10|0,0:0|0:0,0:0:0:0:
116,319,70256,1,2,1:2:0:0:
169,249,70417,6,0,P|200:318|216:375,1,135.000005149842,2|0,3:2|0:0,0:0:0:0:
57,360,70740,1,8,0:0:0:0:
306,324,70902,6,0,P|394:313|431:227,1,188.999994232178,2|0,1:2|0:0,0:0:0:0:
371,144,71224,1,2,1:2:0:0:
288,206,71386,6,0,P|328:217|358:232,1,62.9999980773926,10|0,0:0|0:0,0:0:0:0:
408,61,71547,1,2,1:2:0:0:
512,121,71707,6,0,P|445:133|373:158,1,125.999996154785,2|0,3:2|0:0,0:0:0:0:
478,278,72031,1,8,0:0:0:0:
413,63,72192,6,0,P|329:55|259:138,1,188.999994232178,2|0,1:2|0:0,0:0:0:0:
198,189,72515,1,2,1:2:0:0:
73,114,72675,6,0,P|123:133|145:147,1,62.9999980773926,10|0,0:0|0:0,0:0:0:0:
256,248,72836,1,2,1:2:0:0:
34,373,72998,6,0,P|109:324|197:291,1,161.999995056153,2|0,3:2|0:0,0:0:0:0:
285,110,73321,2,0,P|274:145|267:182,1,53.9999983520508,10|0,0:0|0:0,0:0:0:0:
294,369,73482,6,0,B|339:311|341:231|272:188|202:212|190:287|223:331|286:325,1,323.999990112305,6|0,1:2|0:0,0:0:0:0:
376,191,73805,1,2,3:2:0:0:
159,315,73966,5,10,0:0:0:0:
416,372,74127,1,0,1:2:0:0:
250,278,74288,5,2,3:2:0:0:
197,229,74368,1,0,3:0:0:0:
242,171,74449,1,0,3:0:0:0:
512,268,74611,6,0,P|458:282|425:298,1,80.9999975280763,8|0,0:0|0:0,0:0:0:0:
66,53,74934,5,10,0:0:0:0:
250,278,75095,1,0,0:0:0:0:
218,5,75256,5,10,0:0:0:0:
105,252,75418,1,0,0:0:0:0:
162,77,75578,5,10,0:0:0:0:
380,218,75740,1,0,1:0:0:0:
315,35,75901,5,10,0:0:0:0:
250,278,76062,1,0,1:0:0:0:
416,125,76224,6,0,P|472:131|519:138,1,90,10|0,0:0|0:0,0:0:0:0:
318,306,76547,2,0,P|374:300|421:293,1,90,10|0,0:0|0:0,0:0:0:0:
170,105,76869,6,0,P|214:98|259:94,1,90,10|0,0:0|1:0,0:0:0:0:
94,332,77192,2,0,P|150:338|197:345,1,90,10|0,0:0|1:0,0:0:0:0:
379,360,77514,5,10,0:0:0:0:
204,184,77675,1,0,0:0:0:0:
320,83,77836,5,10,0:0:0:0:
224,283,77997,1,0,0:0:0:0:
101,123,78159,5,10,0:0:0:0:
409,271,78320,1,0,1:0:0:0:
155,233,78481,5,10,0:0:0:0:
375,36,78643,1,0,1:0:0:0:
239,2,78805,6,0,P|249:56|259:108,1,99.0000030212403,10|0,0:2|0:0,0:0:0:0:
319,189,79127,6,0,P|312:234|306:275,1,85.4999977169037,2|0,1:3|0:0,0:0:0:0:
214,319,79449,6,0,P|226:352|236:390,2,67.5000025749208,2|0|10,1:3|3:2|0:0,0:0:0:0:
182,282,79853,1,2,0:0:0:0:
141,258,79934,1,2,0:0:0:0:
95,267,80014,1,2,0:0:0:0:
61,301,80095,1,6,1:2:0:0:
195,186,80256,5,2,0:1:0:0:
134,364,80418,1,8,0:0:0:0:
18,226,80579,2,0,P|8:182|0:137,1,90,2|0,0:1|1:0,0:0:0:0:
98,17,80901,2,0,P|108:61|116:106,1,90,2|8,0:1|0:0,0:0:0:0:
259,125,81224,6,0,P|303:112|351:82,1,90,2|0,0:1|1:0,0:0:0:0:
136,277,81547,2,0,P|183:281|230:295,1,90,2|8,0:1|0:0,0:0:0:0:
466,343,81869,6,0,P|404:315|319:226,1,188.999994232178,2|0,0:1|0:0,0:0:0:0:
209,227,82192,1,2,0:0:0:0:
215,216,82273,1,2,0:0:0:0:
215,176,82353,5,10,0:0:0:0:
247,213,82433,1,2,0:0:0:0:
254,263,82514,1,2,0:0:0:0:
226,304,82594,1,2,0:0:0:0:
176,315,82675,1,2,1:2:0:0:
129,162,82837,5,2,0:1:0:0:
321,232,82998,1,8,0:0:0:0:
250,105,83159,6,0,P|244:60|236:16,1,90,2|0,0:1|1:0,0:0:0:0:
173,261,83482,2,0,P|164:305|159:349,1,90,2|8,0:1|0:0,0:0:0:0:
6,247,83805,6,0,P|57:281|81:273,1,90,2|0,0:1|1:0,0:0:0:0:
288,367,84127,2,0,P|286:315|255:281,1,90,2|8,0:1|0:0,0:0:0:0:
129,197,84449,6,0,P|227:156|350:129,1,202.500007724762,2|0,0:1|0:0,0:0:0:0:
407,62,84773,1,2,0:0:0:0:
390,62,84853,1,2,0:0:0:0:
375,70,84934,5,10,0:0:0:0:
405,93,85014,1,2,0:0:0:0:
422,135,85095,1,2,0:0:0:0:
455,162,85175,1,2,0:0:0:0:
501,161,85256,1,2,1:2:0:0:
486,10,85418,5,2,0:1:0:0:
323,125,85579,1,8,0:0:0:0:
467,258,85740,6,0,P|415:239|361:234,1,90,2|0,0:1|1:0,0:0:0:0:
206,14,86063,2,0,P|229:66|241:110,1,90,2|8,0:1|0:0,0:0:0:0:
268,202,86385,6,0,P|301:157|333:125,1,90,2|0,0:1|1:0,0:0:0:0:
106,277,86707,2,0,P|71:248|27:226,1,90,2|8,0:1|0:0,0:0:0:0:
171,130,87030,6,0,B|150:182|186:224|195:217|231:270|196:331,1,202.500007724762,2|0,0:1|0:0,0:0:0:0:
332,353,87353,1,2,0:0:0:0:
317,345,87434,1,2,0:0:0:0:
280,361,87515,5,10,0:0:0:0:
282,314,87595,1,2,0:0:0:0:
316,281,87676,1,2,0:0:0:0:
362,280,87756,1,2,0:0:0:0:
402,304,87837,1,2,1:2:0:0:
512,239,87998,5,2,0:1:0:0:
347,356,88160,1,8,0:0:0:0:
465,375,88321,2,0,P|458:331|443:288,1,90,2|0,0:1|1:0,0:0:0:0:
264,88,88644,5,2,3:1:0:0:
205,129,88724,1,0,3:0:0:0:
252,181,88804,2,0,P|300:194|335:209,1,72,8|0,0:0|0:0,0:0:0:0:
375,112,88965,2,0,P|378:76|383:38,1,72,2|0,0:1|0:0,0:0:0:0:
495,158,89127,6,0,B|447:158|404:175|390:227|403:221|389:271|343:296|299:285,1,242.999992584229,4|0,1:2|0:0,0:0:0:0:
110,272,89450,6,0,B|133:245|133:245|168:254,1,67.5000025749208,0|0,3:0|0:0,0:0:0:0:
399,346,89611,1,10,0:1:0:0:
177,380,89773,5,0,1:0:0:0:
228,295,89934,1,2,0:0:0:0:
239,283,90015,1,2,0:0:0:0:
257,240,90095,5,8,0:0:0:0:
237,199,90176,1,2,0:0:0:0:
215,159,90256,1,2,0:0:0:0:
218,109,90337,1,2,0:0:0:0:
236,63,90418,1,0,1:0:0:0:
327,18,90579,5,2,0:0:0:0:
302,113,90740,1,10,0:0:0:0:
381,129,90902,2,0,L|466:116,1,72,2|2,0:0|1:2,0:0:0:0:
381,230,91224,1,2,0:0:0:0:
512,198,91385,2,0,L|428:191,1,72,10|2,0:0|0:0,0:0:0:0:
306,206,91708,5,2,1:2:0:0:
381,230,91869,2,0,P|398:261|399:296,1,72,2|8,0:0|0:0,0:0:0:0:
215,307,92192,2,0,P|271:307|309:347,1,108,2|0,0:0|0:0,0:0:0:0:
329,353,92514,1,2,0:0:0:0:
490,267,92676,1,10,0:0:0:0:
402,379,92837,1,2,0:0:0:0:
475,345,92998,5,0,1:0:0:0:
359,254,93159,1,2,0:0:0:0:
359,254,93321,2,0,L|363:152,1,72,10|2,0:0|0:0,0:0:0:0:
245,86,93643,2,0,L|255:158,1,72,2|2,1:2|0:0,0:0:0:0:
332,90,93966,2,0,P|371:74|419:77,1,72,10|2,0:0|0:0,0:0:0:0:
229,272,94289,6,0,P|157:268|127:209,1,144,2|10,1:2|0:0,0:0:0:0:
170,13,94773,2,0,P|207:96|184:150,1,144,2|2,0:0|0:0,0:0:0:0:
48,191,95256,1,10,0:0:0:0:
125,220,95418,1,2,0:0:0:0:
90,358,95579,5,4,1:2:0:0:
90,358,95740,1,2,0:0:0:0:
187,384,95902,2,0,P|183:333|177:308,1,72,10|0,0:0|0:0,0:0:0:0:
185,158,96224,1,2,1:2:0:0:
281,296,96385,5,8,0:1:0:0:
281,296,96466,1,0,0:0:0:0:
281,296,96547,2,0,P|326:303|372:278,1,72,10|0,0:0|0:0,0:0:0:0:
208,239,96869,5,0,1:2:0:0:
81,172,97031,1,2,0:0:0:0:
285,86,97192,2,0,P|226:96|192:105,1,72,10|0,0:0|0:0,0:0:0:0:
155,156,97514,1,2,1:2:0:0:
36,41,97676,5,8,0:1:0:0:
36,41,97756,1,0,0:0:0:0:
36,41,97837,2,0,P|75:50|101:85,1,72,10|0,0:0|0:0,0:0:0:0:
133,230,98160,5,0,1:2:0:0:
344,156,98321,1,2,0:0:0:0:
149,121,98482,5,10,0:0:0:0:
286,287,98643,1,2,0:0:0:0:
237,203,98805,6,0,P|237:167|268:149,1,72,2|2,1:2|0:0,0:0:0:0:
129,53,99127,2,0,P|97:22|64:21,1,72,10|2,0:0|0:0,0:0:0:0:
219,76,99450,5,2,1:2:0:0:
300,60,99611,1,2,0:0:0:0:
116,155,99772,5,10,0:0:0:0:
5,129,99934,1,2,0:0:0:0:
233,234,100095,6,0,P|264:256|315:251,1,72,4|0,3:1|0:0,0:0:0:0:
152,346,100418,2,0,P|113:374|65:367,1,99.0000030212403,10|0,3:2|0:0,0:0:0:0:
153,195,100740,5,4,1:2:0:0:
163,75,100902,1,2,0:0:0:0:
21,153,101063,2,0,L|106:139,1,72,10|2,0:0|0:0,0:0:0:0:
246,148,101385,5,2,1:2:0:0:
310,204,101547,1,2,0:0:0:0:
389,169,101708,1,10,0:0:0:0:
389,169,101869,1,2,0:0:0:0:
322,111,102031,5,2,1:2:0:0:
383,19,102192,2,0,P|401:49|406:87,1,72,4|8,0:3|0:0,0:0:0:0:
402,303,102514,2,0,P|405:242|423:181,1,108,4|0,0:3|0:0,0:0:0:0:
433,177,102837,1,4,0:1:0:0:
250,213,102998,1,12,0:1:0:0:
336,234,103160,1,4,0:1:0:0:
171,146,103321,5,4,1:3:0:0:
271,101,103482,1,2,0:0:0:0:
193,334,103643,2,0,P|192:300|180:261,1,72,10|2,0:0|0:0,0:0:0:0:
286,322,103966,2,0,P|320:350|366:349,1,72,2|2,1:2|0:0,0:0:0:0:
174,173,104289,1,10,0:0:0:0:
143,183,104369,1,0,0:0:0:0:
117,203,104450,1,2,3:2:0:0:
100,230,104530,1,0,3:0:0:0:
93,261,104611,6,0,P|79:323|13:363,1,144,2|10,1:2|0:0,0:0:0:0:
62,110,105095,2,0,P|114:111|182:173,1,144,4|4,0:3|0:1,0:0:0:0:
297,268,105579,1,12,0:1:0:0:
346,159,105740,1,4,0:1:0:0:
228,35,105902,6,0,P|240:102|243:135,1,72,4|2,1:2|0:0,0:0:0:0:
419,79,106224,2,0,P|407:12|404:-21,1,72,10|0,0:0|0:0,0:0:0:0:
228,35,106547,1,2,1:2:0:0:
346,159,106708,5,8,0:1:0:0:
346,159,106789,1,0,0:0:0:0:
346,159,106869,2,0,P|339:112|323:78,1,72,10|0,0:0|0:0,0:0:0:0:
328,267,107192,5,0,1:2:0:0:
410,308,107353,1,2,0:0:0:0:
264,351,107514,2,0,P|301:349|334:366,1,72,10|0,0:0|0:0,0:0:0:0:
467,239,107837,1,2,1:2:0:0:
428,383,107998,5,8,0:1:0:0:
428,383,108079,1,0,0:0:0:0:
428,383,108160,2,0,P|423:341|412:297,1,72,10|0,0:0|0:0,0:0:0:0:
313,216,108482,5,0,1:2:0:0:
466,115,108643,1,2,0:0:0:0:
325,228,108805,1,10,0:0:0:0:
213,60,108966,1,2,0:0:0:0:
431,242,109127,5,2,1:2:0:0:
291,110,109289,1,2,3:2:0:0:
322,45,109369,1,0,3:2:0:0:
391,66,109449,2,0,P|381:109|378:142,1,67.5000025749208,10|0,0:0|0:0,0:0:0:0:
246,248,109611,2,0,P|212:240|204:203,1,67.5000025749208,2|0,0:0|0:0,0:0:0:0:
297,189,109772,6,0,P|418:235|469:288,1,202.500007724762,4|0,1:2|0:0,0:0:0:0:
399,342,110095,5,2,3:2:0:0:
405,336,110175,1,0,3:2:0:0:
469,369,110256,2,0,B|496:350|496:350|483:304,1,67.5000025749208,10|0,0:0|0:0,0:0:0:0:
246,248,110417,6,0,P|256:297|259:321,1,67.5000025749208,0|0,1:2|0:0,0:0:0:0:
118,289,110578,5,2,3:0:0:0:
58,247,110659,1,0,3:2:0:0:
97,187,110740,1,10,0:0:0:0:
338,262,110902,1,2,3:0:0:0:
189,370,111063,5,4,1:2:0:0:
394,37,111385,5,10,0:0:0:0:
284,83,111547,1,0,1:2:0:0:
143,150,111708,5,10,0:0:0:0:
308,202,111869,1,0,1:2:0:0:
191,40,112031,1,10,0:0:0:0:
120,244,112192,5,8,1:2:0:0:
120,244,112272,1,8,1:2:0:0:
120,244,112353,1,10,0:0:0:0:
215,183,112515,1,2,1:2:0:0:
410,317,112676,5,10,0:0:0:0:
292,280,112837,1,2,1:2:0:0:
195,363,112998,5,10,0:0:0:0:
318,114,113159,2,0,P|309:155|303:185,1,67.5000025749208
298,379,113320,5,10,0:0:0:0:
278,330,113401,1,0,0:0:0:0:
241,297,113482,1,0,3:0:0:0:
205,263,113562,1,0,3:0:0:0:
203,211,113643,1,4,1:2:0:0:
13,43,113966,5,10,0:0:0:0:
148,75,114128,1,2,1:2:0:0:
296,126,114289,5,10,0:0:0:0:
439,64,114450,1,2,1:2:0:0:
268,5,114612,1,10,0:0:0:0:
187,170,114772,5,8,1:2:0:0:
187,170,114853,1,8,1:2:0:0:
187,170,114934,1,10,0:0:0:0:
102,14,115094,1,2,1:2:0:0:
276,120,115257,5,10,0:0:0:0:
72,207,115418,1,2,1:2:0:0:
63,104,115579,5,10,0:0:0:0:
262,253,115740,1,0,0:0:0:0:
312,33,115902,5,10,0:0:0:0:
352,21,115982,1,0,0:0:0:0:
394,30,116063,1,0,3:0:0:0:
426,58,116143,1,0,0:0:0:0:
441,98,116224,1,10,0:0:0:0:
154,343,116547,5,10,0:0:0:0:
286,292,116708,1,0,1:2:0:0:
110,223,116869,5,10,0:0:0:0:
271,283,117031,1,0,1:2:0:0:
433,343,117192,1,10,0:0:0:0:
331,208,117353,5,0,1:2:0:0:
331,208,117434,1,0,1:0:0:0:
331,208,117515,1,10,0:0:0:0:
271,373,117676,1,2,0:0:0:0:
186,240,117837,5,10,0:0:0:0:
129,53,117998,1,2,0:0:0:0:
306,101,118160,5,10,0:0:0:0:
58,169,118320,2,0,P|101:165|139:171,1,67.5000025749208,0|0,1:0|0:0,0:0:0:0:
418,217,118482,5,10,0:0:0:0:
377,234,118562,1,0,0:0:0:0:
331,231,118643,1,0,3:0:0:0:
287,211,118724,1,0,3:0:0:0:
258,171,118804,1,10,0:0:0:0:
21,243,120095,6,0,B|64:233,1,45,8|0,0:0|0:0,0:0:0:0:
90,238,120256,1,8,0:3:0:0:
130,149,120418,1,8,0:3:0:0:
176,271,120579,6,0,B|220:262,1,45,8|0,0:0|0:0,0:0:0:0:
249,245,120740,1,8,0:3:0:0:
336,338,120902,1,8,0:3:0:0:
378,138,121063,5,8,0:0:0:0:
509,101,121224,1,8,0:3:0:0:
378,138,121385,1,12,0:0:0:0:
289,78,121547,5,2,0:0:0:0:
410,0,121708,2,0,B|435:21|435:21|432:79,1,90,10|0,0:0|0:0,0:0:0:0:
472,201,122031,2,0,B|481:258|481:258|509:273,1,90,2|0,1:2|0:0,0:0:0:0:
304,345,122353,1,10,0:0:0:0:
428,308,122515,6,0,B|366:317|366:317|352:335|352:335|304:345,1,135,2|0,0:0|0:0,0:0:0:0:
227,368,122837,1,2,0:0:0:0:
228,335,122918,1,2,0:0:0:0:
230,305,122998,1,10,0:0:0:0:
71,316,123160,1,2,0:0:0:0:
151,274,123321,5,2,1:2:0:0:
149,304,123401,1,2,0:0:0:0:
147,336,123482,1,2,0:0:0:0:
4,380,123644,2,0,P|0:345|-7:317,1,58.4999973220826,10|0,0:0|0:0,0:0:0:0:
95,211,123805,2,0,B|126:213|126:213|151:184,1,58.4999973220826,2|0,0:0|0:0,0:0:0:0:
41,162,123966,5,0,1:2:0:0:
41,162,124047,1,2,0:0:0:0:
41,162,124127,2,0,P|18:211|33:254,1,90,2|8,0:0|0:2,0:0:0:0:
39,18,124450,2,0,P|76:63|122:62,1,90,2|0,0:0|1:2,0:0:0:0:
241,118,124773,2,0,P|187:142|177:186,1,90,2|8,0:0|0:2,0:0:0:0:
168,253,125095,1,2,0:0:0:0:
89,294,125256,6,0,L|80:235,1,45,2|0,1:2|0:0,0:0:0:0:
86,212,125418,1,2,0:0:0:0:
168,253,125579,1,10,0:2:0:0:
167,271,125660,1,2,0:0:0:0:
166,288,125740,1,2,0:0:0:0:
9,262,125902,5,2,1:2:0:0:
174,155,126063,1,2,0:0:0:0:
15,131,126224,5,10,0:2:0:0:
54,134,126304,1,0,0:0:0:0:
85,159,126385,1,2,0:0:0:0:
99,196,126465,1,2,0:0:0:0:
102,237,126547,6,0,L|96:289,3,45,2|2|2|2,1:2|0:0|0:0|0:0,0:0:0:0:
177,352,126869,2,0,L|182:307,3,45,10|2|2|2,0:2|0:0|0:0|0:0,0:0:0:0:
258,270,127192,5,2,1:2:0:0:
303,251,127272,1,2,0:0:0:0:
352,254,127353,1,2,0:0:0:0:
394,280,127433,1,2,0:0:0:0:
420,316,127514,1,10,0:2:0:0:
463,326,127595,1,2,0:0:0:0:
498,298,127675,1,2,0:0:0:0:
507,253,127756,1,2,0:0:0:0:
479,218,127836,1,2,1:2:0:0:
411,133,127998,6,0,P|441:125|458:123,2,45,2|2|10,0:0|0:0|0:2,0:0:0:0:
511,54,128321,1,0,0:0:0:0:
338,196,128482,2,0,P|327:130|318:90,1,90,2|0,1:2|0:0,0:0:0:0:
237,15,128805,2,0,P|196:71|112:87,1,135,8|0,0:1|0:0,0:0:0:0:
98,83,129127,5,0,1:2:0:0:
10,31,129289,1,2,0:0:0:0:
40,26,129369,1,2,0:0:0:0:
69,14,129450,1,8,0:1:0:0:
19,102,129611,1,0,0:0:0:0:
106,152,129773,1,2,1:2:0:0:
76,157,129853,1,2,0:0:0:0:
47,169,129934,1,0,1:1:0:0:
98,83,130095,1,8,0:2:0:0:
29,323,130256,5,2,0:0:0:0:
19,289,130337,1,2,0:0:0:0:
9,256,130418,1,2,1:2:0:0:
235,136,130579,5,2,0:0:0:0:
228,163,130660,1,2,0:0:0:0:
225,194,130741,1,10,0:2:0:0:
154,364,130902,5,2,0:0:0:0:
149,338,130981,1,2,0:0:0:0:
144,314,131062,1,2,1:2:0:0:
340,226,131223,5,2,0:0:0:0:
337,248,131304,1,2,0:0:0:0:
336,272,131385,1,10,0:2:0:0:
263,384,131547,5,2,0:0:0:0:
261,361,131628,1,2,0:0:0:0:
258,338,131708,1,6,1:2:0:0:
222,193,131869,1,0,0:0:0:0:
149,373,132031,5,10,0:2:0:0:
378,334,132192,1,0,0:0:0:0:
86,251,132353,5,2,1:2:0:0:
247,262,132515,2,0,P|178:260|159:241,1,90,2|8,0:0|0:2,0:0:0:0:
40,73,132837,6,0,P|50:133|56:178,1,90,2|0,0:0|1:2,0:0:0:0:
196,107,133160,2,0,P|186:47|180:2,1,90,2|8,0:0|0:2,0:0:0:0:
116,88,133482,1,2,0:0:0:0:
271,54,133644,5,2,1:2:0:0:
182,18,133805,1,2,0:0:0:0:
267,238,133966,5,10,0:2:0:0:
180,254,134127,1,2,0:0:0:0:
360,218,134289,5,2,1:2:0:0:
396,234,134369,1,2,0:0:0:0:
436,229,134450,1,2,0:0:0:0:
467,204,134530,1,2,0:0:0:0:
482,166,134611,1,10,0:0:0:0:
402,77,134773,1,2,0:0:0:0:
497,2,134934,6,0,P|491:63|496:102,1,90,2|2,1:2|0:0,0:0:0:0:
495,375,135256,2,0,P|501:314|496:275,1,90,10|0,0:0|0:0,0:0:0:0:
172,245,135578,5,2,1:2:0:0:
215,229,135659,1,2,0:0:0:0:
261,235,135740,1,2,0:0:0:0:
300,261,135820,1,2,0:0:0:0:
325,301,135902,1,10,0:0:0:0:
403,157,136063,1,2,0:2:0:0:
301,381,136224,6,0,P|358:375|402:346,1,90,2|2,1:2|0:0,0:0:0:0:
305,165,136547,2,0,P|302:82|354:27,1,135,10|0,0:0|0:0,0:0:0:0:
354,50,136869,6,0,P|420:40|450:36,1,90,6|2,1:2|0:2,0:0:0:0:
195,134,137192,1,10,0:2:0:0:
106,95,137353,1,2,0:2:0:0:
198,17,137515,6,0,P|211:84|215:134,1,90,2|2,1:2|0:2,0:0:0:0:
339,217,137836,1,10,0:2:0:0:
387,83,137999,1,2,0:2:0:0:
157,198,138160,6,0,P|91:188|61:184,1,90,2|2,1:2|0:2,0:0:0:0:
339,348,138483,1,10,0:2:0:0:
387,342,138563,1,2,0:0:0:0:
435,333,138644,1,2,0:2:0:0:
161,371,138805,5,2,1:2:0:0:
31,352,138966,1,2,0:2:0:0:
246,291,139127,1,10,0:2:0:0:
253,335,139208,1,2,0:0:0:0:
254,380,139289,1,2,0:2:0:0:
76,207,139450,5,8,0:0:0:0:
126,224,139530,1,8,0:3:0:0:
179,217,139611,1,8,0:3:0:0:
224,187,139691,1,8,0:3:0:0:
250,141,139772,1,8,0:3:0:0:
398,260,139934,1,8,0:0:0:0:
318,20,140095,6,0,P|328:89|328:105,1,67.5000025749208,8|0,0:3|0:0,0:0:0:0:
332,183,140256,1,8,0:3:0:0:
181,233,140418,6,0,L|262:209,1,67.5000025749208,8|0,0:0|0:0,0:0:0:0:
398,260,140579,2,0,P|453:276|484:290,1,67.5000025749208,8|0,0:3|0:0,0:0:0:0:
502,123,140740,5,10,0:0:0:0:
347,323,140902,1,10,0:3:0:0:
247,48,141063,1,10,0:3:0:0:
416,243,141224,5,10,0:0:0:0:
159,306,141385,1,8,0:3:0:0:
330,132,141547,1,8,0:3:0:0:
256,371,141708,5,8,0:0:0:0:
56,197,141869,1,8,0:3:0:0:
159,306,142031,5,0,0:0:0:0:
19,342,147515,5,2,0:0:0:0:
120,305,147837,1,2,0:0:0:0:
212,360,148160,1,2,0:0:0:0:
310,316,148482,6,0,P|381:312|471:374,1,180,2|2,0:0|0:0,0:0:0:0:
506,259,148966,1,2,0:0:0:0:
422,213,149127,2,0,P|412:144|408:98,1,90,2|0,0:0|0:0,0:0:0:0:
318,184,149450,5,8,0:0:0:0:
504,29,149611,1,8,0:0:0:0:
154,37,149773,6,0,P|161:96|168:155,1,90,6|0,1:2|0:0,0:0:0:0:
239,157,150094,1,2,0:0:0:0:
239,157,150256,1,2,0:0:0:0:
60,72,150417,6,0,P|67:131|74:190,1,90,10|0,1:2|0:0,0:0:0:0:
100,384,150740,1,10,0:0:0:0:
140,239,150902,1,0,1:2:0:0:
11,328,151063,6,0,P|68:313|113:311,1,90,10|0,0:0|0:0,0:0:0:0:
158,144,151385,2,0,P|101:159|56:161,1,90,10|0,0:0|0:0,0:0:0:0:
260,263,151708,2,0,P|325:276|361:294,1,90,10|0,0:0|0:0,0:0:0:0:
366,303,151950,1,0,0:0:0:0:
383,329,152031,1,10,0:0:0:0:
387,293,152111,1,2,0:0:0:0:
410,261,152191,1,2,0:0:0:0:
446,243,152272,1,2,0:0:0:0:
469,204,152353,5,2,1:3:0:0:
469,204,152676,1,2,1:3:0:0:
469,204,152998,1,2,1:3:0:0:
474,160,153078,1,2,0:0:0:0:
453,120,153159,1,2,0:0:0:0:
414,101,153239,1,2,0:0:0:0:
370,107,153320,1,2,0:0:0:0:
338,138,153401,1,2,0:0:0:0:
288,141,153482,1,2,0:0:0:0:
251,107,153563,1,2,0:0:0:0:
244,57,153644,5,2,1:3:0:0:
244,57,153966,1,2,1:3:0:0:
244,57,154289,1,2,1:3:0:0:
338,13,154450,5,0,3:0:0:0:
346,40,154530,1,0,3:0:0:0:
336,62,154611,1,8,0:0:0:0:
47,153,154772,6,0,B|68:129|68:129|174:105|174:105|182:118|182:118|199:136|229:139,1,202.500007724762,6|0,1:2|0:0,0:0:0:0:
244,57,155094,1,2,1:2:0:0:
176,221,155256,5,10,0:0:0:0:
67,19,155418,1,2,1:2:0:0:
341,159,155579,5,2,3:2:0:0:
102,312,155740,1,2,0:0:0:0:
31,290,155820,1,2,0:0:0:0:
43,220,155901,1,8,0:0:0:0:
179,227,156063,6,0,B|250:237|256:288|249:294|273:347|346:347,1,202.500007724762,2|0,1:2|0:0,0:0:0:0:
412,377,156385,1,2,1:2:0:0:
322,229,156546,6,0,P|341:163|350:134,1,67.5000025749208,10|0,0:0|0:0,0:0:0:0:
177,313,156707,1,2,1:2:0:0:
186,31,156869,6,0,P|211:113|224:170,1,135.000005149842,2|0,3:2|0:0,0:0:0:0:
209,235,157111,1,2,0:0:0:0:
209,235,157191,1,8,0:0:0:0:
285,355,157353,6,0,P|392:353|384:257,1,202.500007724762,2|0,1:2|0:0,0:0:0:0:
342,212,157676,1,2,1:2:0:0:
123,335,157837,5,10,0:0:0:0:
463,373,157998,1,2,1:2:0:0:
244,376,158159,6,0,P|254:259|274:129,1,229.500004377365,2|0,3:2|0:0,0:0:0:0:
192,22,158482,2,0,P|223:28|228:67,1,76.5000014591217,10|0,0:0|0:0,0:0:0:0:
142,166,158643,6,0,P|83:180|31:209,1,116.999994644165,2|0,1:2|0:0,0:0:0:0:
42,97,158966,1,2,3:2:0:0:
220,222,159127,1,10,0:0:0:0:
273,7,159289,1,2,0:0:0:0:
136,153,159450,5,2,1:2:0:0:
324,102,159611,2,0,P|292:115|272:130,1,58.4999973220826,8|0,0:1|0:0,0:0:0:0:
59,238,159773,2,0,B|98:249|123:268,1,58.4999973220826,8|0,0:1|0:0,0:0:0:0:
233,296,159934,1,2,0:0:0:0:
233,296,160015,1,2,0:0:0:0:
303,335,160094,6,0,B|371:358|441:311|429:230|349:204|323:273,1,233.999989288331,6|8,1:2|0:0,0:0:0:0:
214,384,160577,5,2,0:0:0:0:
185,85,160740,2,0,P|239:206|259:299,1,202.500007724762,2|0,1:2|0:0,0:0:0:0:
233,296,161062,1,8,0:0:0:0:
377,131,161223,5,2,0:0:0:0:
138,222,161385,2,0,B|69:245|0:198|11:117|91:91|118:160,1,233.999989288331,2|8,1:2|0:0,0:0:0:0:
330,265,161868,5,2,0:0:0:0:
208,143,162031,1,2,1:2:0:0:
157,291,162192,6,0,P|193:263|229:247,1,67.5000025749208
307,37,162353,2,0,P|295:80|289:122,1,67.5000025749208,8|0,0:0|0:0,0:0:0:0:
223,254,162514,6,0,B|188:236|188:236|189:192,1,67.5000025749208,2|0,0:0|0:0,0:0:0:0:
272,191,162675,6,0,P|360:208|472:262,1,202.500007724762,2|0,1:2|0:0,0:0:0:0:
507,134,162998,5,8,0:0:0:0:
347,306,163160,1,2,0:0:0:0:
512,347,163321,5,2,1:2:0:0:
386,199,163482,1,2,0:0:0:0:
386,199,163563,1,2,0:0:0:0:
386,199,163644,1,8,0:0:0:0:
200,306,163804,6,0,P|135:328|30:236,1,202.500007724762,6|0,1:2|0:0,0:0:0:0:
74,175,164127,2,0,P|102:190|106:223,1,67.5000025749208,2|0,1:2|0:0,0:0:0:0:
0,345,164289,5,10,0:0:0:0:
227,183,164450,1,2,1:2:0:0:
27,253,164611,5,2,3:2:0:0:
73,259,164691,1,0,3:0:0:0:
94,301,164772,1,0,3:0:0:0:
145,323,164853,1,0,3:0:0:0:
196,312,164933,1,8,0:0:0:0:
161,233,165095,6,0,P|143:147|117:64,1,175.499991966248,2|0,1:2|0:0,0:0:0:0:
174,5,165418,1,2,1:2:0:0:
109,150,165578,5,10,0:0:0:0:
0,78,165740,1,2,1:2:0:0:
283,39,165902,6,0,P|268:117|263:161,1,116.999994644165,2|0,3:2|0:0,0:0:0:0:
64,289,166224,1,8,0:0:0:0:
201,279,166385,6,0,P|292:343|385:288,1,202.500007724762,2|0,1:2|0:0,0:0:0:0:
482,198,166708,1,2,1:2:0:0:
265,354,166869,1,10,0:0:0:0:
427,383,167031,1,2,1:2:0:0:
506,103,167192,6,0,P|456:118|396:146,1,116.999994644165,2|0,3:2|0:0,0:0:0:0:
180,67,167515,1,8,0:0:0:0:
277,236,167676,6,0,B|243:174|299:141|316:148|331:96|299:43,1,202.500007724762,2|0,1:2|0:0,0:0:0:0:
246,2,167998,1,2,1:2:0:0:
391,151,168160,5,10,0:0:0:0:
168,213,168321,1,2,1:2:0:0:
479,65,168482,2,0,P|396:41|324:132,1,202.500007724762,2|0,3:2|0:0,0:0:0:0:
273,295,168805,6,0,B|270:263|263:218,1,67.5000025749208,10|0,0:0|0:0,0:0:0:0:
251,18,168966,5,6,1:2:0:0:
137,347,169289,5,2,3:2:0:0:
404,223,169450,1,10,0:0:0:0:
167,120,169611,1,0,1:2:0:0:
350,301,169773,5,2,3:2:0:0:
350,301,169853,1,0,3:0:0:0:
350,301,169934,1,0,3:0:0:0:
391,52,170095,5,8,0:0:0:0:
60,117,170418,5,10,0:0:0:0:
244,20,170579,1,0,0:0:0:0:
424,173,170740,5,10,0:0:0:0:
202,130,170902,1,0,0:0:0:0:
69,298,171063,5,10,0:0:0:0:
289,191,171224,1,0,1:0:0:0:
411,337,171385,5,10,0:0:0:0:
180,268,171547,1,0,1:0:0:0:
271,361,171708,6,0,P|262:299|248:251,1,90,10|0,0:0|0:0,0:0:0:0:
491,56,172030,2,0,P|500:118|514:166,1,90,10|0,0:0|0:0,0:0:0:0:
75,219,172353,6,0,P|82:156|81:106,1,90,10|0,0:0|1:0,0:0:0:0:
393,173,172675,2,0,P|385:235|386:285,1,90,10|0,0:0|1:0,0:0:0:0:
0,61,172998,5,8,0:0:0:0:
226,194,173160,1,2,0:0:0:0:
0,192,173321,5,8,0:0:0:0:
176,94,173482,1,2,0:0:0:0:
340,0,173644,5,8,0:0:0:0:
190,205,173805,1,0,1:0:0:0:
122,21,173966,5,8,0:0:0:0:
423,211,174127,1,0,1:0:0:0:
42,302,174289,6,0,P|96:294|136:274,1,90,10|0,0:0|0:0,0:0:0:0:
475,371,174611,2,0,P|433:353|389:348,1,90,10|0,0:0|0:0,0:0:0:0:
165,349,174934,5,10,0:0:0:0:
316,199,175095,1,0,1:0:0:0:
263,376,175256,6,0,P|250:299|239:270,1,90,10|0,0:0|1:0,0:0:0:0:
120,133,175579,5,10,0:0:0:0:
331,295,175740,1,0,0:0:0:0:
11,202,175902,5,10,0:0:0:0:
333,92,176063,1,0,0:0:0:0:
47,50,176224,5,10,0:0:0:0:
246,287,176385,1,0,1:0:0:0:
244,1,176547,5,10,0:0:0:0:
0,327,176708,1,0,1:0:0:0:
414,378,176869,6,0,P|409:328|404:282,1,90,10|0,0:0|0:0,0:0:0:0:
150,34,177192,2,0,P|155:84|160:130,1,90,10|0,0:0|0:0,0:0:0:0:
254,286,177515,5,10,0:0:0:0:
435,118,177676,1,0,1:0:0:0:
254,162,177837,5,10,0:0:0:0:
494,250,177998,1,0,1:0:0:0:
362,63,178160,5,10,0:0:0:0:
444,365,178321,1,0,0:0:0:0:
452,1,178482,5,10,0:0:0:0:
339,334,178643,1,0,0:0:0:0:
146,91,178805,5,10,0:0:0:0:
253,384,178966,1,0,1:0:0:0:
249,29,179127,5,10,0:0:0:0:
149,370,179288,1,0,1:0:0:0:
1,85,179450,5,10,0:0:0:0:
1,85,179773,1,2,1:3:0:0:
1,85,180095,1,2,1:3:0:0:
172,349,180418,6,0,B|156:319|156:319|188:290,1,67.5000025749208,8|0,3:2|0:0,0:0:0:0:
240,384,180578,1,0,1:0:0:0:
49,352,180740,5,8,0:0:0:0:
256,192,180821,12,6,182030,1:2:0:0:
