osu file format v14

[General]
AudioFilename: JoJo's Bizarre Adventure_ All Star Battle OST - Lonely Youth (Caesar Zeppeli's Theme).mp3
AudioLeadIn: 0
PreviewTime: 25989
Countdown: 0
SampleSet: Normal
StackLeniency: 0.7
Mode: 0
LetterboxInBreaks: 0
WidescreenStoryboard: 1

[Editor]
Bookmarks: 31123,60481,60802,61123,61443
DistanceSpacing: 1.1
BeatDivisor: 4
GridSize: 4
TimelineZoom: 1.5

[Metadata]
Title:Lonely Youth
TitleUnicode:Lonely Youth
Artist:Chikayo Fukuda
ArtistUnicode:Chikayo Fukuda
Creator:UnderminE
Version:Insane
Source:JoJo's Bizarre Adventure: All Star Battle
Tags:JJBA ASB Battle Tendency Caesar Anthonio Zeppeli
BeatmapID:388883
BeatmapSetID:159072

[Difficulty]
HPDrainRate:6
CircleSize:4
OverallDifficulty:8
ApproachRate:9
SliderMultiplier:1.7
SliderTickRate:1

[Events]
//Background and Video events
0,0,"caesar.jpg",0,0
//Break Periods
//Storyboard Layer 0 (Background)
//Storyboard Layer 1 (Fail)
//Storyboard Layer 2 (Pass)
//Storyboard Layer 3 (Foreground)
//Storyboard Sound Samples

[TimingPoints]
321,320.855614973262,4,2,0,40,1,0
1925,-100,4,1,0,40,0,0
5454,-100,4,2,0,50,0,0
8021,-100,4,1,0,40,0,0
9946,-100,4,2,0,50,0,0
10748,-100,4,1,0,40,0,0
11390,-100,4,2,0,50,0,0
11711,-100,4,1,0,40,0,0
11871,-100,4,2,0,50,0,0
12353,-100,4,1,0,40,0,0
12513,-100,4,2,0,50,0,0
13315,-100,4,1,0,40,0,0
15240,-100,4,2,0,50,0,0
19572,-100,4,1,0,40,0,0
20534,-100,4,2,0,50,0,0
24706,-100,4,1,0,40,0,0
25668,-100,4,2,0,50,0,0
27754,-100,4,1,0,40,0,0
28075,-100,4,2,0,50,0,0
28235,-100,4,1,0,40,0,0
28556,-100,4,2,0,50,0,0
29839,-100,4,1,0,40,0,0
30160,-100,4,2,0,50,0,0
30320,-100,4,1,0,40,0,0
30481,-100,4,2,0,50,0,0
31283,-125,4,2,0,40,0,0
51818,-111.111111111111,4,2,0,45,0,0
60481,-111.111111111111,4,2,0,30,0,0
61925,-100,4,2,0,50,0,1
67058,-80,4,1,0,45,0,1
67861,-100,4,2,0,50,0,1
68021,-100,4,1,0,45,0,1
68342,-100,4,2,0,50,0,1
68663,-100,4,1,0,45,0,1
68823,-100,4,2,0,50,0,1
77326,-80,4,1,0,45,0,1
78128,-100,4,2,0,50,0,1
78288,-100,4,1,0,45,0,1
78609,-100,4,2,0,50,0,1
78930,-100,4,1,0,45,0,1
79091,-100,4,2,0,50,0,1
79893,-80,4,1,0,45,0,1
80695,-100,4,2,0,50,0,1
80855,-80,4,1,0,40,0,1
81176,-80,4,1,0,45,0,1
82139,-80,4,1,0,40,0,1
82460,-100,4,2,0,50,0,0

[Colours]
Combo1 : 255,255,0
Combo2 : 0,202,0
Combo3 : 18,124,255
Combo4 : 255,60,60

[HitObjects]
48,56,321,5,4,1:0:0:0:
64,56,481,1,4,1:0:0:0:
120,128,641,2,0,P|136:192|136:216,1,85,0|2,0:0|0:0,0:0:0:0:
207,314,962,2,0,P|211:272|224:232,1,85,0|2,0:0|0:0,0:0:0:0:
256,144,1283,5,0,0:0:0:0:
256,136,1363,1,2,0:0:0:0:
256,128,1443,1,2,0:0:0:0:
256,120,1524,1,0,0:0:0:0:
296,48,1604,2,0,P|376:40|400:40,1,85,0|2,0:0|0:0,0:0:0:0:
472,72,1925,6,2,P|488:168|472:264,1,170,2|2,2:0|0:0,0:0:0:0:
400,288,2406,2,2,P|315:279|232:295,1,170,0|0,2:0|2:0,0:0:0:0:
256,192,2887,12,0,5133,0:0:0:0:
72,48,5454,6,2,L|88:136,1,85,4|0,0:0|0:0,0:0:0:0:
176,168,5775,2,2,L|160:84,1,85,0|2,1:0|0:0,0:0:0:0:
320,32,6096,1,2,0:0:0:0:
224,24,6256,1,2,0:0:0:0:
256,112,6417,1,0,1:0:0:0:
288,200,6577,1,0,0:0:0:0:
165,320,6738,6,0,L|240:280,1,85,0|2,0:0|0:0,0:0:0:0:
256,112,7058,1,0,1:0:0:0:
288,200,7219,1,0,0:0:0:0:
176,64,7379,2,0,P|96:72|80:80,1,85,0|2,0:0|0:0,0:0:0:0:
64,160,7700,2,0,P|144:152|160:144,1,85,0|0,1:0|0:0,0:0:0:0:
224,80,8021,6,2,B|256:64|256:64|264:72|264:72|280:64|280:64|328:72|400:64,1,170,0|0,2:0|1:0,0:0:0:0:
424,152,8502,2,2,B|408:184|408:184|416:192|416:192|408:208|408:208|384:264|384:328,1,170,0|0,2:0|2:0,0:0:0:0:
472,272,8984,2,2,P|390:244|302:240,1,170,0|0,0:0|2:0,0:0:0:0:
232,296,9465,2,2,B|212:266|212:266|219:257|219:257|208:240|208:240|224:192|194:123,1,170,0|0,2:0|2:0,0:0:0:0:
128,72,9946,5,2,0:0:0:0:
80,224,10107,1,2,0:0:0:0:
56,136,10267,1,0,1:0:0:0:
184,224,10427,1,0,0:0:0:0:
200,128,10588,1,0,0:0:0:0:
356,283,10748,6,2,P|305:245|272:192,2,127.5,0|0|2,2:0|2:0|2:1,0:0:0:0:
448,280,11390,1,2,0:0:0:0:
448,280,11470,1,0,0:0:0:0:
448,280,11550,1,0,1:0:0:0:
456,184,11711,6,2,P|432:144|392:112,1,85,2|2,2:2|2:2,0:0:0:0:
296,80,12032,2,0,L|208:104,1,85,2|2,0:0|1:0,0:0:0:0:
152,256,12353,2,2,P|144:208|152:160,2,85,0|0|2,2:0|2:0|2:2,0:0:0:0:
216,320,12834,1,2,1:0:0:0:
216,320,12994,1,2,0:0:0:0:
216,320,13155,1,0,0:0:0:0:
312,328,13315,6,2,B|328:312|328:312|352:312|352:312|376:296|376:296|400:296|400:296|480:256,1,170,0|2,2:0|2:1,0:0:0:0:
496,144,13796,2,0,B|480:160|480:160|456:160|456:160|432:176|432:176|408:176|408:176|328:216,1,170,2|0,2:1|1:0,0:0:0:0:
176,208,14278,6,2,B|160:192|160:192|136:192|136:192|112:176|112:176|88:176|88:176|24:144,1,170,0|0,2:0|2:0,0:0:0:0:
48,264,14759,2,2,B|64:280|64:280|88:280|88:280|112:296|112:296|136:296|136:296|199:327,1,170,0|0,0:0|2:0,0:0:0:0:
288,288,15240,2,0,L|280:232,2,42.5,8|0|0,3:0|3:0|1:0,0:0:0:0:
376,328,15561,1,0,0:0:0:0:
432,256,15722,6,0,P|456:176|464:168,1,85,4|2,2:0|0:0,0:0:0:0:
329,64,16042,2,0,L|408:96,1,85,0|0,1:0|0:0,0:0:0:0:
352,176,16363,2,0,L|264:208,1,85,2|2,0:0|0:0,0:0:0:0:
240,296,16684,2,0,P|190:221|206:136,1,170,0|0,1:0|0:0,0:0:0:0:
328,64,17165,5,2,0:0:0:0:
201,145,17326,1,0,1:0:0:0:
232,64,17486,1,0,0:0:0:0:
352,160,17647,1,2,0:0:0:0:
272,208,17807,1,0,0:0:0:0:
160,272,17968,6,0,P|229:319|312:334,1,170,0|0,1:0|0:0,0:0:0:0:
400,312,18449,1,2,0:0:0:0:
455,240,18609,2,0,P|474:201|481:159,1,85,0|2,1:0|0:0,0:0:0:0:
440,80,18930,1,0,0:0:0:0:
344,88,19091,2,0,L|256:104,1,85,0|0,0:0|1:0,0:0:0:0:
416,128,19411,5,2,0:0:0:0:
344,184,19572,2,2,L|278:245,2,85,0|0|0,2:0|2:0|1:0,0:0:0:0:
320,96,20053,2,2,P|240:136|152:136,1,170,2|2,2:2|2:0,0:0:0:0:
80,96,20534,1,0,1:0:0:0:
80,96,20615,1,0,0:0:0:0:
80,96,20695,1,2,0:0:0:0:
48,184,20855,6,0,L|64:272,1,85
144,320,21176,1,0,1:0:0:0:
240,336,21337,1,2,0:0:0:0:
352,248,21497,6,0,L|336:160,1,85,2|2,0:0|0:0,0:0:0:0:
384,80,21818,1,0,1:0:0:0:
464,40,21978,1,0,0:0:0:0:
464,264,22139,6,0,L|457:179,1,85,0|2,0:0|0:0,0:0:0:0:
432,88,22460,1,0,1:0:0:0:
368,304,22620,2,0,L|361:219,1,85,2|0,0:0|0:0,0:0:0:0:
312,136,22941,1,2,0:0:0:0:
264,352,23101,2,0,L|256:256,1,85,0|0,1:0|0:0,0:0:0:0:
208,184,23422,6,0,P|160:192|40:168,1,170,2|0,0:0|1:0,0:0:0:0:
48,72,23903,2,0,P|96:64|216:88,1,170,2|0,0:0|0:0,0:0:0:0:
336,224,24385,1,0,1:0:0:0:
296,136,24545,1,2,0:0:0:0:
216,184,24706,6,2,L|136:232,2,85,0|2|0,2:0|2:2|1:0,0:0:0:0:
256,272,25187,2,2,L|336:320,2,85,0|0|2,2:0|2:0|2:2,0:0:0:0:
164,264,25668,1,0,1:0:0:0:
140,280,25748,1,0,0:0:0:0:
112,284,25829,1,2,0:0:0:0:
84,276,25909,1,0,0:0:0:0:
60,260,25989,6,0,P|40:216|40:172,1,85,0|2,0:0|0:0,0:0:0:0:
72,92,26310,1,0,0:0:0:0:
156,52,26470,2,0,L|238:33,2,85,2|0|2,0:0|0:0|0:0,0:0:0:0:
148,144,26952,1,0,0:0:0:0:
240,120,27112,2,0,L|322:101,1,85,0|2,0:0|0:0,0:0:0:0:
240,204,27433,1,0,0:0:0:0:
332,192,27593,6,2,P|408:176|436:88,1,170,0|2,1:0|2:1,0:0:0:0:
344,108,28075,2,2,P|268:124|240:212,1,170,0|2,2:0|2:1,0:0:0:0:
196,288,28556,1,0,1:0:0:0:
196,288,28716,1,0,1:0:0:0:
112,248,28877,6,0,P|88:208|76:164,1,85,2|0,0:0|0:0,0:0:0:0:
120,36,29198,1,2,0:0:0:0:
105,224,29358,2,0,P|87:181|82:136,1,85,2|0,0:0|0:0,0:0:0:0:
132,20,29679,1,0,1:0:0:0:
101,200,29839,2,2,P|91:155|93:109,1,85,2|2,2:2|2:2,0:0:0:0:
152,8,30160,1,0,1:0:0:0:
232,56,30320,6,2,P|311:83|395:71,1,170,2|2,2:0|2:0,0:0:0:0:
372,164,30802,2,0,P|360:232|400:336,1,170,0|4,0:0|0:0,0:0:0:0:
288,340,31283,6,0,L|208:348,1,68,0|0,0:0|1:0,0:0:0:0:
148,324,31604,1,0,0:0:0:0:
96,200,31764,1,2,0:0:0:0:
88,276,31925,1,2,0:0:0:0:
156,248,32085,2,0,L|224:224,1,68,0|0,1:0|0:0,0:0:0:0:
296,148,32406,6,0,P|304:216|344:284,1,136,2|0,0:0|1:0,0:0:0:0:
252,320,32887,2,0,P|188:340|112:348,1,136,2|0,0:0|0:0,0:0:0:0:
44,336,33369,1,0,1:0:0:0:
44,336,33529,1,0,0:0:0:0:
52,240,33689,6,0,P|64:168|60:96,1,136,2|0,0:0|1:0,0:0:0:0:
136,96,34171,2,0,P|168:96|208:80,1,68,2|0,0:0|0:0,0:0:0:0:
272,56,34492,1,2,0:0:0:0:
276,132,34652,6,0,P|260:200|276:276,1,136,0|2,1:0|0:0,0:0:0:0:
336,308,35133,1,2,0:0:0:0:
268,336,35294,2,0,L|176:352,1,68,0|2,1:0|0:0,0:0:0:0:
101,291,35615,2,0,L|168:280,2,68,0|2|0,0:0|0:0|1:0,0:0:0:0:
76,292,36016,5,0,0:0:0:0:
56,280,36096,1,2,0:0:0:0:
40,260,36176,1,0,0:0:0:0:
32,236,36256,2,0,P|36:164|60:88,1,136,2|0,0:0|1:0,0:0:0:0:
120,68,36738,2,0,P|208:76|260:68,1,136,2|0,0:0|0:0,0:0:0:0:
412,52,37219,5,0,1:0:0:0:
328,36,37379,1,2,0:0:0:0:
328,112,37540,2,0,B|312:164|328:200|320:248,1,136,2|0,0:0|1:0,0:0:0:0:
252,296,38021,2,0,P|304:328|380:308,1,136,2|0,0:0|0:0,0:0:0:0:
444,208,38502,5,0,1:0:0:0:
452,284,38663,1,2,0:0:0:0:
396,144,38823,2,0,P|344:112|268:132,1,136,2|0,0:0|1:0,0:0:0:0:
200,132,39304,2,0,L|168:72,2,68,2|0|0,0:0|1:0|0:0,0:0:0:0:
240,200,39786,2,0,L|272:260,2,68,0|2|0,1:0|0:0|0:0,0:0:0:0:
164,200,40267,5,2,0:0:0:0:
200,132,40427,1,0,1:0:0:0:
240,200,40588,1,2,0:0:0:0:
276,268,40748,1,2,0:0:0:0:
308,336,40909,1,0,0:0:0:0:
216,348,41069,2,0,P|180:356|140:352,1,68,0|2,1:0|0:0,0:0:0:0:
112,344,41310,1,0,0:0:0:0:
84,320,41390,6,0,P|64:244|32:172,1,136,0|0,0:0|1:0,0:0:0:0:
56,104,41871,2,0,P|136:72|216:76,1,136,2|0,0:0|0:0,0:0:0:0:
260,84,42353,1,0,1:0:0:0:
236,156,42513,1,2,0:0:0:0:
248,288,42673,6,0,L|316:336,2,68,2|0|0,0:0|0:0|1:0,0:0:0:0:
272,220,43155,1,2,0:0:0:0:
236,156,43315,1,0,0:0:0:0:
260,84,43476,2,0,L|328:36,2,68,2|0|0,0:0|1:0|0:0,0:0:0:0:
308,152,43957,6,0,L|456:148,1,136,0|0,0:0|1:0,0:0:0:0:
394,279,44438,2,0,L|272:220,1,136,2|2,0:0|0:0,0:0:0:0:
216,268,44919,2,0,L|248:332,2,68,0|2|0,1:0|0:0|0:0,0:0:0:0:
104,284,45401,5,0,0:0:0:0:
152,228,45561,1,0,1:0:0:0:
48,232,45722,1,2,0:0:0:0:
96,168,45882,2,0,P|108:112|96:28,2,136,2|0|0,0:0|1:0|0:0,0:0:0:0:
48,312,46845,5,0,1:0:0:0:
196,312,47165,6,0,P|262:300|329:311,1,136,2|0,0:0|1:0,0:0:0:0:
400,288,47647,2,0,P|404:220|420:154,1,136,2|0,0:0|0:0,0:0:0:0:
360,88,48128,2,0,L|292:100,1,68,0|2,1:0|0:0,0:0:0:0:
164,156,48449,1,0,0:0:0:0:
208,84,48609,1,2,0:0:0:0:
236,152,48770,2,0,P|251:218|256:285,1,136,0|0,1:0|0:0,0:0:0:0:
120,352,49411,5,0,1:0:0:0:
72,212,49732,6,0,B|92:168|55:129|87:64,1,136,2|0,0:0|1:0,0:0:0:0:
148,120,50214,2,0,P|236:128|296:116,1,136,2|0,0:0|0:0,0:0:0:0:
348,80,50695,1,0,1:0:0:0:
356,92,50855,1,2,0:0:0:0:
368,104,51016,1,0,3:0:0:0:
380,116,51176,1,0,3:0:0:0:
408,184,51337,2,0,B|400:224|400:224|376:264|392:324,1,136,0|2,1:0|0:0,0:0:0:0:
464,276,51818,5,0,0:0:0:0:
312,276,51978,2,0,P|252:288|204:272,1,76.4999976654053,0|2,0:0|0:0,0:0:0:0:
160,252,52299,1,0,0:0:0:0:
124,176,52460,2,0,P|140:112|132:72,1,76.4999976654053,0|2,0:0|0:0,0:0:0:0:
212,60,52780,6,0,L|292:56,2,76.4999976654053,0|2|0,0:0|0:0|1:0,0:0:0:0:
140,104,53262,2,0,L|60:108,2,76.4999976654053,0|2|0,0:0|0:0|1:0,0:0:0:0:
268,192,53743,1,0,0:0:0:0:
212,136,53903,1,0,1:0:0:0:
188,216,54064,1,0,0:0:0:0:
232,60,54224,6,0,B|260:56|260:56|276:60|276:60|288:56|288:56|328:60|396:48,1,152.999995330811,2|0,0:0|0:0,0:0:0:0:
440,112,54706,2,0,B|436:136|436:136|436:152|436:152|432:164|432:164|448:200|444:268,1,152.999995330811,2|0,0:0|0:0,0:0:0:0:
368,300,55187,2,0,B|340:296|340:296|324:300|324:300|312:296|312:296|272:300|204:288,1,152.999995330811,2|0,0:0|0:0,0:0:0:0:
160,228,55668,6,0,P|165:190|168:152,2,76.4999976654053,0|0|2,1:0|0:0|0:0,0:0:0:0:
141,298,56149,2,0,P|109:319|80:344,2,76.4999976654053,0|2|0,1:0|0:0|1:0,0:0:0:0:
208,240,56631,1,0,0:0:0:0:
304,256,56791,6,0,P|284:172|224:144,1,152.999995330811,2|0,0:0|0:0,0:0:0:0:
136,72,57272,2,0,P|220:72|287:52,1,152.999995330811,2|0,0:0|0:0,0:0:0:0:
360,96,57754,2,0,L|340:176,2,76.4999976654053,0|2|0,0:0|0:0|0:0,0:0:0:0:
455,124,58235,6,0,L|432:52,1,76.4999976654053,0|2,1:0|0:0,0:0:0:0:
296,40,58556,1,0,0:0:0:0:
372,172,58716,2,0,L|359:96,1,76.4999976654053,0|2,1:0|0:0,0:0:0:0:
216,76,59037,1,0,1:0:0:0:
224,160,59198,1,0,0:0:0:0:
148,248,59358,6,0,P|218:274|289:249,1,152.999995330811,2|0,0:0|0:0,0:0:0:0:
340,180,59839,1,0,0:0:0:0:
292,116,60000,2,0,P|221:89|150:114,1,152.999995330811,2|0,0:0|0:0,0:0:0:0:
88,168,60481,5,0,1:0:0:0:
88,168,60561,1,0,1:0:0:0:
88,168,60641,1,0,1:0:0:0:
104,340,60802,5,0,1:0:0:0:
104,340,60882,1,0,1:0:0:0:
104,340,60962,1,0,1:0:0:0:
288,312,61123,5,0,1:0:0:0:
288,312,61203,1,0,1:0:0:0:
288,312,61283,1,0,1:0:0:0:
272,144,61443,5,0,1:0:0:0:
272,144,61524,1,0,1:0:0:0:
272,144,61604,1,0,1:0:0:0:
184,244,61764,1,2,0:0:0:0:
104,196,61925,6,0,P|104:152|88:104,1,85,4|0,0:0|0:0,0:0:0:0:
160,48,62246,2,0,P|212:56|252:40,1,85,0|2,1:0|0:0,0:0:0:0:
336,48,62566,1,0,0:0:0:0:
400,116,62727,1,2,0:0:0:0:
348,283,62887,6,0,P|348:240|360:200,1,85,0|0,1:0|0:0,0:0:0:0:
296,56,63208,1,2,0:0:0:0:
284,144,63369,1,2,0:0:0:0:
264,236,63529,2,0,P|196:236|176:240,1,85,0|0,1:0|0:0,0:0:0:0:
112,304,63850,6,0,P|90:267|88:220,1,85,2|2,0:0|0:0,0:0:0:0:
56,84,64171,1,0,1:0:0:0:
32,164,64331,1,0,0:0:0:0:
124,148,64492,6,0,P|200:148|232:48,1,170,2|0,0:0|1:0,0:0:0:0:
160,80,64973,2,0,L|272:224,1,170,2|0,0:0|0:0,0:0:0:0:
388,244,65454,2,0,L|332:168,1,85,0|2,1:0|0:0,0:0:0:0:
344,80,65775,5,2,0:0:0:0:
344,80,65935,1,0,0:0:0:0:
436,84,66096,1,0,1:0:0:0:
436,84,66256,1,2,0:0:0:0:
252,84,66417,2,0,L|220:172,1,85,2|0,0:0|0:0,0:0:0:0:
276,272,66738,2,0,L|308:184,1,85,0|0,1:0|0:0,0:0:0:0:
196,232,67058,6,2,P|107:272|55:190,1,212.5,4|0,2:0|0:0,0:0:0:0:
160,140,67540,2,2,P|248:99|300:181,1,212.5,4|2,2:0|2:0,0:0:0:0:
324,308,68021,6,2,B|324:256|324:256|380:228|380:160,1,170,0|2,1:0|2:2,0:0:0:0:
336,76,68502,1,2,0:0:0:0:
336,76,68663,2,2,P|292:76|248:68,1,85,0|2,1:0|2:1,0:0:0:0:
172,116,68984,2,0,P|180:160|168:216,1,85,2|0,0:0|0:0,0:0:0:0:
112,268,69304,1,0,1:0:0:0:
129,282,69385,1,2,0:0:0:0:
150,292,69465,1,2,0:0:0:0:
175,293,69545,1,0,0:0:0:0:
204,288,69625,6,0,P|241:272|298:269,1,85,2|0,0:0|0:0,0:0:0:0:
432,320,69946,1,0,1:0:0:0:
360,280,70107,2,0,B|372:252|372:252|368:240|368:240|380:236|380:236|384:180|412:120,1,170,2|0,0:0|0:0,0:0:0:0:
468,212,70588,2,0,L|304:168,1,170,0|0,1:0|0:0,0:0:0:0:
252,88,71069,5,2,0:0:0:0:
216,200,71230,1,0,1:0:0:0:
160,116,71390,1,0,0:0:0:0:
128,204,71550,2,0,P|84:280|136:328,1,170,2|0,0:0|1:0,0:0:0:0:
224,296,72032,5,2,0:0:0:0:
224,296,72112,1,2,0:0:0:0:
224,296,72192,1,4,0:0:0:0:
308,336,72353,1,2,0:0:0:0:
396,300,72513,2,0,L|424:208,1,85,0|2,1:0|0:0,0:0:0:0:
288,124,72834,1,0,0:0:0:0:
372,128,72994,6,0,L|344:212,1,85,0|0,0:0|1:0,0:0:0:0:
176,252,73315,1,2,0:0:0:0:
256,248,73476,2,0,L|280:164,1,85,2|0,0:0|0:0,0:0:0:0:
228,88,73796,6,0,P|184:92|144:84,1,85,0|0,1:0|0:0,0:0:0:0:
88,164,74117,2,0,P|96:220|96:260,1,85,2|2,0:0|0:0,0:0:0:0:
176,304,74438,2,0,P|260:304|276:308,1,85,0|0,1:0|0:0,0:0:0:0:
328,232,74759,6,0,P|329:189|336:147,1,85,0|2,0:0|0:0,0:0:0:0:
388,68,75080,1,0,1:0:0:0:
412,264,75240,2,0,P|413:221|420:179,1,85,2|2,0:0|0:0,0:0:0:0:
468,100,75561,1,2,0:0:0:0:
304,92,75722,6,0,P|220:120|120:116,1,170,0|2,1:0|0:0,0:0:0:0:
56,76,76203,1,2,0:0:0:0:
56,76,76363,1,0,1:0:0:0:
56,76,76524,1,0,0:0:0:0:
60,168,76684,2,0,L|56:256,2,85,2|2|0,0:0|0:0|1:0,0:0:0:0:
140,120,77165,1,0,0:0:0:0:
200,220,77326,6,2,P|247:304|337:268,1,212.5,4|0,2:0|1:0,0:0:0:0:
300,156,77807,2,2,P|390:119|437:204,1,212.5,4|2,2:0|2:0,0:0:0:0:
408,292,78288,6,2,B|352:328|304:288|304:288|240:308,1,170,0|0,1:0|2:0,0:0:0:0:
160,332,78770,1,2,0:0:0:0:
160,332,78930,2,2,P|128:296|108:256,1,85,0|2,1:0|2:1,0:0:0:0:
152,180,79251,2,0,P|184:216|204:256,1,85,2|0,0:0|0:0,0:0:0:0:
220,280,79492,1,0,0:0:0:0:
252,296,79572,1,0,1:0:0:0:
344,308,79732,1,2,0:0:0:0:
380,208,79893,6,2,P|408:114|319:74,1,212.5,4|0,2:0|1:0,3:0:0:0:
200,76,80374,2,2,P|111:115|139:209,1,212.5,4|2,2:0|2:0,3:0:0:0:
256,192,80855,2,0,L|256:92,2,53.125,0|0|0,1:0|0:0|0:0,0:0:0:0:
164,264,81176,6,2,P|256:308|348:260,1,212.5,4|0,2:0|1:0,0:0:0:0:
348,120,81657,2,6,P|256:76|164:124,1,212.5,4|2,2:0|2:0,0:0:0:0:
84,152,82139,2,2,L|44:108,2,53.125,2|8|8,1:0|3:0|3:0,3:0:0:0:
76,240,82460,1,4,0:0:0:0:
