osu file format v14

[General]
AudioFilename: audio.mp3
AudioLeadIn: 0
PreviewTime: -1
Countdown: 1
SampleSet: Normal
StackLeniency: 0.7
Mode: 0
LetterboxInBreaks: 0
WidescreenStoryboard: 1

[Editor]
DistanceSpacing: 1.2
BeatDivisor: 4
GridSize: 8
TimelineZoom: 1

[Metadata]
Title:Kaguya-sama wa Kokurasetai Ending 2
TitleUnicode:Kaguya-sama wa Kokurasetai Ending 2
Artist:Chikatto Chika Chikattsu
ArtistUnicode:Chikatto Chika Chikattsu
Creator:TuTuRoXx
Version:Tested2
Source:Anime
Tags:Anime, Japan
BeatmapID:1927482
BeatmapSetID:920302

[Difficulty]
HPDrainRate:7.5
CircleSize:4.1
OverallDifficulty:7
ApproachRate:9
SliderMultiplier:1.4
SliderTickRate:1

[Events]
//Background and Video events
0,0,"maxresdefault.jpg",0,0
//Break Periods
//Storyboard Layer 0 (Background)
//Storyboard Layer 1 (Fail)
//Storyboard Layer 2 (Pass)
//Storyboard Layer 3 (Foreground)
//Storyboard Sound Samples

[TimingPoints]
10154,337.078651685393,4,1,0,100,1,0
10215,-50,4,1,0,100,0,0
13861,-100,4,1,0,100,0,0
15547,-100,4,1,0,100,0,0
17906,-25,4,1,0,100,0,0
18243,-100,4,1,0,100,0,0
46642,-181.818181818181,4,1,0,100,0,0
54564,-25,4,1,0,100,0,0
54816,-100,4,1,0,100,0,0
62316,-25,4,1,0,100,0,0
62569,-50,4,1,0,100,0,0
65013,-25,4,1,0,100,0,0
65266,-100,4,1,0,100,0,0
74451,-25,4,1,0,100,0,0
74704,-100,4,1,0,100,0,0
78496,-25,4,1,0,100,0,0
78749,-100,4,1,0,100,0,0

[HitObjects]
256,192,10153,5,0,0:0:0:0:
256,192,11502,1,0,0:0:0:0:
256,192,12850,1,0,0:0:0:0:
256,192,13524,1,0,0:0:0:0:
177,88,14198,6,0,P|272:81|314:105,1,140
248,193,14873,2,0,P|315:234|381:197,1,140
322,122,15547,2,0,P|195:118|171:248,1,280
256,193,17064,5,0,0:0:0:0:
140,92,17232,1,0,0:0:0:0:
371,97,17401,1,0,0:0:0:0:
255,279,17569,1,0,0:0:0:0:
455,328,17906,2,0,L|389:256,1,70
144,104,18243,6,0,P|214:81|274:116,1,140
329,49,18749,2,0,P|360:127|331:177,1,140
266,235,19255,1,0,0:0:0:0:
140,241,19592,6,0,P|210:264|270:229,1,140
325,296,20098,2,0,P|356:218|327:168,1,140
262,110,20604,1,0,0:0:0:0:
332,172,20940,6,0,P|363:250|334:300,1,140
282,237,21446,2,0,P|238:175|235:157,1,70
236,146,21698,1,0,0:0:0:0:
262,116,21783,1,0,0:0:0:0:
295,90,21867,1,0,0:0:0:0:
326,61,21952,1,0,0:0:0:0:
359,90,22036,1,0,0:0:0:0:
385,125,22120,1,0,0:0:0:0:
412,159,22204,1,0,0:0:0:0:
432,188,22288,6,0,P|443:231|427:272,1,70
309,364,22625,1,0,0:0:0:0:
184,190,22794,1,0,0:0:0:0:
432,188,22962,1,0,0:0:0:0:
148,97,23637,6,0,P|180:145|274:173,1,140
244,86,24142,2,0,P|309:109|352:181,1,140
348,256,24648,1,0,0:0:0:0:
290,327,24816,1,0,0:0:0:0:
201,347,24985,1,0,0:0:0:0:
127,290,25153,2,0,P|96:243|103:210,1,70
98,143,25491,1,0,0:0:0:0:
200,19,25828,5,0,0:0:0:0:
416,241,25996,1,0,0:0:0:0:
201,347,26333,6,0,P|136:325|86:256,1,140
176,246,26839,2,0,P|150:206|99:115,1,140
176,70,27345,1,0,0:0:0:0:
257,36,27513,1,0,0:0:0:0:
341,51,27682,1,0,0:0:0:0:
410,106,27850,2,0,P|431:143|430:196,1,70
429,253,28187,1,0,0:0:0:0:
276,369,28524,5,0,0:0:0:0:
60,147,28692,1,0,0:0:0:0:
263,35,29030,6,0,P|338:45|368:108,1,140
287,113,29536,2,0,P|330:178|400:176,1,140
471,210,30041,1,0,0:0:0:0:
386,181,30210,1,0,0:0:0:0:
308,165,30378,1,0,0:0:0:0:
226,169,30547,2,0,P|174:185|150:221,1,70
107,267,30884,1,0,0:0:0:0:
176,88,31221,5,0,0:0:0:0:
436,331,31389,1,0,0:0:0:0:
153,289,31727,5,0,1:0:0:0:
360,98,31895,1,0,1:0:0:0:
359,289,32064,1,0,1:0:0:0:
152,98,32232,1,0,1:0:0:0:
397,192,32401,5,0,1:0:0:0:
116,193,32569,1,0,1:0:0:0:
256,330,32738,1,0,1:0:0:0:
257,52,32906,1,0,1:0:0:0:
153,289,33075,5,0,1:0:0:0:
360,98,33243,1,0,1:0:0:0:
359,289,33412,1,0,1:0:0:0:
152,98,33580,1,0,1:0:0:0:
153,289,33749,1,0,1:0:0:0:
156,111,34423,6,0,P|204:87|296:126,1,140
222,168,34929,2,0,P|279:199|350:161,1,140
406,108,35434,1,0,0:0:0:0:
464,176,35603,1,0,0:0:0:0:
443,263,35771,1,0,0:0:0:0:
366,308,35940,2,0,P|320:304|293:273,1,70
241,218,36277,1,0,0:0:0:0:
370,316,36614,5,0,0:0:0:0:
154,94,36782,1,0,0:0:0:0:
156,273,37120,6,0,P|204:297|296:258,1,140
222,216,37626,2,0,P|279:185|350:223,1,140
406,276,38131,1,0,0:0:0:0:
464,208,38300,1,0,0:0:0:0:
443,121,38468,1,0,0:0:0:0:
366,76,38637,2,0,P|320:80|293:111,1,70
241,166,38974,1,0,0:0:0:0:
370,316,39311,5,0,0:0:0:0:
154,94,39479,1,0,0:0:0:0:
331,80,39816,6,0,L|474:80,1,140
473,166,40322,2,0,L|308:166,1,140
234,150,40828,1,0,0:0:0:0:
175,214,40996,1,0,0:0:0:0:
117,281,41165,1,0,0:0:0:0:
171,349,41333,2,0,P|219:363|257:355,1,70
322,339,41670,5,0,0:0:0:0:
383,277,41839,1,0,0:0:0:0:
402,203,42007,1,0,0:0:0:0:
223,285,42176,2,0,P|278:207|300:143,1,140
358,25,42850,2,0,B|438:93|415:130|374:282,1,280
230,293,43861,5,0,0:0:0:0:
203,258,43946,1,0,0:0:0:0:
180,227,44030,1,0,0:0:0:0:
153,192,44114,1,0,0:0:0:0:
128,160,44198,2,0,P|123:115|206:111,1,140
230,138,44620,1,0,0:0:0:0:
251,172,44704,1,0,0:0:0:0:
271,205,44788,1,0,0:0:0:0:
289,239,44873,1,0,0:0:0:0:
256,192,45210,12,0,46558,1:0:0:0:
283,198,46727,6,0,P|208:190|171:159,1,115.50000352478,0|0,1:0|1:0,1:0:0:0:
253,124,47401,2,0,P|315:124|353:167,1,115.50000352478,0|0,1:0|1:0,1:0:0:0:
350,248,48075,2,0,P|291:308|264:296,1,115.50000352478,0|0,1:0|1:0,1:0:0:0:
223,245,48749,1,0,1:0:0:0:
237,163,48918,2,0,P|294:161|327:160,1,77.0000023498536,0|0,1:0|1:0,1:0:0:0:
396,194,49423,6,0,P|351:247|303:250,1,115.50000352478,0|0,1:0|1:0,1:0:0:0:
236,298,50097,2,0,P|229:217|260:184,1,115.50000352478,0|0,1:0|1:0,1:0:0:0:
310,150,50771,1,0,1:0:0:0:
365,215,50940,1,0,1:0:0:0:
339,302,51109,1,0,1:0:0:0:
251,308,51277,2,0,P|217:273|214:269,2,38.5000011749268,0|0|0,1:0|1:0|1:0,1:0:0:0:
475,277,51951,5,0,1:0:0:0:
480,183,52120,2,0,P|456:120|406:101,1,115.50000352478,0|0,1:0|1:0,1:0:0:0:
338,112,52794,1,0,1:0:0:0:
277,159,52962,1,0,1:0:0:0:
238,221,53131,1,0,1:0:0:0:
277,159,53300,1,0,1:0:0:0:
338,112,53468,1,0,1:0:0:0:
403,68,53637,2,0,P|435:123|438:144,1,77.0000023498536,0|0,1:0|1:0,1:0:0:0:
415,309,54311,6,0,P|386:345|384:351,1,38.5000011749268,0|0,1:0|1:0,1:0:0:0:
118,297,54648,2,0,L|52:369,1,70
370,316,54985,5,0,0:0:0:0:
154,94,55153,1,0,0:0:0:0:
338,88,55491,5,0,0:0:0:0:
387,161,55659,1,0,0:0:0:0:
389,251,55828,1,0,0:0:0:0:
294,255,55996,2,0,P|306:190|248:138,1,140
168,130,56502,1,0,0:0:0:0:
108,203,56670,2,0,B|196:217|187:243|376:295,1,280
255,192,58019,5,0,0:0:0:0:
256,194,58693,2,0,P|380:177|250:241,1,420,0|4,1:0|1:0,1:0:0:0:
255,190,59873,5,0,1:0:0:0:
162,127,60041,1,0,1:0:0:0:
332,125,60210,1,0,1:0:0:0:
255,190,60379,1,0,1:0:0:0:
166,250,60547,5,0,1:0:0:0:
255,190,60715,1,0,1:0:0:0:
332,125,60884,1,0,1:0:0:0:
440,243,61052,5,0,1:0:0:0:
281,137,61221,1,0,1:0:0:0:
452,140,61389,1,0,1:0:0:0:
297,246,61558,1,0,1:0:0:0:
364,81,61727,1,0,1:0:0:0:
449,246,61895,1,0,1:0:0:0:
217,74,62064,1,4,1:0:0:0:
100,260,62401,6,0,L|31:329,1,70,0|0,1:0|1:0,1:0:0:0:
342,227,62738,5,0,1:0:0:0:
255,98,62906,1,0,1:0:0:0:
186,234,63075,1,0,1:0:0:0:
366,144,63243,1,0,1:0:0:0:
146,149,63412,1,0,1:0:0:0:
342,227,63580,5,0,1:0:0:0:
257,103,63749,1,0,1:0:0:0:
183,223,63918,5,0,1:0:0:0:
260,309,64086,1,0,1:0:0:0:
198,166,64255,1,0,1:0:0:0:
260,309,64423,1,0,1:0:0:0:
248,129,64592,1,0,1:0:0:0:
256,372,64760,1,4,1:0:0:0:
412,260,65097,6,0,L|481:329,1,70,0|0,1:0|1:0,1:0:0:0:
382,156,65434,5,0,1:0:0:0:
303,106,65603,1,0,1:0:0:0:
207,95,65771,1,0,1:0:0:0:
303,106,65940,5,0,1:0:0:0:
207,95,66109,1,0,1:0:0:0:
126,130,66277,1,0,1:0:0:0:
207,95,66446,5,0,1:0:0:0:
126,130,66614,1,0,1:0:0:0:
72,202,66783,2,0,P|94:288|153:300,1,140,0|0,1:0|1:0,1:0:0:0:
230,300,67288,1,0,1:0:0:0:
311,248,67457,1,4,1:0:0:0:
311,248,68131,5,0,1:0:0:0:
330,214,68215,1,0,1:0:0:0:
349,180,68299,1,0,1:0:0:0:
374,142,68383,1,0,1:0:0:0:
392,103,68468,1,0,1:0:0:0:
290,117,68805,5,0,1:0:0:0:
265,155,68889,1,0,1:0:0:0:
246,189,68973,1,0,1:0:0:0:
227,223,69057,1,0,1:0:0:0:
213,252,69142,2,0,P|165:292|135:289,1,70,0|0,1:0|1:0,1:0:0:0:
95,189,69479,5,0,1:0:0:0:
256,52,69648,1,0,1:0:0:0:
420,198,69816,1,0,1:0:0:0:
255,337,69985,1,0,1:0:0:0:
138,113,70153,1,0,1:0:0:0:
376,115,70322,1,0,1:0:0:0:
255,337,70491,1,0,1:0:0:0:
256,195,70828,6,0,P|207:144|289:198,1,420,0|0,1:0|1:0,1:0:0:0:
152,107,72176,5,0,1:0:0:0:
378,305,72345,1,4,1:0:0:0:
419,237,72513,1,0,1:0:0:0:
417,153,72682,1,0,1:0:0:0:
374,80,72850,5,0,1:0:0:0:
154,303,73019,1,4,1:0:0:0:
106,225,73188,1,0,1:0:0:0:
111,146,73356,1,0,1:0:0:0:
167,70,73524,5,0,1:0:0:0:
378,305,73693,1,4,1:0:0:0:
419,237,73862,1,0,1:0:0:0:
417,153,74030,1,0,1:0:0:0:
374,80,74198,5,0,1:0:0:0:
154,303,74367,1,4,1:0:0:0:
419,237,74536,6,0,L|488:306,1,70,0|0,1:0|1:0,1:0:0:0:
374,80,74873,5,0,1:0:0:0:
154,303,75042,1,4,1:0:0:0:
321,345,75378,6,0,P|342:301|318:264,1,70,0|0,1:0|1:0,1:0:0:0:
242,89,75715,1,4,1:0:0:0:
242,89,76052,6,0,P|280:93|285:138,1,70,0|0,1:0|1:0,1:0:0:0:
321,345,76389,1,4,1:0:0:0:
417,153,76558,1,0,1:0:0:0:
111,146,76727,2,0,P|191:145|288:262,1,210,0|0,1:0|1:0,1:0:0:0:
460,40,77738,6,0,L|420:125,3,70,0|0|0|0,1:0|1:0|1:0|1:0,1:0:0:0:
378,305,78580,6,0,L|447:374,1,70,0|0,1:0|1:0,1:0:0:0:
191,277,78918,6,0,P|156:237|161:132,1,140,0|0,1:0|1:0,1:0:0:0:
233,194,79423,2,0,P|278:167|328:89,1,140,0|0,1:0|1:0,1:0:0:0:
333,232,79929,2,0,P|379:184|412:106,1,140,0|0,1:0|1:0,1:0:0:0:
426,259,80434,2,0,P|460:215|468:186,1,70,0|0,1:0|1:0,1:0:0:0:
495,108,80771,1,0,1:0:0:0:
409,117,80940,2,0,P|380:181|333:232,1,140,0|0,1:0|1:0,1:0:0:0:
255,364,81614,5,0,1:0:0:0:
149,195,81783,1,0,1:0:0:0:
370,192,81951,1,0,1:0:0:0:
256,52,82120,1,0,1:0:0:0:
256,236,82288,5,0,1:0:0:0:
256,52,82457,1,0,1:0:0:0:
253,281,82625,1,0,1:0:0:0:
256,52,82794,1,0,1:0:0:0:
252,321,82962,6,0,P|308:338|401:292,1,140,0|0,1:0|1:0,1:0:0:0:
312,248,83468,2,0,P|255:232|181:173,1,140,0|4,1:0|1:0,1:0:0:0:
341,287,84311,5,0,1:0:0:0:
180,137,84479,1,0,1:0:0:0:
255,314,84648,1,0,1:0:0:0:
255,95,84816,5,0,1:0:0:0:
174,292,84985,1,0,1:0:0:0:
325,139,85153,1,0,1:0:0:0:
168,192,85322,5,0,1:0:0:0:
384,193,85490,1,0,1:0:0:0:
204,135,85659,1,0,1:0:0:0:
346,274,85828,5,0,1:0:0:0:
257,95,85996,1,0,1:0:0:0:
257,307,86165,1,0,1:0:0:0:
257,53,86333,1,0,1:0:0:0:
257,307,86502,1,0,1:0:0:0:
259,12,86670,1,0,1:0:0:0:
154,305,87007,5,0,1:0:0:0:
255,95,87176,1,0,1:0:0:0:
376,308,87345,1,0,1:0:0:0:
119,170,87513,1,0,1:0:0:0:
396,167,87682,1,0,1:0:0:0:
154,305,87850,1,0,1:0:0:0:
376,308,88019,5,0,1:0:0:0:
255,95,88188,1,0,1:0:0:0:
376,308,88357,1,0,1:0:0:0:
255,95,88524,1,0,1:0:0:0:
376,308,88693,1,0,1:0:0:0:
228,60,88861,1,0,1:0:0:0:
376,308,89030,1,0,1:0:0:0:
192,17,89198,1,0,1:0:0:0:
3,197,89367,1,0,1:0:0:0:
192,17,89536,1,0,1:0:0:0:
256,192,89704,12,0,91727,1:0:0:0:
254,191,95771,5,0,0:0:0:0:
