osu file format v14

[General]
AudioFilename: audio.mp3
AudioLeadIn: 0
PreviewTime: 215414
Countdown: 0
SampleSet: Soft
StackLeniency: 0.6
Mode: 0
LetterboxInBreaks: 0
WidescreenStoryboard: 1

[Editor]
DistanceSpacing: 0.84
BeatDivisor: 6
GridSize: 16
TimelineZoom: 2.2

[Metadata]
Title:Otonari wa Daare
TitleUnicode:お隣はだあれ
Artist:Chikamori Kayako
ArtistUnicode:浮森かや子
Creator:SuperBox
Version:Yoiyami
Source:
Tags:Japanese Classical female vocal chikamori_toto オトナリハダアレ 塚越雄一朗 NanosizeMir 幼蚕文庫 - メメント・モリ yosanbunko St.Rui's Studio Irin
BeatmapID:3289033
BeatmapSetID:1441287

[Difficulty]
HPDrainRate:7
CircleSize:4
OverallDifficulty:8
ApproachRate:9
SliderMultiplier:1.9
SliderTickRate:1

[Events]
//Background and Video events
0,0,"gracg_wroks_view_1542279.jpg",0,0
//Break Periods
2,53403,55393
2,136719,138604
//Storyboard Layer 0 (Background)
//Storyboard Layer 1 (Fail)
//Storyboard Layer 2 (Pass)
//Storyboard Layer 3 (Foreground)
//Storyboard Layer 4 (Overlay)
//Storyboard Sound Samples

[TimingPoints]
1189,436.363636363636,3,2,1,25,1,0
1625,416.666666666667,3,2,1,25,1,0
2250,458.015267175573,3,2,1,25,1,0
2479,400,3,2,1,25,1,0
2479,-200,3,2,1,25,0,0
3279,436.363636363636,3,2,1,25,1,0
3569,-200,3,2,1,25,0,0
3715,444.444444444444,3,2,1,25,1,0
3715,-200,3,2,1,25,0,0
5048,449.438202247191,3,2,1,25,1,0
6396,434.782608695652,3,2,1,25,1,0
7700,428.571428571429,3,2,1,25,1,0
8557,416.666666666667,3,2,1,25,1,0
8834,-200,3,2,1,25,0,0
8975,434.782608695652,3,2,1,25,1,0
8975,-200,3,2,1,25,0,0
9844,500,3,2,1,25,1,0
9844,-200,3,2,1,25,0,0
10010,576.923076923077,3,2,1,25,1,0
10010,-200,3,2,1,25,0,0
10299,444.444444444444,3,2,1,25,1,0
10299,-200,3,2,1,25,0,0
10669,-200,3,2,1,25,0,0
11187,-200,3,2,1,5,0,0
11632,416.666666666667,3,2,1,25,1,0
12050,428.571428571429,3,2,1,25,1,0
12907,419.58041958042,3,2,1,25,1,0
12907,-200,3,2,1,25,0,0
13746,428.571428571429,3,2,1,25,1,0
14031,-200,3,2,1,25,0,0
14175,408.163265306122,3,2,1,25,1,0
14583,428.571428571429,3,2,1,25,1,0
14583,-200,3,2,1,25,0,0
15011,449.438202247191,3,2,1,25,1,0
15460,458.015267175573,3,2,1,25,1,0
15918,447.761194029851,3,2,1,25,1,0
16365,459.770114942529,3,2,1,25,1,0
16824,472.44094488189,3,2,1,25,1,0
17768,466.926070038911,3,2,1,25,1,0
18234,504.201680672269,3,2,1,25,1,0
18234,-200,3,2,1,25,0,0
19494,545.454545454546,3,2,1,25,1,0
19756,521.739130434783,3,2,1,25,1,0
20277,526.315789473684,3,2,1,25,1,0
20803,547.945205479452,3,2,1,25,1,0
21351,570.884871550904,3,2,1,25,1,0
21351,-200,3,2,1,25,0,0
22492,375,3,2,1,40,1,0
22867,389.61038961039,3,2,1,50,1,0
23256,377.358490566038,3,2,1,60,1,0
23256,-83.3333333333333,3,2,1,60,0,0
31180,364.077669902913,3,2,1,60,1,0
32272,377.358490566038,3,2,1,60,1,0
32272,-83.3333333333333,3,2,1,60,0,0
35668,-200,3,2,1,30,0,0
36422,400,3,2,1,30,1,0
36822,319.148936170213,3,2,1,30,1,0
36822,-250,3,2,1,30,0,0
37087,-250,3,2,1,5,0,0
37141,379.746835443038,3,2,1,33,1,0
37141,-133.333333333333,3,2,1,33,0,0
37457,-133.333333333333,3,2,1,5,0,0
37520,410.958904109589,3,2,1,36,1,0
37520,-125,3,2,1,36,0,0
37862,-125,3,2,1,5,0,0
37932,319.148936170213,3,2,1,39,1,0
37932,-200,3,2,1,39,0,0
38197,-200,3,2,1,5,0,0
38251,416.666666666667,3,2,1,42,1,0
38251,-117.647058823529,3,2,1,42,0,0
38598,-200,3,2,1,5,0,0
38668,369.230769230769,3,2,1,45,1,0
38668,-111.111111111111,3,2,1,45,0,0
38976,-200,3,2,1,5,0,0
39037,365.853658536585,3,2,1,48,1,0
39037,-166.666666666667,3,2,1,48,0,0
39341,-200,3,2,1,5,0,0
39402,437.956204379562,3,2,1,51,1,0
39402,-105.263157894737,3,2,1,51,0,0
39766,-200,3,2,1,5,0,0
39839,404.040404040404,3,2,1,54,1,0
39839,-100,3,2,1,54,0,0
40175,-200,3,2,1,5,0,0
40243,454.545454545455,3,2,1,60,1,0
40243,-133.333333333333,3,2,1,60,0,0
40621,-200,3,2,1,5,0,0
40697,502.092050209205,3,2,1,60,1,0
40697,-200,3,2,1,60,0,0
41115,-200,3,2,1,5,0,0
41198,585.365853658537,3,2,1,60,1,0
41198,-400,3,2,1,60,0,0
41685,-200,3,2,1,5,0,0
41783,315.789473684211,3,2,1,60,1,0
41783,-100,3,2,1,60,0,1
41835,-100,3,2,1,60,0,0
52204,-83.3333333333333,3,2,1,60,0,0
53151,-50,3,2,1,60,0,0
55993,-50,3,2,1,60,0,0
56888,-50,3,2,1,60,0,0
56940,-100,3,2,4,40,0,0
60730,-250,3,2,4,40,0,0
64519,-133.333333333333,3,2,4,40,0,0
65151,-250,3,2,4,40,0,0
66414,-200,3,2,4,40,0,0
67361,-153.846153846154,3,2,4,40,0,0
68309,-250,3,2,4,40,0,0
75256,-125,3,2,1,60,0,0
75572,-111.111111111111,3,2,1,60,0,0
75888,-100,3,2,1,60,0,1
79677,-66.6666666666667,3,2,1,60,0,1
81572,-50,3,2,1,60,0,1
81625,-50,3,2,1,60,0,0
82046,-100,3,2,4,60,0,0
82519,-200,3,2,1,60,0,0
83467,-250,3,2,4,40,0,0
87256,-133.333333333333,3,2,4,40,0,0
87888,-250,3,2,4,40,0,0
89151,-200,3,2,4,40,0,0
90098,-153.846153846154,3,2,4,40,0,0
91046,-250,3,2,4,40,0,0
96414,-133.333333333333,3,2,4,40,0,0
98309,-250,3,2,4,40,0,0
98625,-100,3,2,1,50,0,0
99572,-76.9230769230769,3,2,1,50,0,0
100519,-100,3,2,1,50,0,0
104940,-83.3333333333333,3,2,1,50,0,0
106204,-125,3,2,1,60,0,0
108098,-100,3,2,1,50,0,0
109993,-100,3,2,1,50,0,0
111888,-100,3,2,1,60,0,0
112835,-76.9230769230769,3,2,1,60,0,0
113151,-100,3,2,1,60,0,0
113783,-55.5555555555556,3,2,1,70,0,1
114098,-66.6666666666667,3,2,1,70,0,1
114414,-55.5555555555556,3,2,1,70,0,1
114730,-133.333333333333,3,2,1,70,0,1
115046,-66.6666666666667,3,2,1,70,0,1
115677,-55.5555555555556,3,2,1,70,0,1
115993,-66.6666666666667,3,2,1,70,0,1
116309,-55.5555555555556,3,2,1,70,0,1
116625,-66.6666666666667,3,2,1,70,0,1
117572,-133.333333333333,3,2,1,70,0,1
119467,-66.6666666666667,3,2,1,70,0,1
120098,-62.5,3,2,1,70,0,1
120414,-55.5555555555556,3,2,1,70,0,1
121046,-66.6666666666667,3,2,1,70,0,1
121361,-55.5555555555556,3,2,1,70,0,1
121677,-66.6666666666667,3,2,1,70,0,1
121993,-55.5555555555556,3,2,1,70,0,1
122309,-133.333333333333,3,2,1,70,0,1
122625,-66.6666666666667,3,2,1,70,0,1
123256,-55.5555555555556,3,2,1,70,0,1
123572,-66.6666666666667,3,2,1,70,0,1
123888,-55.5555555555556,3,2,1,70,0,1
125309,-111.111111111111,3,2,1,70,0,1
125625,-66.6666666666667,3,2,1,70,0,1
126098,-133.333333333333,3,2,1,70,0,1
126414,-66.6666666666667,3,2,1,70,0,1
127993,-66.6666666666667,3,2,1,70,0,0
128256,-58.8235294117647,3,2,1,60,0,0
128940,-100,3,2,1,60,0,0
135572,-76.9230769230769,3,2,4,60,0,0
139204,-100,3,2,4,60,0,0
140256,-100,3,2,4,60,0,0
140309,-250,3,2,4,40,0,0
144098,-133.333333333333,3,2,4,40,0,0
144730,-250,3,2,4,40,0,0
145993,-200,3,2,4,40,0,0
146940,-153.846153846154,3,2,4,40,0,0
147888,-250,3,2,4,40,0,0
153256,-133.333333333333,3,2,4,40,0,0
155151,-250,3,2,4,40,0,0
155467,-100,3,2,1,60,0,0
156414,-76.9230769230769,3,2,1,60,0,0
157361,-100,3,2,1,50,0,0
161783,-83.3333333333333,3,2,1,50,0,0
163046,-125,3,2,1,50,0,0
166835,-100,3,2,1,50,0,0
168730,-100,3,2,1,60,0,0
169677,-76.9230769230769,3,2,1,60,0,0
169993,-100,3,2,1,60,0,0
170625,-55.5555555555556,3,2,1,70,0,1
170940,-66.6666666666667,3,2,1,70,0,1
171256,-55.5555555555556,3,2,1,70,0,1
171572,-133.333333333333,3,2,1,70,0,1
171888,-66.6666666666667,3,2,1,70,0,1
172519,-55.5555555555556,3,2,1,70,0,1
172835,-66.6666666666667,3,2,1,70,0,1
173151,-55.5555555555556,3,2,1,70,0,1
173467,-66.6666666666667,3,2,1,70,0,1
174414,-133.333333333333,3,2,1,70,0,1
176309,-66.6666666666667,3,2,1,70,0,1
176940,-62.5,3,2,1,70,0,1
177256,-55.5555555555556,3,2,1,70,0,1
177888,-66.6666666666667,3,2,1,70,0,1
178203,-55.5555555555556,3,2,1,70,0,1
178519,-66.6666666666667,3,2,1,70,0,1
178835,-55.5555555555556,3,2,1,70,0,1
179151,-133.333333333333,3,2,1,70,0,1
179467,-66.6666666666667,3,2,1,70,0,1
180098,-55.5555555555556,3,2,1,70,0,1
180414,-66.6666666666667,3,2,1,70,0,1
180730,-55.5555555555556,3,2,1,70,0,1
182151,-111.111111111111,3,2,1,70,0,1
182467,-66.6666666666667,3,2,1,70,0,1
182940,-133.333333333333,3,2,1,70,0,1
183256,-66.6666666666667,3,2,1,70,0,1
184835,-50,3,2,1,70,0,0
185783,-333.333333333333,3,2,4,40,0,0
200940,-1000,3,2,4,45,0,0
204098,-500,3,2,4,45,0,0
204730,-1000,3,2,4,45,0,0
207888,-500,3,2,4,45,0,0
208519,-1000,3,2,4,45,0,0
212309,-250,3,2,4,45,0,0
214204,-324.675324675325,3,2,1,50,0,0
215467,-100,3,2,1,60,0,1
215519,-100,3,2,1,60,0,0
215783,-100,3,2,1,60,0,1
215835,-100,3,2,1,60,0,0
216098,-83.3333333333333,3,2,1,60,0,1
227467,-100,3,2,1,60,0,1
227888,-83.3333333333333,3,2,1,60,0,1
228414,-76.9230769230769,3,2,1,60,0,1
229361,-71.4285714285714,3,2,1,60,0,1
229993,-133.333333333333,3,2,1,60,0,1
230309,-111.111111111111,3,2,1,60,0,1
230625,-95.2380952380952,3,2,1,60,0,1
230941,-83.3333333333333,3,2,1,60,0,1
231256,-76.9230769230769,3,2,1,60,0,1
244519,329.67032967033,3,2,1,60,1,1
244573,-100,3,2,1,60,0,0
245508,352.941176470588,3,2,1,55,1,1
245508,-133.333333333333,3,2,1,55,0,1
245566,-133.333333333333,3,2,1,55,0,0
246213,363.636363636364,3,2,1,55,1,0
246578,387.096774193548,3,2,2,50,1,0
246578,-206.910821435961,3,2,2,50,0,0
248890,327.868852459016,3,2,1,25,1,0
249545,-500,3,2,1,25,0,0
254801,348.837209302326,3,2,1,30,1,0
255498,355.029585798817,3,2,1,30,1,0
255853,338.983050847458,3,2,1,35,1,0
256823,333.333333333333,3,2,2,35,1,0
256823,-285.714285714286,3,2,2,35,0,0
260489,-133.333333333333,3,2,2,35,0,0
260600,-133.333333333333,3,2,2,40,0,0
260711,-133.333333333333,3,2,2,45,0,0
260823,-100,3,2,1,50,0,0
262823,344.827586206897,3,2,1,55,1,0
263167,-90.9090909090909,3,2,1,55,0,0
263857,382.165605095541,3,2,1,60,1,0
263857,-76.9230769230769,3,2,1,60,0,0
264239,-100,3,2,1,60,0,0
264621,-333.333333333333,3,2,1,60,0,0
265003,315.789473684211,3,2,1,70,1,0
265003,-50,3,2,1,70,0,1
265318,-58.8235294117647,3,2,1,70,0,1
265634,-50,3,2,1,70,0,1
265950,-125,3,2,1,70,0,1
266266,-58.8235294117647,3,2,1,70,0,1
266897,-50,3,2,1,70,0,1
267213,-58.8235294117647,3,2,1,70,0,1
267528,-58.8235294117647,3,2,1,70,0,1
267845,-125,3,2,1,70,0,1
268160,-58.8235294117647,3,2,1,70,0,1
268792,-125,3,2,1,70,0,1
270687,-58.8235294117647,3,2,1,70,0,1
271318,-55.5555555555556,3,2,1,70,0,1
271634,-50,3,2,1,70,0,1
272266,-58.8235294117647,3,2,1,70,0,1
272581,-50,3,2,1,70,0,1
272897,-58.8235294117647,3,2,1,70,0,1
273212,-50,3,2,1,70,0,1
273529,-125,3,2,1,70,0,1
273845,-50,3,2,1,70,0,1
274476,-50,3,2,1,70,0,1
274792,-58.8235294117647,3,2,1,70,0,1
275107,-50,3,2,1,70,0,1
275424,-125,3,2,1,70,0,1
275739,-50,3,2,1,70,0,1
276529,-92.5925925925926,3,2,1,70,0,1
276845,-50,3,2,1,70,0,1
277318,-125,3,2,1,70,0,1
277950,-58.8235294117647,3,2,1,70,0,1
279213,-50,3,2,1,70,0,0
279529,-100,3,2,1,70,0,0
280160,-45.4545454545455,3,2,1,70,0,1
280476,-52.6315789473684,3,2,1,70,0,1
280792,-45.4545454545455,3,2,1,70,0,1
281108,-52.6315789473684,3,2,1,70,0,1
282055,-45.4545454545455,3,2,1,70,0,1
282371,-52.6315789473684,3,2,1,70,0,1
282687,-52.6315789473684,3,2,1,70,0,1
283003,-111.111111111111,3,2,1,70,0,1
283318,-52.6315789473684,3,2,1,70,0,1
283950,-111.111111111111,3,2,1,70,0,1
285529,-83.3333333333333,3,2,1,70,0,1
285845,-52.6315789473684,3,2,1,70,0,1
286476,-50,3,2,1,70,0,1
286792,-45.4545454545455,3,2,1,70,0,1
287424,-52.6315789473684,3,2,1,70,0,1
287739,-45.4545454545455,3,2,1,70,0,1
288055,-52.6315789473684,3,2,1,70,0,1
288371,-45.4545454545455,3,2,1,70,0,1
288687,-52.6315789473684,3,2,1,70,0,1
289634,-45.4545454545455,3,2,1,70,0,1
289950,-52.6315789473684,3,2,1,70,0,1
290266,-45.4545454545455,3,2,1,70,0,1
290581,-111.111111111111,3,2,1,70,0,1
290897,-45.4545454545455,3,2,1,70,0,1
291687,-74.0740740740741,3,2,1,70,0,1
292002,-45.4545454545455,3,2,1,70,0,1
292476,-111.111111111111,3,2,1,70,0,1
293108,-52.6315789473684,3,2,1,70,0,1
294371,-52.6315789473684,3,2,1,70,0,0
294634,-58.8235294117647,3,2,1,70,0,0
295328,315.789473684211,3,2,1,60,1,0
295328,-71.4285714285714,3,2,1,60,0,1
299433,-71.4285714285714,3,2,1,45,0,0
299749,333.333333333333,3,2,1,45,1,0
300415,342.857142857143,3,2,1,45,1,0
300759,348.837209302326,3,2,1,45,1,0
300971,400,3,2,1,45,1,0
301104,361.44578313253,3,2,1,45,1,0
301827,385.852090032154,3,2,1,45,1,0
302213,315.789473684211,3,2,1,50,1,0
302213,-125,3,2,1,50,0,0
303791,-200,3,2,1,60,0,0

[Colours]
Combo1 : 231,126,71
Combo2 : 228,205,73
Combo3 : 29,113,226
Combo4 : 98,204,218

[HitObjects]
139,100,1189,5,2,0:0:0:0:
148,113,1625,5,2,0:0:0:0:
190,43,1833,1,0,0:0:0:0:
169,121,2041,1,0,0:0:0:0:
168,42,2250,1,0,0:0:0:0:
249,173,2402,5,0,0:0:0:0:
258,175,2479,6,0,B|302:175|318:172|364:159,2,95,2|0|0,0:0|0:0|0:0,0:0:0:0:
151,34,3569,2,0,B|161:33|171:31|180:26,1,15.8333333333333
145,46,3715,2,0,B|101:41|88:38|49:24,2,95,2|0|0,0:0|0:0|0:0,0:0:0:0:
121,316,5048,5,2,0:0:0:0:
447,220,6396,5,2,0:0:0:0:
435,204,6830,5,2,0:0:0:0:
379,285,7048,1,0,0:0:0:0:
415,199,7265,1,0,0:0:0:0:
400,291,7482,1,0,0:0:0:0:
321,166,7627,5,0,0:0:0:0:
330,163,7700,5,2,0:0:0:0:
498,204,8128,1,0,0:0:0:0:
383,322,8557,1,0,0:0:0:0:
283,205,8834,6,0,B|290:202|298:197|301:190,1,15.8333333333333
275,214,8975,2,0,B|236:197|227:196|174:193,1,95,2|0,0:0|0:0,0:0:0:0:
390,340,9844,1,2,0:0:0:0:
390,260,10010,6,0,P|405:267|414:274,2,15.8333333333333
366,218,10299,1,2,0:0:0:0:
366,218,10373,2,0,P|283:218|188:239,1,174.166666666667
46,159,11632,5,2,0:0:0:0:
54,175,12049,5,2,0:0:0:0:
149,232,12263,1,0,0:0:0:0:
64,197,12478,1,0,0:0:0:0:
165,217,12692,1,0,0:0:0:0:
41,282,12907,6,0,B|56:312|63:331|65:383,2,95,2|0|0,0:0|0:0|0:0,0:0:0:0:
50,139,14031,2,0,B|40:139|32:133|30:122,1,15.8333333333333
56,150,14174,1,2,0:0:0:0:
188,196,14583,2,0,B|217:177|243:172|289:185,1,95,2|0,0:0|0:0,0:0:0:0:
417,31,15460,5,2,0:0:0:0:
400,25,15918,5,0,0:0:0:0:
325,61,16141,1,0,0:0:0:0:
340,144,16365,1,0,0:0:0:0:
418,193,16824,5,2,0:0:0:0:
512,147,17296,1,2,0:0:0:0:
485,46,17768,1,2,0:0:0:0:
391,24,18234,2,0,P|402:33|413:37,1,15.8333333333333,2|0,0:0|0:0,0:0:0:0:
378,35,18738,5,2,0:0:0:0:
301,83,18990,1,0,0:0:0:0:
319,170,19242,1,0,0:0:0:0:
407,190,19494,1,0,0:0:0:0:
474,129,19756,1,0,0:0:0:0:
28,191,20277,5,2,0:0:0:0:
138,249,20803,1,2,0:0:0:0:
32,308,21351,2,0,B|35:300|37:294|37:281,1,15.8333333333333,2|0,0:0|0:0,0:0:0:0:
120,92,22492,5,6,0:0:0:0:
211,275,22867,5,6,0:0:0:0:
264,189,23191,5,0,0:0:0:0:
255,184,23256,6,0,P|199:190|128:162,1,113.999996520996,14|0,2:2|0:0,0:0:0:0:
313,130,23634,1,2,0:0:0:0:
352,208,23822,1,2,0:0:0:0:
276,259,24011,1,2,0:0:0:0:
192,127,24199,1,2,0:0:0:0:
257,56,24325,5,0,0:0:0:0:
262,64,24388,6,0,B|314:69|355:91|355:91|388:146|388:146|417:173|477:179,2,227.999993041992,12|2|2,0:2|0:0|0:0,0:0:0:0:
474,149,25457,1,0,0:0:0:0:
464,149,25520,6,0,B|410:110|410:110|364:119|316:97|316:97|249:121,2,227.999993041992,14|2|2,0:2|0:0|0:0,0:0:0:0:
256,192,26652,12,0,27658,0:0:0:0:
143,292,27721,5,0,0:0:0:0:
134,297,27784,6,0,P|99:292|34:244,1,113.999996520996,14|0,2:2|0:0,0:0:0:0:
193,351,28162,1,2,0:0:0:0:
111,384,28350,1,2,0:0:0:0:
52,272,28539,1,2,0:0:0:0:
221,197,28727,1,2,0:0:0:0:
190,261,28853,5,0,0:0:0:0:
182,266,28916,6,0,B|135:236|119:188|119:188|123:144|116:104|60:59,2,227.999993041992,12|2|2,0:2|0:0|0:0,0:0:0:0:
8,168,29985,1,0,0:0:0:0:
11,178,30048,6,0,B|37:158|37:158|70:156|129:180|129:180|185:162|214:106,2,227.999993041992,14|2|2,0:2|0:0|0:0,0:0:0:0:
256,192,31180,12,0,32150,0:0:0:0:
306,47,32211,5,0,0:0:0:0:
311,39,32272,6,0,P|345:35|422:69,1,113.999996520996,14|0,2:2|0:0,0:0:0:0:
269,119,32650,1,2,0:0:0:0:
235,40,32838,1,2,0:0:0:0:
117,74,33027,1,2,0:0:0:0:
166,241,33215,1,2,0:0:0:0:
180,172,33341,5,0,0:0:0:0:
190,174,33404,6,0,B|266:129|290:174|323:148|323:148|324:103|377:64,2,227.999993041992,12|2|2,0:2|0:0|0:0,0:0:0:0:
182,32,34473,1,0,0:0:0:0:
187,23,34536,6,0,B|205:43|223:97|223:97|279:126|279:126|276:182|302:240,2,227.999993041992,14|2|2,0:2|0:0|0:0,0:0:0:0:
237,114,35668,6,0,B|270:140|289:145|333:147,1,95
338,157,36171,2,0,L|368:122,1,31.6666666666667
322,183,36422,1,0,0:0:0:0:
322,183,36822,6,0,P|344:205|371:227,1,63.3333333333333,2|0,0:0|0:0,0:0:0:0:
272,129,37141,2,0,B|219:110|205:109|153:112,1,118.750004529953,2|0,0:0|0:0,0:0:0:0:
347,153,37520,2,0,B|397:125|405:116|437:66,1,126.666666666667,2|0,0:0|0:0,0:0:0:0:
282,206,37932,6,0,B|267:242|265:251|269:289,1,79.1666666666667,2|0,0:0|0:0,0:0:0:0:
357,177,38251,2,0,B|420:159|434:152|483:100,1,134.583335900307,2|0,0:0|0:0,0:0:0:0:
280,148,38668,2,0,B|253:92|244:81|186:45,1,142.499995651245,2|0,0:0|0:0,0:0:0:0:
230,149,39037,6,0,B|198:171|190:178|162:222,1,94.9999971008302,2|0,0:0|0:0,0:0:0:0:
272,228,39402,2,0,B|321:273|332:279|414:295,1,150.416662650108,2|0,0:0|0:0,0:0:0:0:
314,155,39839,2,0,B|342:90|344:75|319:-7,1,158.333333333333,2|0,0:0|0:0,0:0:0:0:
212,47,40243,6,0,B|163:20|144:19|84:37,1,118.750004529953,2|0,0:0|0:0,0:0:0:0:
127,207,40697,6,0,B|150:207|169:202|192:159,1,79.1666666666667,10|0,0:2|0:0,0:0:0:0:
1,248,41198,6,0,P|21:265|33:273,1,39.5833333333333,10|0,0:2|0:0,0:0:0:0:
66,253,41783,6,0,B|151:234|176:240|248:299,1,190,14|2,0:3|0:0,0:0:0:0:
295,152,42256,1,2,0:0:0:0:
127,207,42414,2,0,B|174:202|187:195|216:156,1,95,10|2,0:0|0:0,0:0:0:0:
400,309,42730,6,0,B|319:325|292:318|231:225,1,190,10|2,0:3|0:0,0:0:0:0:
170,279,43151,1,0,0:0:0:0:
130,313,43256,1,0,0:0:0:0:
77,304,43361,2,0,P|65:224|49:161,1,126.666666666667,10|0,0:0|1:0,0:0:0:0:
27,139,43625,5,0,1:0:0:0:
27,139,43677,2,0,B|137:146|113:203|208:209,1,190,10|2,1:3|0:0,0:0:0:0:
287,201,44098,1,0,0:0:0:0:
329,244,44204,1,0,0:0:0:0:
388,240,44309,2,0,L|402:169,1,63.3333333333333,10|0,0:0|0:0,0:0:0:0:
93,218,44625,6,0,B|120:272|131:284|183:304,1,126.666666666667,10|0,1:3|0:0,0:0:0:0:
254,273,44940,2,0,L|290:284,2,31.6666666666667,10|0|0,0:0|0:0|0:0,0:0:0:0:
287,201,45150,1,2,0:0:0:0:
257,128,45256,2,0,B|203:95|183:97|134:159,1,126.666666666667,10|0,0:0|0:0,0:0:0:0:
0,210,45572,6,0,B|83:183|99:181|201:185,1,190,14|2,1:3|0:0,0:0:0:0:
163,18,46046,1,2,0:0:0:0:
24,111,46204,2,0,B|54:137|69:141|131:141,1,95,10|2,0:0|0:0,0:0:0:0:
354,219,46519,6,0,B|279:246|235:233|180:144,1,190,10|2,0:3|0:0,0:0:0:0:
187,64,46941,1,0,0:0:0:0:
235,27,47046,1,0,0:0:0:0:
290,27,47151,2,0,B|324:76|330:94|338:153,1,126.666666666667,10|0,0:0|1:0,0:0:0:0:
315,191,47414,5,0,1:0:0:0:
315,191,47467,2,0,P|240:168|169:164,1,126.666666666667,10|0,1:3|0:0,0:0:0:0:
387,144,47783,2,0,P|418:153|449:158,1,63.3333333333333,2|0,0:0|0:0,0:0:0:0:
468,147,47940,1,0,0:0:0:0:
473,141,47993,1,0,0:0:0:0:
361,125,48098,6,0,B|413:95|427:82|463:33,1,126.666666666667,10|0,0:0|0:0,0:0:0:0:
318,49,48414,6,0,B|295:14|270:8|235:10,1,95,10|0,0:3|0:0,0:0:0:0:
266,127,48651,1,0,0:0:0:0:
239,112,48730,2,0,B|201:110|175:129|159:182,1,95,8|0,0:3|0:0,0:0:0:0:
308,190,48967,1,0,0:0:0:0:
277,226,49046,2,0,B|291:276|314:301|390:303,1,142.5,8|0,1:3|0:0,0:0:0:0:
474,213,49361,6,0,B|411:168|386:153|291:130,1,190,14|2,0:3|0:0,0:0:0:0:
374,28,49835,1,2,0:0:0:0:
172,27,49993,2,0,B|194:58|201:74|207:132,1,95,10|2,0:0|0:0,0:0:0:0:
409,134,50309,6,0,B|330:152|295:166|222:211,1,190,10|2,0:3|0:0,0:0:0:0:
155,253,50729,1,0,0:0:0:0:
100,277,50834,1,0,0:0:0:0:
46,250,50940,2,0,B|17:213|9:190|14:123,1,126.666666666667,10|0,0:0|1:0,0:0:0:0:
0,107,51203,5,0,1:0:0:0:
0,107,51256,2,0,B|81:91|122:104|183:174,1,190,10|2,1:3|0:0,0:0:0:0:
252,229,51677,1,0,0:0:0:0:
300,265,51783,1,0,0:0:0:0:
360,258,51888,2,0,L|375:187,1,63.3333333333333,10|0,0:0|0:0,0:0:0:0:
382,206,52204,6,0,B|334:200|306:211|265:248,1,113.999996520996,10|0,1:3|0:0,0:0:0:0:
233,160,52440,1,0,0:0:0:0:
201,139,52519,2,0,B|171:175|171:208|194:250,1,113.999996520996,10|0,0:0|0:0,0:0:0:0:
102,236,52756,1,2,0:0:0:0:
58,263,52835,2,0,B|81:335|119:369|208:352,1,170.999994781494,10|0,0:0|0:0,0:0:0:0:
328,239,53151,6,0,L|256:216,1,63.3333333333333,14|0,0:3|0:0,0:0:0:0:
256,192,55993,12,0,56888,0:0:0:0:
79,88,56940,5,10,3:2:0:0:
61,82,57256,1,2,0:0:0:0:
53,59,57361,1,2,0:0:0:0:
50,86,57467,1,2,0:0:0:0:
44,60,57572,1,10,3:3:0:0:
114,290,57888,1,10,0:3:0:0:
29,274,58204,1,2,0:0:0:0:
0,196,58519,1,2,0:0:0:0:
182,247,58835,5,10,0:0:0:0:
189,227,59151,1,2,0:0:0:0:
201,250,59256,1,2,0:0:0:0:
200,219,59362,1,2,0:0:0:0:
216,244,59467,1,10,0:3:0:0:
509,228,59783,1,10,3:2:0:0:
423,214,60098,1,10,0:3:0:0:
367,276,60414,1,10,0:3:0:0:
189,227,60730,6,0,B|139:270|120:273|43:267,1,152,10|8,0:2|0:3,0:0:0:0:
175,234,61677,2,0,B|112:251|88:249|25:208,1,152,10|0,0:3|0:0,0:0:0:0:
210,224,62625,2,0,P|240:241|282:247,2,76,10|2|10,0:3|0:0|0:3,0:0:0:0:
75,371,63572,5,10,0:0:0:0:
94,290,63835,2,0,L|90:267,2,12.6666666666667,0|8|0,0:0|0:3|0:0,0:0:0:0:
81,271,64204,1,10,0:3:0:0:
241,225,64519,6,0,B|176:233|159:228|99:182,2,142.500005435944,10|2|10,0:2|0:0|0:3,0:0:0:0:
314,126,65467,2,0,B|341:112|352:110|391:112,2,76,10|2|10,0:3|0:0|0:3,0:0:0:0:
275,261,66414,2,0,B|276:302|274:312|252:360,2,95,10|2|10,0:2|0:0|0:3,0:0:0:0:
157,144,67361,2,0,B|110:123|98:103|86:39,2,123.499994346619,10|10|10,0:2|0:3|0:3,0:0:0:0:
313,272,68309,6,0,B|381:267|401:257|434:194,1,152,10|8,0:2|0:3,0:0:0:0:
329,289,69256,2,0,B|389:268|404:249|414:172,1,152,10|0,0:3|0:0,0:0:0:0:
297,255,70204,2,0,P|259:248|227:221,2,76,10|2|10,0:3|0:0|0:3,0:0:0:0:
480,384,71151,5,10,0:0:0:0:
414,314,71414,2,0,L|410:293,2,12.6666666666667,0|8|0,0:0|0:3|0:0,0:0:0:0:
404,327,71783,1,10,0:3:0:0:
492,268,72098,5,10,0:2:0:0:
356,252,72414,1,2,0:0:0:0:
244,171,72730,1,10,0:3:0:0:
223,209,73046,5,10,0:3:0:0:
302,231,73362,1,2,0:0:0:0:
373,188,73678,1,10,0:3:0:0:
331,105,73993,5,10,0:2:0:0:
249,181,74309,1,2,0:0:0:0:
128,175,74625,1,10,0:3:0:0:
106,130,74940,5,10,0:2:0:0:
106,130,75256,2,0,B|89:157|95:177|130:193,1,76,10|0,0:3|0:0,0:0:0:0:
238,283,75572,2,0,B|267:261|271:245|244:208,1,85.4999973907472,10|0,0:3|0:0,0:0:0:0:
84,263,75888,6,0,B|161:276|203:251|242:164,1,190,12|2,0:3|0:0,0:0:0:0:
113,178,76361,1,2,0:0:0:0:
160,324,76519,2,0,B|181:292|185:269|172:219,1,95,10|0,0:0|0:0,0:0:0:0:
232,135,76835,5,10,0:3:0:0:
123,92,76993,1,0,0:0:0:0:
23,152,77151,1,2,0:0:0:0:
39,279,77309,1,0,0:0:0:0:
153,321,77467,1,10,0:0:0:0:
256,256,77625,1,0,0:0:0:0:
284,129,77783,5,10,0:3:0:0:
399,85,77940,1,0,0:0:0:0:
505,145,78098,1,2,0:0:0:0:
489,273,78256,1,0,0:0:0:0:
365,312,78414,1,10,0:0:0:0:
263,239,78572,1,0,0:0:0:0:
239,134,78730,6,0,P|254:81|255:56,2,63.3333333333333,10|2|2,0:3|0:0|0:0,0:0:0:0:
160,147,79046,2,0,P|137:125|102:106,2,63.3333333333333,10|2|2,0:0|0:0|0:0,0:0:0:0:
126,217,79361,2,0,P|96:211|65:215,1,63.3333333333333,10|2,0:0|0:0,0:0:0:0:
177,292,79572,5,2,0:0:0:0:
177,292,79625,1,0,0:0:0:0:
177,292,79677,2,0,B|161:352|111:373|55:327,1,142.500005435944,10|0,0:3|0:0,0:0:0:0:
167,117,79993,5,2,0:0:0:0:
167,117,80151,1,0,0:0:0:0:
327,242,80309,2,0,B|267:258|237:243|214:186,1,142.500005435944,10|0,0:0|0:0,0:0:0:0:
422,158,80624,5,2,0:0:0:0:
304,12,80782,1,0,0:0:0:0:
120,42,80940,1,2,0:0:0:0:
52,216,81098,1,0,0:0:0:0:
170,362,81256,1,2,0:0:0:0:
354,332,81414,1,0,0:0:0:0:
428,173,81572,6,0,L|365:191,1,63.3333333333333,14|0,0:3|0:0,0:0:0:0:
390,107,82046,6,0,B|330:106|433:242|467:109|610:222|432:269|447:203,1,253.333333333333,6|0,0:3|0:0,0:0:0:0:
438,216,82519,6,0,B|437:270|651:244|425:46|441:221|366:203|417:269,1,269.166666666667,8|0,3:3|0:0,0:0:0:0:
428,296,83467,6,0,B|365:283|331:291|283:346,1,152,10|8,0:2|0:3,0:0:0:0:
418,311,84414,2,0,B|363:286|333:285|276:326,1,152,10|0,0:3|0:0,0:0:0:0:
437,284,85362,2,0,P|472:291|513:282,2,76,10|2|10,0:3|0:0|0:3,0:0:0:0:
251,205,86309,5,10,0:0:0:0:
320,281,86572,2,0,L|314:303,2,12.6666666666667,0|8|0,0:0|0:3|0:0,0:0:0:0:
306,270,86941,1,10,0:3:0:0:
298,111,87256,6,0,B|364:95|378:91|440:68,2,142.500005435944,10|2|10,0:2|0:0|0:3,0:0:0:0:
265,241,88204,2,0,B|251:277|247:286|233:310,2,76,10|2|10,0:3|0:0|0:3,0:0:0:0:
168,100,89151,2,0,B|162:62|159:50|143:3,2,95,10|2|10,0:2|0:0|0:3,0:0:0:0:
249,217,90098,2,0,B|305:230|317:232|383:237,2,123.499994346619,10|10|10,0:2|0:3|0:3,0:0:0:0:
25,241,91046,6,0,B|92:223|108:214|149:158,1,152,10|8,0:2|0:3,0:0:0:0:
18,226,91993,2,0,B|86:227|102:221|165:176,1,152,10|0,0:3|0:0,0:0:0:0:
32,259,92941,2,0,P|18:303|-3:328,2,76,10|2|10,0:3|0:0|0:3,0:0:0:0:
116,68,93888,5,10,0:0:0:0:
82,185,94151,2,0,L|70:166,2,12.6666666666667,0|8|0,0:0|0:3|0:0,0:0:0:0:
90,165,94520,1,10,0:3:0:0:
0,222,94835,5,10,0:2:0:0:
145,268,95151,1,2,0:0:0:0:
274,199,95467,1,10,0:3:0:0:
224,182,95783,5,10,0:3:0:0:
148,218,96099,1,2,0:0:0:0:
67,202,96414,2,0,L|59:149,2,47.5000018119813,10|0|0,0:3|0:0|0:0,0:0:0:0:
113,291,96730,6,0,P|167:297|210:270,1,95.0000036239625,10|0,0:2|0:0,0:0:0:0:
208,297,97046,2,0,P|240:318|296:319,1,95.0000036239625,2|0,0:0|0:0,0:0:0:0:
295,342,97361,2,0,P|317:318|341:293,1,47.5000018119813,10|0,0:3|0:0,0:0:0:0:
329,283,97571,1,0,0:0:0:0:
323,270,97677,5,10,0:2:0:0:
237,295,97835,1,2,0:0:0:0:
273,384,97993,1,10,0:3:0:0:
402,353,98151,1,2,0:0:0:0:
348,173,98309,6,0,P|320:185|323:161,1,63.3333333333333,10|0,0:3|0:0,0:0:0:0:
412,145,98625,6,0,P|394:47|336:216,1,538.333333333333,14|0,0:3|0:0,0:0:0:0:
472,221,99572,2,0,P|488:57|407:252,1,699.833301297507,14|0,0:3|0:0,0:0:0:0:
403,224,100519,5,2,1:2:0:0:
162,293,100835,2,0,B|116:291|101:284|55:249,1,95,2|0,0:0|0:0,0:0:0:0:
37,199,101151,1,2,1:2:0:0:
36,185,101467,5,2,1:2:0:0:
324,264,101783,2,0,B|281:267|266:263|222:244,1,95,2|0,1:2|0:0,0:0:0:0:
12,294,102098,2,0,B|47:272|62:268|107:264,1,95,2|0,1:2|0:0,0:0:0:0:
263,179,102414,5,2,0:0:0:0:
123,244,102730,2,0,B|40:241|0:182|25:105,1,190,2|0,0:0|0:0,0:0:0:0:
268,160,103361,5,2,0:0:0:0:
75,165,103677,2,0,B|72:89|144:46|213:94,1,190,2|2,0:0|0:0,0:0:0:0:
215,110,104098,2,0,P|188:115|150:92,1,63.3333333333333
256,188,104309,6,0,B|240:247|190:258|141:253,1,126.666666666667,2|0,0:0|0:0,0:0:0:0:
247,106,104625,2,0,B|233:61|255:19|304:1,1,126.666666666667,2|0,0:0|0:0,0:0:0:0:
377,193,104940,2,0,B|403:212|409:194|409:194|398:135|316:147,1,151.999995361328,2|0,0:0|0:0,0:0:0:0:
495,197,105256,6,0,P|410:226|259:266,1,227.999993041992,10|10,0:3|0:0,0:0:0:0:
208,212,105730,1,0,0:0:0:0:
467,306,105888,2,0,B|434:284|402:277|352:275,1,113.999996520996,10|0,0:0|0:0,0:0:0:0:
356,67,106204,6,0,B|418:93|443:125|416:198,1,152,14|0,0:3|0:0,0:0:0:0:
356,67,106835,1,8,0:0:0:0:
119,358,107151,2,0,B|60:331|39:296|50:219,1,152,2|0,1:2|0:0,0:0:0:0:
119,358,107783,1,2,1:2:0:0:
272,224,108098,5,2,1:2:0:0:
187,230,108414,1,2,1:2:0:0:
276,241,108730,1,2,1:2:0:0:
269,260,109046,5,2,1:2:0:0:
94,240,109361,2,0,B|131:240|147:247|188:279,1,95,2|0,1:2|0:0,0:0:0:0:
350,288,109677,2,0,B|315:304|296:304|256:291,1,95,2|0,0:0|0:0,0:0:0:0:
70,162,109993,5,2,1:2:0:0:
212,355,110309,2,0,B|284:356|333:311|315:223,1,190,0|10,0:0|0:0,0:0:0:0:
435,175,110940,5,2,0:0:0:0:
224,336,111256,2,0,B|186:333|164:317|150:268,1,95
241,139,111572,5,2,0:0:0:0:
395,309,111730,1,2,0:0:0:0:
384,315,111783,1,2,0:0:0:0:
376,320,111835,1,2,0:0:0:0:
366,322,111888,2,0,P|326:322|264:297,1,95,8|0,0:3|0:0,0:0:0:0:
77,175,112204,5,2,0:0:0:0:
269,222,112361,1,8,0:3:0:0:
129,343,112519,2,0,P|179:340|233:317,1,95,2|0,0:0|0:0,0:0:0:0:
354,148,112835,6,0,B|317:97|342:45|272:27|181:67,1,205.833323911032,10|0,0:3|0:0,0:0:0:0:
178,94,113151,6,0,B|92:105|109:22,1,126.666666666667
0,169,113467,1,10,0:0:0:0:
0,169,113783,6,0,B|4:243|38:287|118:292|118:292|132:245|176:218,1,284.999991302491,14|0,0:3|0:0,0:0:0:0:
177,195,114098,2,0,B|151:180|127:184|127:184|128:194|94:211,1,95.0000036239625,2|0,0:0|0:0,0:0:0:0:
82,213,114256,1,2,0:0:0:0:
70,210,114309,1,2,0:0:0:0:
140,327,114414,2,0,B|219:325|243:330|311:372,1,170.999994781494,10|0,0:0|0:0,0:0:0:0:
391,383,114730,6,0,B|383:344|391:314|418:282,1,95.0000036239625,10|0,0:3|0:0,0:0:0:0:
483,248,115046,6,0,B|517:217|516:192|488:149,1,95.0000036239625,2|0,0:0|0:0,0:0:0:0:
445,147,115204,2,0,B|437:130|389:106|357:118,1,95.0000036239625,2|0,0:0|0:0,0:0:0:0:
268,182,115361,2,0,B|289:231|333:252|402:237,1,142.500005435944,10|0,0:0|0:0,0:0:0:0:
145,295,115677,6,0,B|71:322|7:278|-11:217|-11:217|13:181|23:127,1,284.999991302491,10|0,0:3|0:0,0:0:0:0:
11,117,115993,2,0,B|45:97|71:95|71:95|85:102|105:107,1,95.0000036239625
119,101,116151,2,0,L|152:143,1,47.5000018119813
249,274,116309,2,0,B|314:323|406:352|460:288,1,227.999993041992,10|0,0:0|0:0,0:0:0:0:
219,358,116625,5,10,0:3:0:0:
219,358,116940,6,0,P|167:356|121:337,1,95.0000036239625,10|0,0:0|0:0,0:0:0:0:
43,175,117151,1,2,0:0:0:0:
0,124,117256,2,0,B|4:49|44:20|128:32,1,190.000007247925,10|0,0:0|0:0,0:0:0:0:
91,237,117572,6,0,B|139:228|148:225|179:193,1,95.0000036239625,8|0,0:3|0:0,0:0:0:0:
236,149,117888,1,2,1:2:0:0:
272,79,117993,1,2,1:2:0:0:
232,15,118098,1,2,1:2:0:0:
180,88,118204,1,10,1:2:0:0:
303,216,118519,5,8,0:3:0:0:
303,216,118835,5,2,1:2:0:0:
253,157,118940,1,2,1:2:0:0:
287,87,119046,1,2,1:2:0:0:
366,136,119151,2,0,B|403:138|428:148|459:178,1,95.0000036239625,10|0,1:2|0:0,0:0:0:0:
512,80,119467,6,0,B|526:149|484:281|360:299,1,285.000010871888,8|0,0:3|1:0,0:0:0:0:
361,349,119835,1,0,1:0:0:0:
361,349,119888,2,0,P|317:363|257:357,1,95.0000036239625,2|0,1:0|0:0,0:0:0:0:
169,295,120098,2,0,B|79:329|29:307|-10:204,1,202.666666666667,8|0,1:2|0:0,0:0:0:0:
7,157,120414,6,0,B|45:145|143:205|121:320,1,227.999993041992,14|0,0:3|0:0,0:0:0:0:
281,63,120730,2,0,B|307:148|255:249|193:269,1,227.999993041992,14|0,0:0|0:0,0:0:0:0:
445,258,121046,2,0,B|410:272|395:272|349:266,1,95.0000036239625,14|0,0:0|0:0,0:0:0:0:
335,250,121204,2,0,L|355:206,1,47.5000018119813
197,348,121361,6,0,B|102:334|67:281|80:205|80:205|121:196|148:171,1,284.999991302491,14|0,0:3|0:0,0:0:0:0:
166,177,121677,2,0,B|195:209|201:228|201:228|177:261,1,95.0000036239625,2|0,0:0|0:0,0:0:0:0:
172,257,121835,1,2,0:0:0:0:
164,257,121888,1,2,0:0:0:0:
309,339,121993,2,0,B|380:326|403:308|438:223,1,170.999994781494,10|0,0:0|0:0,0:0:0:0:
411,161,122309,6,0,B|376:145|341:153|314:179,1,95.0000036239625,10|0,0:3|0:0,0:0:0:0:
267,235,122625,6,0,B|291:261|309:269|353:275,1,95.0000036239625,2|0,0:0|0:0,0:0:0:0:
370,313,122783,2,0,B|401:316|428:297|442:258,1,95.0000036239625,2|0,0:0|0:0,0:0:0:0:
488,364,122940,2,0,B|530:316|528:289|510:227,1,142.500005435944,10|0,0:0|0:0,0:0:0:0:
306,361,123256,6,0,B|223:372|182:341|146:291|146:291|173:248|173:196,1,284.999991302491,10|0,0:3|0:0,0:0:0:0:
193,192,123572,2,0,B|213:169|239:163|267:174|267:174|275:196|292:208,1,95.0000036239625
278,204,123730,2,0,P|264:251|259:270,1,47.5000018119813
94,360,123888,2,0,B|19:307|-6:262|1:137,1,227.999993041992,10|0,0:0|0:0,0:0:0:0:
157,82,124204,5,10,0:3:0:0:
157,82,124519,6,0,B|212:80|223:84|268:118,1,113.999996520996,2|0,0:0|0:0,0:0:0:0:
369,192,124730,1,0,0:0:0:0:
295,207,124835,2,0,B|270:167|270:167|277:130|287:106|336:61|336:61|333:28|317:4,1,227.999993041992,10|0,0:0|0:0,0:0:0:0:
164,6,125151,6,0,B|151:57|162:83|193:113,1,113.999996520996,10|0,0:3|0:0,0:0:0:0:
201,133,125309,2,0,B|260:104|285:98|337:95,1,142.499995651245,2|0,1:2|0:0,0:0:0:0:
364,114,125625,2,0,P|391:125|420:132,1,47.5000018119813,2|0,0:0|0:0,0:0:0:0:
265,74,125783,2,0,B|217:93|217:93|173:74|132:68|132:68|65:99,1,190.000007247925,10|0,0:0|0:0,0:0:0:0:
12,113,126098,6,0,B|6:154|8:167|39:198,1,95.0000036239625,10|0,1:3|0:0,0:0:0:0:
119,193,126414,5,2,1:2:0:0:
169,119,126519,1,2,1:2:0:0:
140,40,126625,1,2,1:2:0:0:
49,98,126730,2,0,B|-1:165|0:213|82:266,1,190.000007247925,10|0,1:2|0:0,0:0:0:0:
28,338,127046,6,0,P|253:257|504:197,1,475.000018119813,10|0,0:3|0:0,0:0:0:0:
512,217,127677,6,0,P|437:219|316:176,1,190.000007247925,10|0,0:0|0:0,0:0:0:0:
209,361,127993,2,0,B|278:368|291:361|337:305,1,142.500005435944,14|0,0:3|0:0,0:0:0:0:
503,299,128256,6,0,B|492:215|374:541|437:185|362:229|468:-46|287:526|136:285|338:362|187:249|62:245|131:81|550:-62|252:293|-68:408|76:160|101:33|66:38|224:295|-2:217|33:102,1,646.000012321472,2|0,0:0|0:0,2:0:0:0:
101,85,128940,6,0,B|92:127|92:127|60:201|60:201|54:242,1,158.333333333333,14|0,0:3|0:0,0:0:0:0:
80,285,129256,2,0,P|146:268|211:245,1,126.666666666667,2|2,0:0|0:0,0:0:0:0:
238,177,129572,1,10,0:1:0:0:
28,228,129783,5,2,0:0:0:0:
172,127,129888,1,14,0:3:0:0:
38,151,130204,5,2,0:0:0:0:
113,181,130414,5,2,0:0:0:0:
171,74,130519,2,0,P|256:111|332:126,1,158.333333333333,10|0,1:1|0:0,0:0:0:0:
330,91,130835,6,0,L|17:152,1,316.666666666667,14|2,0:3|0:0,0:0:0:0:
32,72,131467,1,10,0:1:0:0:
81,251,131677,5,2,0:0:0:0:
111,103,131783,1,14,0:3:0:0:
242,192,132098,5,2,0:0:0:0:
320,153,132255,1,2,0:0:0:0:
300,72,132413,2,0,P|215:74|124:87,1,158.333333333333,10|0,0:1|0:0,0:0:0:0:
127,69,132730,6,0,L|220:90,1,95,14|0,0:3|0:0,0:0:0:0:
381,59,133046,1,6,0:1:0:0:
428,80,133151,1,2,0:0:0:0:
449,132,133256,1,2,0:0:0:0:
432,183,133361,1,2,0:0:0:0:
432,183,133677,6,0,L|238:221,1,190,2|0,0:0|0:0,0:0:0:0:
209,248,134098,1,2,0:0:0:0:
173,244,134204,1,2,0:0:0:0:
149,215,134309,1,2,0:0:0:0:
320,239,134519,5,2,0:0:0:0:
228,146,134625,1,2,0:0:0:0:
216,138,134940,5,2,0:0:0:0:
180,184,135046,1,2,0:0:0:0:
121,198,135151,1,2,0:0:0:0:
71,176,135256,1,2,0:0:0:0:
65,181,135572,6,0,B|-63:383|308:495|435:210|104:62|117:43|290:80|336:22|341:24|188:46|299:171,1,699.833301297507,6|0,0:3|0:0,0:0:0:0:
376,159,136519,5,10,0:3:0:0:
256,192,139204,12,0,140256,0:0:0:0:
410,64,140309,6,0,B|345:55|323:62|264:104,1,152,10|8,0:2|0:3,0:0:0:0:
403,79,141256,2,0,B|348:52|328:49|250:70,1,152,10|0,0:3|0:0,0:0:0:0:
414,49,142204,2,0,P|447:35|490:33,2,76,10|2|10,0:3|0:0|0:3,0:0:0:0:
246,134,143151,5,10,0:0:0:0:
338,114,143414,2,0,L|356:121,2,12.6666666666667,0|8|0,0:0|0:3|0:0,0:0:0:0:
359,135,143783,1,10,0:3:0:0:
300,191,144098,6,0,B|268:145|259:127|253:45,2,142.500005435944,10|2|10,0:2|0:0|0:3,0:0:0:0:
389,233,145046,2,0,B|422:242|431:248|456:279,2,76,10|2|10,0:3|0:0|0:3,0:0:0:0:
320,128,145993,2,0,B|324:94|330:71|359:43,2,95,10|2|10,0:2|0:0|0:3,0:0:0:0:
329,293,146940,2,0,B|296:333|278:347|209:353,2,123.499994346619,10|10|10,0:2|0:3|0:3,0:0:0:0:
179,184,147888,6,0,B|120:195|93:188|39:143,1,152,10|8,0:2|0:3,0:0:0:0:
169,177,148835,1,10,0:3:0:0:
28,230,149151,2,0,B|58:216|73:212|104:214,1,76,2|2,0:0|0:0,0:0:0:0:
292,258,149783,2,0,B|262:261|246:255|214:232,2,76,10|2|10,0:3|0:0|0:3,0:0:0:0:
465,243,150730,5,10,0:0:0:0:
379,221,150993,2,0,L|373:198,2,12.6666666666667,0|8|0,0:0|0:3|0:0,0:0:0:0:
365,233,151362,1,10,0:3:0:0:
400,325,151677,5,10,0:2:0:0:
265,255,151993,1,2,0:0:0:0:
200,118,152309,1,10,0:3:0:0:
250,140,152625,5,10,0:3:0:0:
205,214,152941,1,2,0:0:0:0:
124,227,153256,2,0,P|113:204|104:170,2,47.5000018119813,10|0|0,0:3|0:0|0:0,0:0:0:0:
55,297,153572,6,0,P|20:256|17:205,1,95.0000036239625,10|0,0:2|0:0,0:0:0:0:
30,197,153888,2,0,P|18:161|32:106,1,95.0000036239625,2|0,0:0|0:0,0:0:0:0:
50,106,154203,2,0,P|64:81|93:63,1,47.5000018119813,10|0,0:3|0:0,0:0:0:0:
102,67,154413,1,0,0:0:0:0:
113,76,154519,5,10,0:2:0:0:
109,156,154677,1,2,0:0:0:0:
20,136,154835,1,10,0:3:0:0:
32,31,154993,1,2,0:0:0:0:
217,112,155151,6,0,P|191:125|212:137,1,63.3333333333333,10|0,0:3|0:0,0:0:0:0:
186,211,155467,6,0,P|315:311|279:83,1,538.333333333333,14|0,0:3|0:0,0:0:0:0:
218,250,156414,2,0,P|416:233|173:106,1,699.833301297507,14|0,0:3|0:0,0:0:0:0:
191,119,157361,5,2,1:2:0:0:
388,299,157677,2,0,B|348:298|328:294|283:269,1,95,2|0,0:0|0:0,0:0:0:0:
245,218,157993,1,2,1:2:0:0:
245,207,158309,5,2,1:2:0:0:
160,344,158625,2,0,B|201:328|211:319|235:265,1,95,10|0,1:2|0:0,0:0:0:0:
394,316,158940,2,0,B|350:316|336:310|298:260,1,95,10|0,1:2|0:0,0:0:0:0:
314,106,159256,5,2,0:0:0:0:
213,263,159572,2,0,B|134:304|88:289|44:192,1,190,2|0,0:0|0:0,0:0:0:0:
389,248,160203,5,2,0:0:0:0:
128,236,160519,2,0,B|40:222|16:156|96:81,1,190,2|2,0:0|0:0,0:0:0:0:
102,102,160940,2,0,P|96:131|64:144,1,63.3333333333333
178,118,161151,6,0,B|150:81|184:23|217:7,1,126.666666666667,10|0,0:0|0:0,0:0:0:0:
157,201,161467,2,0,B|220:200|242:245|261:275,1,126.666666666667,10|0,0:0|0:0,0:0:0:0:
45,154,161783,2,0,B|19:160|-7:142|-7:142|25:144|60:135|90:92,1,151.999995361328,10|0,0:0|0:0,0:0:0:0:
0,50,162098,6,0,P|22:159|56:271,1,227.999993041992,10|10,0:3|0:0,0:0:0:0:
54,379,162572,1,0,0:0:0:0:
131,205,162730,2,0,B|143:244|145:275|126:330,1,113.999996520996,10|0,0:0|0:0,0:0:0:0:
117,104,163046,5,14,0:3:0:0:
117,104,163361,2,0,B|174:97|208:75|240:25,1,152,2|8,0:0|0:0,0:0:0:0:
351,297,163993,5,2,1:2:0:0:
351,297,164309,2,0,B|297:292|266:274|240:206,1,152,2|2,0:0|1:2,0:0:0:0:
60,306,164940,5,2,1:2:0:0:
9,246,165256,1,2,1:2:0:0:
45,306,165572,1,2,1:2:0:0:
32,303,165888,5,2,1:2:0:0:
184,321,166204,2,0,B|152:318|126:309|97:282,1,76,2|0,1:2|0:0,0:0:0:0:
132,138,166519,2,0,B|143:169|145:192|122:232,1,76,2|0,0:0|0:0,0:0:0:0:
76,384,166835,5,2,1:2:0:0:
213,220,167151,2,0,B|154:182|85:193|31:271,1,190,2|10,0:0|0:0,0:0:0:0:
37,113,167625,5,2,0:0:0:0:
155,333,167783,2,0,B|190:326|208:308|226:262,1,95,2|0,0:0|0:0,0:0:0:0:
240,78,168098,2,0,B|172:89|124:114|119:201,1,190,2|2,0:0|0:0,0:0:0:0:
353,263,168572,5,2,0:0:0:0:
348,245,168625,1,2,0:0:0:0:
340,229,168677,1,2,0:0:0:0:
328,214,168730,2,0,B|305:183|294:173|233:149,2,95,8|0|2,0:3|0:0|0:0,0:0:0:0:
486,232,169203,5,8,0:3:0:0:
369,357,169361,2,0,B|329:358|304:347|276:303,1,95,2|0,0:0|0:0,0:0:0:0:
50,222,169677,6,0,B|57:282|126:325|220:279,1,205.833323911032,10|0,0:3|0:0,0:0:0:0:
249,314,169993,6,0,B|237:351|214:391|151:341,1,126.666666666667
377,275,170309,1,10,0:0:0:0:
377,275,170625,6,0,B|306:313|251:300|212:224|212:224|248:205|258:151,1,284.999991302491,14|0,0:3|0:0,0:0:0:0:
252,138,170940,2,0,B|291:128|319:137|319:137|347:164,1,95.0000036239625,2|0,0:0|0:0,0:0:0:0:
342,168,171098,1,2,0:0:0:0:
340,181,171151,1,2,0:0:0:0:
459,264,171256,2,0,B|494:237|514:184|486:98,1,170.999994781494,10|0,0:0|0:0,0:0:0:0:
420,65,171572,6,0,B|382:60|356:72|333:109,1,95.0000036239625,10|0,0:3|0:0,0:0:0:0:
259,104,171888,6,0,B|257:68|246:50|203:22,1,95.0000036239625,2|0,0:0|0:0,0:0:0:0:
169,52,172046,2,0,B|132:72|122:109|142:145,1,95.0000036239625,2|0,0:0|0:0,0:0:0:0:
96,216,172204,2,0,B|40:205|12:177|-2:111,1,142.500005435944,10|0,0:0|0:0,0:0:0:0:
16,48,172519,6,0,B|41:135|33:193|35:252|35:252|65:274|62:336,1,284.999991302491,10|0,0:3|0:0,0:0:0:0:
52,353,172835,2,0,B|24:326|18:301|18:301|41:265,1,95.0000036239625
54,268,172993,2,0,P|76:277|103:291,1,47.5000018119813
269,233,173151,2,0,B|274:171|256:133|235:105|235:105|170:78|170:78|146:84,1,227.999993041992,10|0,0:0|0:0,0:0:0:0:
0,203,173467,5,10,0:3:0:0:
0,203,173783,6,0,B|23:244|46:254|94:254,1,95.0000036239625,10|0,0:0|0:0,0:0:0:0:
218,294,173993,1,2,0:0:0:0:
145,327,174098,2,0,B|207:363|282:370|331:324,1,190.000007247925,10|0,0:0|0:0,0:0:0:0:
404,265,174414,6,0,B|446:269|474:244|490:213,1,95.0000036239625,8|0,0:3|0:0,0:0:0:0:
500,123,174730,1,2,1:2:0:0:
432,88,174835,1,2,1:2:0:0:
364,120,174940,1,2,1:2:0:0:
407,189,175046,1,10,1:2:0:0:
98,178,175361,5,8,0:3:0:0:
98,178,175677,5,2,1:2:0:0:
174,153,175782,1,2,1:2:0:0:
240,193,175888,1,2,1:2:0:0:
141,259,175993,2,0,B|176:279|196:280|232:271,1,95.0000036239625,10|0,1:2|0:0,0:0:0:0:
352,298,176309,6,0,B|307:362|249:375|152:333,1,190.000007247925,8|0,0:3|0:0,0:0:0:0:
337,216,176625,1,0,1:0:0:0:
337,216,176677,1,0,1:0:0:0:
337,216,176730,2,0,B|314:233|286:242|227:207,1,95.0000036239625,2|0,1:0|0:0,0:0:0:0:
407,126,176940,2,0,P|313:94|242:3,1,202.666666666667,8|0,1:2|0:0,0:0:0:0:
183,73,177256,6,0,B|271:43|331:29|412:34,1,227.999993041992,14|0,0:3|0:0,0:0:0:0:
247,218,177572,2,0,B|326:207|406:217|478:234,1,227.999993041992,14|0,0:0|0:0,0:0:0:0:
140,355,177888,2,0,B|98:351|67:335|41:314,1,95.0000036239625,14|0,0:0|0:0,0:0:0:0:
40,312,178046,2,0,B|54:300|68:295|83:302,1,47.5000018119813
48,122,178204,6,0,B|54:205|117:238|179:241|179:241|206:199|250:182,1,284.999991302491,14|0,0:3|0:0,0:0:0:0:
266,192,178519,2,0,B|279:145|277:119|277:119|272:91,1,95.0000036239625,2|0,0:0|0:0,0:0:0:0:
262,86,178677,1,2,0:0:0:0:
251,78,178730,1,2,0:0:0:0:
253,297,178835,2,0,B|319:292|353:280|404:220,1,170.999994781494,10|0,0:0|0:0,0:0:0:0:
313,198,179151,6,0,B|303:234|316:264|349:281,1,95.0000036239625,10|0,0:3|0:0,0:0:0:0:
422,279,179467,6,0,B|472:290|493:306|506:341,1,95.0000036239625,2|0,0:0|0:0,0:0:0:0:
482,368,179625,2,0,B|451:377|414:385|382:353,1,95.0000036239625,2|0,0:0|0:0,0:0:0:0:
302,384,179782,2,0,B|227:357|221:256,1,142.500005435944,10|0,0:0|0:0,0:0:0:0:
192,58,180098,6,0,B|184:97|149:114|149:114|183:183|173:256|81:300,1,284.999991302491,10|0,0:3|0:0,0:0:0:0:
77,283,180414,2,0,B|35:281|2:257|-4:223,1,95.0000036239625
0,213,180572,2,0,P|15:182|27:163,1,47.5000018119813
37,368,180730,2,0,B|124:378|189:363|231:256,1,227.999993041992,10|0,0:0|0:0,0:0:0:0:
64,176,181046,5,10,0:3:0:0:
64,176,181361,6,0,B|91:211|118:221|169:207,1,113.999996520996,2|0,0:0|0:0,0:0:0:0:
220,85,181572,1,0,0:0:0:0:
259,161,181677,2,0,B|359:172|406:110|375:8,1,227.999993041992,10|0,0:0|0:0,0:0:0:0:
337,198,181993,6,0,B|374:226|405:233|443:209,1,113.999996520996,10|0,0:3|0:0,0:0:0:0:
461,197,182151,2,0,P|407:210|316:239,1,142.499995651245,2|0,1:2|0:0,0:0:0:0:
306,265,182467,2,0,B|286:268|270:263|248:245,1,47.5000018119813,2|0,0:0|0:0,0:0:0:0:
170,362,182625,2,0,B|96:339|58:270|99:182,1,190.000007247925,10|0,0:0|0:0,0:0:0:0:
206,193,182940,6,0,B|249:181|267:157|268:112,1,95.0000036239625,10|0,1:3|0:0,0:0:0:0:
114,105,183256,5,2,1:2:0:0:
60,192,183361,1,2,1:2:0:0:
127,270,183467,1,2,1:2:0:0:
209,210,183572,2,0,B|292:254|334:243|376:156,1,190.000007247925,10|0,1:2|0:0,0:0:0:0:
353,26,183888,6,0,B|406:303|411:350|411:350|441:357|446:306|444:250|481:277|481:277|493:242,1,475.000018119813,10|0,0:3|0:0,0:0:0:0:
508,232,184519,6,0,P|417:212|321:199,1,190.000007247925,10|0,0:0|0:0,0:0:0:0:
428,125,184835,6,0,P|478:115|502:109,1,63.3333333333333,14|0,0:3|0:0,0:0:0:0:
498,119,185783,6,0,B|466:161|425:174|377:154,1,132.999995941162,10|2,0:1|0:0,0:0:0:0:
358,141,186625,1,2,0:0:0:0:
343,154,186730,2,0,B|304:170|266:144|270:129,1,85.4999973907472,10|2,0:3|0:0,0:0:0:0:
196,222,187467,1,2,0:0:0:0:
196,222,187572,1,2,0:0:0:0:
196,222,187677,2,0,P|170:196|161:175,2,56.9999982604981,10|2|10,0:3|0:0|0:3,0:0:0:0:
326,136,188625,2,0,P|317:166|312:197,1,56.9999982604981,10|10,0:2|0:3,0:0:0:0:
411,262,189256,5,10,0:1:0:0:
411,262,189572,2,0,B|451:251|475:222|487:182,1,113.999996520996,10|10,0:1|0:3,0:0:0:0:
444,136,190361,1,2,0:0:0:0:
431,128,190519,2,0,B|390:148|391:199,1,85.4999973907472,10|0,0:3|0:0,0:0:0:0:
272,157,191256,1,2,0:0:0:0:
272,157,191361,1,2,0:0:0:0:
272,157,191467,2,0,P|277:192|285:216,1,56.9999982604981,10|2,0:3|0:0,0:0:0:0:
342,238,191940,1,2,0:0:0:0:
353,226,192098,2,0,P|352:193|342:166,1,56.9999982604981,10|10,0:3|0:3,0:0:0:0:
199,231,192572,1,2,0:0:0:0:
237,154,192730,2,0,P|228:186|220:215,1,56.9999982604981,10|10,0:1|0:1,0:0:0:0:
136,97,193361,6,0,B|107:139|85:155|60:188,1,113.999996520996,10|0,0:1|0:0,0:0:0:0:
11,187,194151,1,0,0:0:0:0:
1,168,194309,2,0,P|4:139|48:108,1,85.4999973907472,10|0,0:3|0:0,0:0:0:0:
143,203,195019,1,0,0:0:0:0:
143,203,195098,1,0,0:0:0:0:
143,203,195177,1,0,0:0:0:0:
143,203,195256,2,0,P|138:238|125:263,2,56.9999982604981,10|2|10,0:3|0:0|0:3,0:0:0:0:
293,236,196203,2,0,P|280:204|268:178,1,56.9999982604981,10|10,0:2|0:3,0:0:0:0:
359,94,196834,5,10,0:1:0:0:
359,94,197151,2,0,B|393:116|428:118|473:100,1,113.999996520996,10|10,0:1|0:3,0:0:0:0:
308,184,197939,1,2,0:0:0:0:
319,201,198098,2,0,B|387:204|409:193|427:167,1,113.999996520996,10|2,0:3|0:0,0:0:0:0:
268,292,198888,1,2,0:0:0:0:
307,303,199046,2,0,P|326:295|334:287,1,28.4999991302491,10|0,0:3|0:0,0:0:0:0:
319,201,199361,5,2,0:0:0:0:
435,278,199518,1,2,0:0:0:0:
243,212,199677,2,0,P|212:218|189:234,1,56.9999982604981,10|10,0:3|0:3,0:0:0:0:
335,227,200309,2,0,P|374:220|395:208,1,56.9999982604981,10|10,0:1|0:1,0:0:0:0:
512,231,200783,5,0,0:0:0:0:
470,161,200940,2,0,B|401:171|347:177|307:137,1,171,10|0,0:1|0:0,0:0:0:0:
330,278,204098,2,0,B|328:264|319:242,1,38,10|10,0:3|0:1,0:0:0:0:
448,192,204730,2,0,B|436:192|396:169|334:176|294:121,1,171,10|0,0:1|0:0,0:0:0:0:
171,261,207888,1,10,0:1:0:0:
302,196,208204,1,10,0:1:0:0:
454,224,208519,2,0,B|441:217|354:208|329:152|301:95,1,209,10|0,0:1|0:0,0:0:0:0:
473,15,212309,6,0,B|444:118|418:277|446:423|437:342|422:355|464:313|434:227|368:250,1,456,10|14,0:1|0:2,0:0:0:0:
87,341,214519,5,14,0:2:0:0:
277,260,214835,5,14,0:2:0:0:
10,298,215151,5,14,0:2:0:0:
194,213,215467,6,0,B|148:224|91:205|67:116,1,158.333333333333,14|0,0:3|0:0,0:0:0:0:
27,129,215783,2,0,B|62:162|113:169|175:89,1,158.333333333333,14|0,0:3|0:0,0:0:0:0:
246,20,216098,6,0,B|346:-15|407:8|440:102,1,227.999993041992,14|2,0:3|3:0,0:0:0:0:
394,151,216519,1,0,3:0:0:0:
396,184,216624,1,0,3:0:0:0:
378,210,216730,2,0,B|345:252|338:271|328:329,1,113.999996520996,10|2,0:0|0:0,0:0:0:0:
221,194,217045,5,10,0:3:0:0:
160,214,217150,1,2,0:0:0:0:
96,202,217256,1,2,0:0:0:0:
49,158,217361,1,2,3:0:0:0:
35,95,217466,1,2,3:0:0:0:
71,42,217571,1,2,3:0:0:0:
134,23,217677,6,0,B|177:39|195:77,1,75.9999976806641,10|0,0:0|0:0,0:0:0:0:
201,87,217835,2,0,P|178:119|161:137,1,37.9999988403321,2|2,0:0|0:0,0:0:0:0:
116,247,217993,2,0,B|169:206|200:206|269:232,1,151.999995361328,10|0,0:3|0:0,0:0:0:0:
304,295,218309,2,0,B|338:299|350:293|374:265,2,75.9999976806641,2|2|2,3:0|3:0|3:0,0:0:0:0:
231,355,218625,5,10,0:0:0:0:
49,295,218783,1,2,0:0:0:0:
35,110,218940,1,10,0:3:0:0:
160,307,219256,5,10,0:0:0:0:
321,199,219414,1,2,0:0:0:0:
400,31,219572,1,10,0:0:0:0:
329,80,219730,1,2,0:0:0:0:
421,165,219888,6,0,B|314:146|267:158|190:224,1,227.999993041992,10|2,0:3|3:0,0:0:0:0:
126,280,220309,1,0,3:0:0:0:
121,321,220414,1,0,3:0:0:0:
145,351,220519,2,0,B|186:376|222:370|260:320,1,113.999996520996,10|2,0:0|0:0,0:0:0:0:
396,243,220835,5,10,0:3:0:0:
341,269,220940,1,2,0:0:0:0:
284,256,221046,1,2,0:0:0:0:
250,210,221151,1,2,3:0:0:0:
205,168,221256,1,2,3:0:0:0:
144,161,221361,1,2,3:0:0:0:
95,191,221467,6,0,B|102:227|112:239|144:250,1,75.9999976806641,10|0,0:0|0:0,0:0:0:0:
154,260,221625,2,0,P|176:239|188:217,1,37.9999988403321
315,141,221783,2,0,B|299:72|243:55|243:55|188:64,1,151.999995361328,10|0,0:3|0:0,0:0:0:0:
152,108,222098,2,0,P|160:147|173:181,2,75.9999976806641,0|2|0,0:0|3:0|3:0,0:0:0:0:
60,87,222415,5,10,0:0:0:0:
244,131,222573,1,2,0:0:0:0:
378,260,222730,1,10,0:3:0:0:
412,36,223046,5,10,0:3:0:0:
284,168,223204,1,2,0:0:0:0:
229,349,223362,1,10,0:0:0:0:
289,300,223520,1,2,0:0:0:0:
164,199,223678,6,0,B|210:152|275:123|383:169,1,227.999993041992,10|2,0:3|3:0,0:0:0:0:
441,207,224098,2,0,B|477:207|501:203|525:176,1,75.9999976806641,0|0,3:0|3:0,0:0:0:0:
311,176,224309,2,0,B|260:155|246:127|243:64,1,113.999996520996,10|0,0:0|0:0,0:0:0:0:
414,281,224625,6,0,B|424:349|456:374|525:380,1,151.999995361328,10|0,0:3|0:0,0:0:0:0:
338,303,224940,2,0,B|315:335|307:340|264:364,2,75.9999976806641,2|0|0,3:0|3:0|3:0,0:0:0:0:
391,149,225256,1,10,0:0:0:0:
391,149,225573,6,0,B|302:193|239:177|169:91,1,227.999993041992,10|0,0:3|3:0,0:0:0:0:
111,118,225993,2,0,B|75:105|57:109|26:129,1,75.9999976806641,0|0,3:0|3:0,0:0:0:0:
11,235,226205,5,10,0:0:0:0:
201,232,226361,1,0,0:0:0:0:
348,107,226520,1,10,0:3:0:0:
58,29,226835,5,10,0:0:0:0:
99,212,226993,1,0,0:0:0:0:
232,353,227151,1,10,0:0:0:0:
191,277,227309,1,0,0:0:0:0:
271,138,227467,6,0,B|339:141|378:152|469:204,1,190,10|2,0:3|3:0,0:0:0:0:
422,268,227888,2,0,B|404:294|390:305|340:299,1,75.9999976806641,0|0,3:0|3:0,0:0:0:0:
233,252,228098,5,10,0:0:0:0:
307,61,228256,1,2,0:0:0:0:
252,337,228414,2,0,B|154:385|85:363|35:274,1,246.999988693238,10|2,0:3|3:0,0:0:0:0:
80,219,228835,2,0,B|84:185|102:164|134:156,1,82.3333295644126,0|0,3:0|3:0,0:0:0:0:
270,171,229046,5,10,0:0:0:0:
63,54,229204,1,2,0:0:0:0:
179,256,229361,5,10,0:3:0:0:
237,283,229467,1,2,0:0:0:0:
286,241,229572,1,2,0:0:0:0:
346,265,229677,1,2,3:0:0:0:
370,204,229783,1,2,3:0:0:0:
429,178,229888,1,2,3:0:0:0:
385,132,229993,6,0,B|354:156|349:192|369:237,1,95.0000036239625,10|0,0:0|0:0,0:0:0:0:
491,320,230309,6,0,B|497:278|461:236|414:231,1,113.999996520996,10|0,0:3|0:0,0:0:0:0:
233,306,230625,6,0,B|276:322|322:307|364:263,1,132.999995941162,14|0,0:0|0:0,0:0:0:0:
339,66,230941,6,0,B|290:131|302:179|355:233,1,189.99999420166,14|0,0:0|0:0,0:0:0:0:
503,291,231256,6,0,B|394:297|313:273|243:219,1,246.999988693238,14|2,0:3|3:0,0:0:0:0:
263,64,231677,1,0,3:0:0:0:
230,57,231782,1,0,3:0:0:0:
204,75,231888,2,0,B|140:66|115:42|95:6,1,123.499994346619,10|2,0:0|0:0,0:0:0:0:
165,200,232203,5,10,0:3:0:0:
103,223,232308,1,2,0:0:0:0:
39,205,232414,1,2,0:0:0:0:
3,149,232519,1,2,3:0:0:0:
10,83,232624,1,2,3:0:0:0:
59,39,232729,1,2,3:0:0:0:
124,28,232835,6,0,B|157:72|154:96|142:126,1,82.3333295644126,10|0,0:0|0:0,0:0:0:0:
135,117,232993,2,0,P|94:103|76:94,1,41.1666647822063
0,217,233151,2,0,B|9:281|65:312|65:312|122:299,1,164.666659128825,10|0,0:3|0:0,0:0:0:0:
181,253,233467,2,0,B|230:259|247:274|264:296,2,82.3333295644126,2|2|2,3:0|3:0|3:0,0:0:0:0:
83,234,233783,5,10,0:0:0:0:
283,202,233941,1,2,0:0:0:0:
444,80,234098,2,0,B|398:76|364:87|335:136,1,123.499994346619,10|0,0:3|0:0,0:0:0:0:
452,203,234414,5,10,0:0:0:0:
229,200,234572,1,2,0:0:0:0:
63,39,234730,1,10,0:0:0:0:
229,200,234888,1,2,0:0:0:0:
343,19,235046,6,0,B|447:16|499:55|513:164,1,246.999988693238,10|2,0:3|3:0,0:0:0:0:
502,287,235467,1,0,3:0:0:0:
492,315,235572,1,0,3:0:0:0:
467,331,235677,2,0,B|416:319|399:309|361:271,1,123.499994346619,10|2,0:0|0:0,0:0:0:0:
283,120,235993,5,10,0:3:0:0:
225,98,236098,1,2,0:0:0:0:
165,114,236204,1,2,0:0:0:0:
130,165,236309,1,2,3:0:0:0:
106,223,236414,1,2,3:0:0:0:
48,244,236519,1,2,3:0:0:0:
0,207,236625,6,0,B|-3:164|26:130,1,82.3333295644126,10|0,0:0|0:0,0:0:0:0:
40,132,236783,2,0,P|68:137|89:151,1,41.1666647822063
153,289,236940,2,0,B|201:307|249:281|262:246|262:246|248:224|233:187,1,164.666659128825,10|0,0:3|0:0,0:0:0:0:
242,138,237256,2,0,B|206:119|194:116|157:113,2,82.3333295644126,0|2|0,3:0|3:0|3:0,0:0:0:0:
329,206,237573,5,10,0:0:0:0:
131,186,237731,1,2,0:0:0:0:
0,34,237888,2,0,B|49:27|81:44|104:86,1,123.499994346619,10|0,0:3|0:0,0:0:0:0:
19,207,238204,5,10,0:3:0:0:
245,215,238362,1,2,0:0:0:0:
428,87,238519,1,10,0:0:0:0:
245,215,238678,1,2,0:0:0:0:
254,326,238836,6,0,B|153:354|67:331|41:230,1,246.999988693238,10|0,0:3|0:0,0:0:0:0:
12,175,239256,2,0,B|22:149|45:142|85:151,1,82.3333295644126,2|0,0:0|0:0,0:0:0:0:
257,184,239467,2,0,B|262:229|248:267|214:313,1,123.499994346619,10|0,0:0|0:0,0:0:0:0:
105,304,239783,5,10,0:3:0:0:
126,50,239940,1,2,0:0:0:0:
248,270,240098,1,2,0:0:0:0:
266,109,240256,1,2,0:0:0:0:
417,321,240414,1,10,0:0:0:0:
373,60,240572,1,2,0:0:0:0:
330,362,240731,6,0,B|436:372|491:321|481:218,1,246.999988693238,10|2,0:3|3:0,0:0:0:0:
404,182,241151,2,0,L|420:131,2,41.1666647822063,0|0|0,3:0|0:0|3:0,0:0:0:0:
246,143,241361,5,10,0:0:0:0:
267,253,241519,1,2,0:0:0:0:
420,55,241678,5,10,0:3:0:0:
377,296,241835,1,2,0:0:0:0:
266,106,241993,1,10,0:0:0:0:
247,272,242151,1,2,0:0:0:0:
79,41,242309,1,10,0:0:0:0:
117,330,242467,1,2,0:0:0:0:
189,28,242625,6,0,B|77:-8|13:30|-1:134,1,246.999988693238,10|2,0:3|0:0,0:0:0:0:
99,210,243098,5,2,0:0:0:0:
249,197,243256,1,10,0:0:0:0:
389,183,243414,1,2,0:0:0:0:
127,338,243572,5,10,0:3:0:0:
56,31,243730,1,2,0:0:0:0:
274,276,243888,1,2,0:0:0:0:
239,101,244046,1,2,0:0:0:0:
386,333,244204,1,10,0:0:0:0:
472,38,244362,1,2,0:0:0:0:
187,272,244519,6,0,B|75:340|5:312|-18:214|-14:208|-19:358|140:331,1,380,14|8,0:3|0:0,0:0:0:0:
361,358,245508,6,0,B|457:330|516:332|510:365|412:297|446:386|305:313,1,285.000010871888,14|8,0:3|0:0,0:0:0:0:
81,337,246578,6,0,B|65:278|14:291|-25:388|128:457|341:355|232:301|299:120|522:213|433:333|388:236,1,548.846668257866,14|2,0:1|0:0,0:0:0:0:
369,235,249545,6,0,P|373:212|378:195,1,38,2|0,0:0|0:0,0:0:0:0:
298,150,250201,2,0,P|296:173|295:190,1,38,2|0,0:0|0:0,0:0:0:0:
290,259,250857,1,2,0:0:0:0:
204,164,251185,1,0,0:0:0:0:
222,233,251512,1,2,0:0:0:0:
163,275,251840,2,0,B|144:246|142:229|124:198,1,82.3333333333333,2|0,0:0|0:0,0:0:0:0:
125,172,252715,1,0,0:0:0:0:
89,255,252879,2,0,B|121:236|141:231|176:237,1,88.6666666666667,2|0,0:0|0:0,0:0:0:0:
100,215,253808,2,0,B|66:211|52:199|39:171,1,76,2|0,0:0|0:0,0:0:0:0:
0,249,254801,5,10,0:1:0:0:
91,266,255149,1,10,0:1:0:0:
241,182,255498,1,10,0:1:0:0:
434,183,255853,1,10,0:1:0:0:
314,134,256191,1,10,0:1:0:0:
241,182,256530,1,10,0:1:0:0:
485,270,256823,6,0,B|556:274|520:199|404:198|457:268|429:-52|463:77|541:118|461:136|384:106|398:130|478:210|342:284|529:304|380:360|380:360|355:307|391:280|415:275,1,598.49998173523,10|0,0:1|0:0,0:0:0:0:
209,291,260489,2,0,P|212:310|223:333,5,23.7500009059906,2|2|2|2|2|2,3:2|3:2|3:2|3:2|3:2|3:2,0:0:0:0:
231,270,260823,6,0,B|148:262|114:202|156:124,1,190,14|2,0:0|0:0,0:0:0:0:
27,140,261323,1,2,0:0:0:0:
55,64,261489,2,0,B|74:16|131:65|123:119,1,126.666666666667,2|2,0:0|0:0,0:0:0:0:
52,216,261823,6,0,B|118:177|167:157|242:137,1,190,10|2,0:0|0:0,0:0:0:0:
262,74,262323,1,2,0:0:0:0:
309,170,262489,1,10,0:0:0:0:
373,106,262656,1,2,0:0:0:0:
424,183,262823,6,0,L|465:176,5,31.6666666666667,10|0|0|2|0|0,0:0|0:0|0:0|0:0|0:0|0:0,0:0:0:0:
396,206,263167,2,0,P|427:227|468:265,2,69.6666687927247,2|2|2,0:0|0:0|0:0,0:0:0:0:
343,146,263512,2,0,P|332:109|324:54,2,69.6666687927247,10|2|2,0:0|0:0|0:0,0:0:0:0:
424,274,263857,6,0,B|361:333|281:306|268:214,1,205.833323911032,10|0,0:3|0:0,0:0:0:0:
117,221,264239,6,0,B|184:254|231:245|251:178,1,158.333333333333,10|0,0:0|0:0,0:0:0:0:
319,163,264621,6,0,B|303:167|286:163|268:150,1,47.4999985504151,10|0,0:0|0:0,0:0:0:0:
179,115,265003,6,0,B|82:79|14:165|16:239|16:239|67:261|85:307,1,316.666666666667,14|0,0:3|0:0,0:0:0:0:
90,290,265318,2,0,B|128:290|153:260|153:260|146:232|126:217,1,107.666668720245,2|0,0:0|0:0,0:0:0:0:
129,221,265476,1,2,0:0:0:0:
120,215,265529,1,2,0:0:0:0:
0,326,265634,2,0,B|93:365|194:374,1,190,10|0,0:0|0:0,0:0:0:0:
273,304,265950,6,0,B|224:287|200:282|159:300,1,101.333333333333,10|0,0:3|0:0,0:0:0:0:
207,364,266266,6,0,B|232:376|249:376|322:359,1,107.666668720245,2|0,0:0|0:0,0:0:0:0:
345,376,266424,2,0,B|386:377|416:349|420:303,1,107.666668720245,2|0,0:0|0:0,0:0:0:0:
512,251,266581,2,0,B|520:202|481:155|438:137|438:137|431:157|427:169,1,161.500003080368,10|0,0:0|0:0,0:0:0:0:
223,75,266897,6,0,B|280:115|280:115|311:190|367:243|404:266|404:266|412:236|452:222,1,316.666666666667,10|0,0:3|0:0,0:0:0:0:
466,236,267213,2,0,B|477:189|448:149|448:149|421:152,1,107.666668720245
412,133,267371,2,0,B|390:149|357:155,1,53.8333343601227
271,289,267529,2,0,B|207:351|155:351|72:264,1,215.333337440491,10|0,0:0|0:0,0:0:0:0:
0,254,267845,6,0,P|20:211|53:161,1,101.333333333333,10|0,0:3|0:0,0:0:0:0:
19,84,268160,6,0,B|49:59|79:54|126:61,1,107.666668720245,10|0,0:0|0:0,0:0:0:0:
262,188,268371,1,0,0:0:0:0:
332,142,268476,2,0,B|422:125|477:166|497:258,1,215.333337440491,10|0,0:0|0:0,0:0:0:0:
400,366,268792,6,0,P|343:356|282:341,1,101.333333333333,8|0,0:3|0:0,0:0:0:0:
235,294,269108,1,2,1:2:0:0:
309,243,269213,1,2,1:2:0:0:
394,278,269318,1,2,1:2:0:0:
318,368,269424,1,10,1:2:0:0:
74,276,269739,6,0,P|127:268|184:246,1,101.333333333333,8|0,0:3|0:0,0:0:0:0:
245,192,270055,5,2,1:2:0:0:
153,165,270160,1,2,1:2:0:0:
86,236,270265,1,2,1:2:0:0:
186,279,270371,2,0,B|214:299|250:306|288:300,1,101.333333333333,10|0,1:2|0:0,0:0:0:0:
69,366,270687,6,0,B|37:317|-1:246|-1:159,1,215.333337440491,8|0,0:3|0:0,0:0:0:0:
185,156,271003,1,0,1:0:0:0:
185,156,271055,1,0,1:0:0:0:
185,156,271108,2,0,B|188:110|195:90|220:49,1,107.666668720245,2|0,1:0|0:0,0:0:0:0:
301,269,271318,2,0,B|386:306|453:291|511:183,1,227.999993041992,8|0,1:2|0:0,0:0:0:0:
507,318,271634,6,0,B|492:239|467:130|368:72,1,253.333333333333,14|0,0:3|0:0,0:0:0:0:
137,265,271950,2,0,B|192:291|248:251|275:209,1,126.666666666667,14|0,0:0|0:0,0:0:0:0:
257,213,272108,2,0,P|258:167|239:130,1,63.3333333333333
47,114,272266,2,0,B|62:127|77:132|77:132|118:117|126:80,1,107.666668720245,14|0,0:0|0:0,0:0:0:0:
166,56,272424,2,0,P|162:34|144:8,1,53.8333343601227
6,217,272581,6,0,B|94:165|140:175|195:215|195:215|200:271|246:315,1,316.666666666667,14|0,0:3|0:0,0:0:0:0:
247,343,272897,2,0,B|201:371|157:372|157:372|146:363,1,107.666668720245
135,349,273055,1,0,0:0:0:0:
139,335,273108,1,0,0:0:0:0:
315,234,273213,2,0,B|236:233|209:230|113:202,1,190,10|0,0:0|0:0,0:0:0:0:
104,133,273529,6,0,B|143:122|167:118|214:127,1,101.333333333333,10|0,0:3|0:0,0:0:0:0:
247,191,273845,6,0,B|296:157|333:147|367:146,1,126.666666666667,2|0,0:0|0:0,0:0:0:0:
403,170,274003,2,0,B|442:153|484:162|513:208,1,126.666666666667,2|0,0:0|0:0,0:0:0:0:
512,315,274160,2,0,B|479:359|433:380|397:381|397:381|372:331|302:305,1,253.333333333333,10|0,0:0|0:0,0:0:0:0:
404,273,274476,6,0,B|338:299|306:323|306:323|231:342|160:330|97:357,1,316.666666666667,10|0,0:3|0:0,0:0:0:0:
85,372,274792,2,0,B|48:370|22:328|53:290,1,107.666668720245
51,268,274950,2,0,P|77:274|115:283,1,53.8333343601227
303,262,275108,2,0,B|409:303|457:286|495:164,1,253.333333333333,10|0,0:0|0:0,0:0:0:0:
485,40,275424,6,0,P|449:17|386:15,1,101.333333333333,10|0,0:3|0:0,0:0:0:0:
311,0,275739,6,0,B|256:32|242:60|246:110,1,126.666666666667,2|0,0:0|0:0,0:0:0:0:
249,315,275950,1,0,0:0:0:0:
314,263,276055,2,0,B|247:179|148:178|148:178|120:189|83:189,1,253.333333333333,10|0,0:0|0:0,0:0:0:0:
277,171,276371,6,0,B|322:185|355:183|403:157,1,126.666666666667,10|0,0:3|0:0,0:0:0:0:
396,135,276529,2,0,B|347:150|331:185|331:185|287:221|252:214,1,171.000004174805,2|0,1:2|0:0,0:0:0:0:
217,238,276845,2,0,P|185:225|150:220,1,63.3333333333333,2|0,0:0|0:0,0:0:0:0:
401,239,277003,2,0,B|449:224|489:252|505:273|505:273|428:237|362:323,1,253.333333333333,10|0,0:0|0:0,0:0:0:0:
259,372,277318,6,0,B|223:375|197:369|151:336,1,101.333333333333,10|0,1:3|0:0,0:0:0:0:
108,270,277634,5,2,1:2:0:0:
166,170,277739,1,2,1:2:0:0:
282,155,277845,1,2,1:2:0:0:
326,231,277950,2,0,B|417:260|468:237|485:120,1,215.333337440491,10|0,1:2|0:0,0:0:0:0:
512,67,278266,6,0,P|221:180|2:239,1,538.333343601227,10|0,0:3|0:0,0:0:0:0:
0,206,278897,6,0,B|84:234|141:239|233:233,1,215.333337440491,10|0,0:0|0:0,0:0:0:0:
371,336,279213,6,0,P|340:343|288:360,1,63.3333333333333,14|0,0:3|0:0,0:0:0:0:
361,343,279529,6,0,B|309:338|334:291|373:283|331:429|513:448|526:262|481:173,1,348.333333333333,2|0,0:0|0:0,0:0:0:0:
512,105,280160,6,0,B|499:36|394:7|333:19|333:19|348:61|349:99|291:156,1,348.333343963623,14|0,0:3|0:0,0:0:0:0:
290,137,280476,2,0,B|313:183|370:192|370:192|394:176,1,120.333330120087,2|0,0:0|0:0,0:0:0:0:
391,169,280634,1,2,0:0:0:0:
391,157,280687,1,2,0:0:0:0:
324,293,280792,2,0,B|401:267|429:252|525:196,1,209.000006378174,10|0,0:0|0:0,0:0:0:0:
46,373,281108,6,0,B|30:321|21:295|6:236,2,120.333330120087,10|0|0,0:3|0:0|0:0,0:0:0:0:
266,367,281424,6,0,B|234:339|193:318|131:326,1,120.333330120087,2|0,0:0|0:0,0:0:0:0:
110,302,281581,2,0,B|127:276|138:237|106:181,1,120.333330120087,2|0,0:0|0:0,0:0:0:0:
12,152,281739,2,0,B|57:153|132:166|186:93,1,180.49999518013,10|0,0:0|0:0,0:0:0:0:
323,264,282055,6,0,B|384:367|499:324|524:270|524:270|490:278|444:289|418:243,1,348.333343963623,10|0,0:3|0:0,0:0:0:0:
419,247,282371,2,0,B|389:293|389:315|417:362,1,120.333330120087
430,371,282529,2,0,P|476:363|498:353,1,60.1666650600434
512,179,282687,2,0,B|440:186|330:127|330:127|299:75,1,240.666660240174,10|0,2:0|0:0,0:0:0:0:
372,115,283003,6,0,P|424:107|472:70,1,113.999996520996,10|0,0:3|0:0,0:0:0:0:
446,138,283318,6,0,B|395:133|363:122|327:96,1,120.333330120087,10|0,0:0|0:0,0:0:0:0:
172,213,283529,1,0,0:0:0:0:
103,256,283634,2,0,B|35:250|-7:195|-4:125|-4:125|13:99|29:51,1,240.666660240174,10|0,0:0|0:0,0:0:0:0:
26,264,283950,6,0,B|24:308|15:337|-1:377,1,113.999996520996,8|0,0:3|0:0,0:0:0:0:
116,350,284265,1,2,1:2:0:0:
230,337,284370,1,2,1:2:0:0:
263,227,284475,1,2,1:2:0:0:
175,269,284581,1,10,1:2:0:0:
489,221,284897,6,0,B|470:181|465:151|462:107,1,113.999996520996,8|0,0:3|0:0,0:0:0:0:
337,174,285214,5,2,1:2:0:0:
224,131,285319,1,2,1:2:0:0:
188,15,285424,1,2,1:2:0:0:
289,55,285529,2,0,B|348:73|393:66|445:16,1,151.999995361328,10|0,1:2|0:0,0:0:0:0:
355,99,285845,6,0,B|294:213|178:160|104:121,1,240.666660240174,8|0,0:3|0:0,0:0:0:0:
409,333,286160,1,0,1:0:0:0:
409,333,286212,1,0,1:0:0:0:
409,333,286265,2,0,B|364:321|347:308|308:253,1,120.333330120087,2|0,1:0|0:0,0:0:0:0:
70,355,286476,2,0,B|183:360|248:291|236:184,1,253.333333333333,8|0,1:2|0:0,0:0:0:0:
324,129,286792,6,0,B|301:104|154:69|104:46|104:46|88:28|73:13,1,278.666675170899,14|0,0:3|0:0,0:0:0:0:
339,310,287108,2,0,B|370:297|417:290|453:284|453:284|470:269|493:263,1,139.333337585449,14|0,0:0|0:0,0:0:0:0:
488,284,287266,2,0,B|507:253|507:253|508:213,1,69.6666687927247
225,384,287424,2,0,B|188:381|138:365|96:351,1,120.333330120087,14|0,0:0|0:0,0:0:0:0:
60,363,287581,2,0,B|53:355|46:338|46:338|48:300,1,60.1666650600434
0,129,287739,6,0,B|28:176|75:196|136:207|136:207|186:152|250:125|250:125|256:82,1,348.333343963623,14|0,0:3|0:0,0:0:0:0:
242,64,288055,2,0,B|194:50|165:52|121:82,1,120.333330120087
130,91,288213,1,0,0:0:0:0:
139,101,288266,1,0,0:0:0:0:
143,298,288371,2,0,P|222:322|338:389,1,209.000006378174,10|0,0:0|0:0,0:0:0:0:
319,165,288687,6,0,B|330:127|355:78|364:42,2,120.333330120087,10|0|0,0:3|0:0|0:0,0:0:0:0:
501,299,289003,6,0,B|449:332|414:335|382:331,1,120.333330120087,2|0,0:0|0:0,0:0:0:0:
373,292,289160,2,0,B|345:326|296:345|260:317,1,120.333330120087,2|0,0:0|0:0,0:0:0:0:
170,365,289318,2,0,B|133:292|152:255|243:218,1,180.49999518013,10|0,0:0|0:0,0:0:0:0:
458,26,289634,6,0,B|387:75|387:75|343:78|278:12|278:12|230:83|157:75,1,348.333343963623,10|0,0:3|0:0,0:0:0:0:
174,90,289950,2,0,B|130:95|88:78|70:28,1,120.333330120087
87,30,290108,2,0,P|94:62|92:89,1,60.1666650600434
24,242,290266,2,0,B|148:166|295:159,1,278.666675170899,10|0,0:0|0:0,0:0:0:0:
429,299,290581,6,0,B|410:353|389:370|347:382,1,113.999996520996,10|0,0:3|0:0,0:0:0:0:
270,339,290897,6,0,B|219:302|210:266|234:214,1,139.333337585449,2|0,0:0|0:0,0:0:0:0:
360,109,291108,1,0,0:0:0:0:
294,76,291213,2,0,B|346:42|420:49|464:98|464:98|435:124|424:165|424:165|431:184,1,278.666675170899,10|0,0:0|0:0,0:0:0:0:
477,247,291529,6,0,B|428:284|394:294|332:282,1,139.333337585449,10|0,0:3|0:0,0:0:0:0:
331,269,291687,2,0,B|356:285|395:283|409:276|409:276|441:314|441:314|469:312|499:322|515:362,1,213.750000815392,2|0,1:2|0:0,0:0:0:0:
478,384,292003,2,0,P|432:368|389:362,1,69.6666687927247,2|0,0:0|0:0,0:0:0:0:
243,384,292160,2,0,B|175:372|139:316|137:264|137:264|177:243|202:218|219:186,1,278.666675170899,10|0,0:0|0:0,0:0:0:0:
307,14,292476,6,0,B|251:0|225:8|192:37,1,113.999996520996,10|0,1:3|0:0,0:0:0:0:
104,46,292792,5,2,1:2:0:0:
193,134,292897,1,2,1:2:0:0:
328,134,293002,1,2,1:2:0:0:
381,66,293108,2,0,B|450:58|486:100|501:148|501:148|469:124|476:69,1,240.666660240174,10|0,1:2|0:0,0:0:0:0:
512,11,293423,6,0,P|253:205|0:322,1,601.666650600434,10|0,0:3|0:0,0:0:0:0:
0,299,294055,6,0,B|50:370|106:395|211:330,1,240.666660240174,10|0,0:0|0:0,0:0:0:0:
273,87,294371,2,0,B|207:51|151:77|135:172,1,180.49999518013,14|0,0:3|0:0,0:0:0:0:
9,32,294634,6,0,B|110:73|70:69|47:166|162:81|47:383|129:-307|457:5|208:300|89:167|341:32|150:279|330:263|371:168|289:-117|16:205|531:494|382:62|193:235|296:172|652:-14|241:395|532:230,1,646.000012321472,2|0,0:0|0:0,0:0:0:0:
512,197,295328,6,0,B|439:215|439:215|395:237|395:237|347:230|347:230|287:243,1,221.666659901937,14|0,0:3|0:0,0:0:0:0:
289,265,295644,2,0,B|259:203|270:151|335:104,1,177.33332792155,2|2,0:0|0:0,0:0:0:0:
400,101,295960,1,10,0:1:0:0:
359,294,296170,5,2,0:0:0:0:
464,141,296275,1,14,0:3:0:0:
436,279,296591,5,2,0:0:0:0:
512,266,296801,5,2,0:0:0:0:
409,203,296906,2,0,B|328:141|324:96|413:23,1,221.666659901937,10|0,1:1|0:0,0:0:0:0:
456,39,297222,6,0,L|55:8,1,398.999987823487,14|0,0:3|0:0,0:0:0:0:
22,29,297749,5,2,0:0:0:0:
42,104,297854,1,10,0:1:0:0:
151,61,298064,5,2,0:0:0:0:
189,204,298170,1,14,0:3:0:0:
84,177,298485,5,2,0:0:0:0:
190,137,298643,1,2,0:0:0:0:
268,222,298801,2,0,B|358:277|394:249|442:147,1,221.666659901937,10|0,0:1|0:0,0:0:0:0:
476,139,299117,6,0,L|332:116,1,132.999995941162,14|0,0:3|0:1,0:0:0:0:
186,187,299433,1,6,0:1:0:0:
136,158,299538,1,2,0:0:0:0:
79,165,299643,1,2,0:0:0:0:
43,209,299749,1,2,0:0:0:0:
43,209,300082,5,2,0:0:0:0:
198,131,300415,1,2,0:0:0:0:
224,151,300529,1,2,0:0:0:0:
259,151,300643,1,2,0:0:0:0:
273,177,300757,1,2,0:0:0:0:
154,239,300971,5,2,0:0:0:0:
123,141,301104,1,2,0:0:0:0:
337,244,301465,5,2,0:0:0:0:
386,268,301585,1,2,0:0:0:0:
423,218,301706,1,2,0:0:0:0:
476,246,301826,1,2,0:0:0:0:
472,237,302213,6,0,B|357:485|203:-79|642:373|-229:9|577:308|-70:171|719:63|319:565|150:505|46:356|155:198|261:302,1,734.666666666667,10|0,0:3|0:0,0:0:0:0:
382,331,303791,5,14,0:3:0:0:
256,192,303844,12,8,310896,0:0:0:0:
