osu file format v14

[General]
AudioFilename: audio.mp3
AudioLeadIn: 0
PreviewTime: 51128
Countdown: 0
SampleSet: Soft
StackLeniency: 0.7
Mode: 0
LetterboxInBreaks: 0
WidescreenStoryboard: 0

[Editor]
Bookmarks: 119966,135533,149804,160182,170560
DistanceSpacing: 0.4
BeatDivisor: 4
GridSize: 8
TimelineZoom: 1

[Metadata]
Title:Kigurumi Sungeki
TitleUnicode:きぐるみ寸劇
Artist:Chikamori Kayako
ArtistUnicode:浮森かや子
Creator:Mirash
Version:Labyrinth of Steam
Source:
Tags:-MikanMyMommy kogumax koguma cross kaine raja jounzan evilelvis natteke desu djulus delis shirohamymommy pop jpop j-pop japanese 幼蚕文庫 オッカ 99 Yousan Bunko
BeatmapID:2719334
BeatmapSetID:1312079

[Difficulty]
HPDrainRate:6
CircleSize:4
OverallDifficulty:8
ApproachRate:8
SliderMultiplier:1.85
SliderTickRate:1

[Events]
//Background and Video events
0,0,"notkigurumiXD.jpg",0,0
//Break Periods
2,135733,138646
//Storyboard Layer 0 (Background)
//Storyboard Layer 1 (Fail)
//Storyboard Layer 2 (Pass)
//Storyboard Layer 3 (Foreground)
//Storyboard Layer 4 (Overlay)
//Storyboard Sound Samples

[TimingPoints]
615,324.324324324324,4,2,1,50,1,0
13263,-66.6666666666667,4,2,1,50,0,0
13587,-83.3333333333333,4,2,1,60,0,0
17155,-133.333333333333,4,2,1,60,0,0
17479,-133.333333333333,4,2,1,70,0,0
18128,-133.333333333333,4,2,1,80,0,0
18777,-100,4,2,1,50,0,0
28831,-133.333333333333,4,2,1,50,0,0
29155,-100,4,2,2,60,0,0
38560,-80,4,2,1,60,0,0
38885,-66.6666666666667,4,2,1,70,0,0
39533,-133.333333333333,4,2,1,60,0,0
42128,-100,4,2,1,60,0,0
47317,-100,4,2,1,65,0,0
51209,-83.3333333333333,4,1,1,70,0,0
59642,-100,4,1,1,65,0,0
60939,-133.333333333333,4,1,1,60,0,0
61263,-200,4,2,1,50,0,0
61587,-333.333333333333,4,2,1,40,0,0
64182,-133.333333333333,4,2,1,50,0,0
65479,-133.333333333333,4,2,1,60,0,0
66452,-250,4,2,1,50,0,0
66777,-250,4,2,1,55,0,0
67425,-100,4,2,1,55,0,0
70669,-100,4,2,1,65,0,0
71966,-100,4,2,1,55,0,0
75858,-250,4,2,1,70,0,0
77155,-100,4,2,1,50,0,0
87533,-100,4,2,2,60,0,0
97912,-100,4,2,1,60,0,0
106993,-100,4,2,1,65,0,0
108290,-100,4,2,1,70,0,0
109587,-83.3333333333333,4,1,1,70,0,0
118669,-100,4,1,1,65,0,0
118993,-133.333333333333,4,1,1,60,0,0
119317,-200,4,1,1,50,0,0
119966,-200,4,2,1,40,0,0
122560,-133.333333333333,4,2,1,50,0,0
123209,-133.333333333333,4,2,1,60,0,0
123858,-133.333333333333,4,2,1,65,0,0
124831,-200,4,2,1,50,0,0
125155,-100,4,2,1,65,0,0
130993,-66.6666666666667,4,2,1,65,0,0
131317,-100,4,2,1,65,0,0
132290,-66.6666666666667,4,2,1,65,0,0
134885,-100,4,2,1,50,0,0
135209,-133.333333333333,4,2,1,40,0,0
143317,-133.333333333333,4,2,1,50,0,0
144614,-133.333333333333,4,2,1,55,0,0
145587,-100,4,2,1,60,0,0
145912,-83.3333333333333,4,2,1,70,0,0
147209,-71.4285714285714,4,2,1,80,0,0
148182,-250,4,2,1,80,0,0
148506,-250,4,2,1,50,0,0
149804,-250,4,1,1,70,0,0
151101,-83.3333333333333,4,1,1,70,0,0
159533,-100,4,1,1,70,0,0
159858,-133.333333333333,4,1,1,70,0,0
160182,-83.3333333333333,4,1,1,70,0,0
170560,-71.4285714285714,4,1,1,80,0,0
182885,-100,4,1,1,60,0,0
183209,-100,4,1,1,50,0,0

[Colours]
Combo1 : 171,107,109
Combo2 : 72,126,130
Combo3 : 147,157,115
Combo4 : 176,89,143

[HitObjects]
75,47,615,5,0,1:0:0:0:
132,114,777,1,0,0:0:0:0:
73,180,939,1,0,1:0:0:0:
73,180,1101,1,0,0:0:0:0:
57,262,1263,1,0,1:0:0:0:
118,336,1425,1,0,0:0:0:0:
118,336,1506,1,0,1:0:0:0:
118,336,1587,1,0,1:0:0:0:
40,268,1750,5,0,1:0:0:0:
39,268,1831,1,0,0:0:0:0:
39,268,1912,1,0,1:0:0:0:
121,241,2074,1,0,0:0:0:0:
200,277,2236,1,0,1:0:0:0:
200,277,2398,1,0,0:0:0:0:
289,280,2560,1,0,1:0:0:0:
353,224,2723,1,2,0:1:0:0:
341,140,2885,1,0,1:0:0:0:
312,57,3047,1,2,0:1:0:0:
395,84,3209,6,0,P|362:198|350:307,1,185,0|0,1:0|3:0,0:0:0:0:
418,363,3696,1,0,0:0:0:0:
485,269,3858,2,0,P|478:210|472:154,1,92.5,0|0,1:0|0:0,0:0:0:0:
485,156,4101,1,0,1:0:0:0:
493,134,4182,1,0,3:0:0:0:
323,162,4344,1,0,1:0:0:0:
234,230,4506,6,0,P|241:171|247:115,1,92.5,0|0,1:0|0:0,0:0:0:0:
163,29,4831,1,0,3:0:0:0:
407,34,4993,2,0,P|380:123|368:215,1,185,0|0,1:0|0:0,0:0:0:0:
364,237,5398,1,0,1:0:0:0:
360,259,5479,1,0,3:0:0:0:
260,365,5642,1,0,1:0:0:0:
103,224,5804,5,2,1:2:0:0:
17,297,5966,1,2,0:0:0:0:
134,253,6128,2,0,P|127:194|121:138,1,92.5,0|0,3:0|0:0,0:0:0:0:
0,75,6452,5,2,1:2:0:0:
118,11,6614,1,2,0:0:0:0:
118,11,6696,1,2,1:2:0:0:
118,11,6777,1,0,3:0:0:0:
26,0,6939,1,2,1:2:0:0:
217,155,7101,5,4,1:0:0:0:
327,122,7263,1,0,0:0:0:0:
303,234,7425,1,0,0:0:0:0:
303,234,7587,1,0,0:0:0:0:
260,42,7750,5,8,3:0:0:0:
408,172,7912,1,4,3:0:0:0:
278,320,8074,1,4,3:3:0:0:
130,190,8236,1,4,1:3:0:0:
256,186,8398,6,0,P|324:162|363:147,1,92.5,0|0,1:0|0:0,0:0:0:0:
205,120,8723,1,0,3:0:0:0:
78,91,8885,2,0,P|150:58|262:5,1,185,0|0,1:0|1:0,0:0:0:0:
365,49,9371,1,0,3:0:0:0:
482,285,9533,5,0,0:0:0:0:
482,285,9614,1,0,1:0:0:0:
482,285,9696,1,2,3:2:0:0:
383,357,9858,1,0,1:0:0:0:
309,259,10020,1,2,3:2:0:0:
466,73,10182,6,0,P|456:160|455:189,1,92.5,0|2,1:0|0:0,0:0:0:0:
410,241,10506,1,0,1:0:0:0:
243,148,10669,1,2,3:2:0:0:
356,0,10831,1,0,0:0:0:0:
380,94,10993,5,2,1:3:0:0:
418,170,11155,1,0,0:0:0:0:
321,152,11317,1,4,3:0:0:0:
359,228,11479,1,0,0:0:0:0:
457,97,11642,5,4,0:0:0:0:
273,254,11804,1,0,0:0:0:0:
299,78,11966,1,8,3:0:0:0:
440,252,12128,1,0,0:0:0:0:
502,195,12290,5,4,1:0:0:0:
362,164,12452,1,0,0:0:0:0:
104,130,12614,5,4,1:3:0:0:
224,267,12776,1,0,0:0:0:0:
458,37,12939,6,0,P|451:108|450:149,1,92.5,4|0,0:0|0:0,0:0:0:0:
54,346,13263,6,0,P|61:275|58:192,1,138.750005292893,4|0,0:0|0:0,0:0:0:0:
216,26,13587,5,4,1:0:0:0:
365,130,13750,1,0,0:0:0:0:
241,182,13912,1,0,0:0:0:0:
283,110,14074,5,2,1:0:0:0:
103,8,14236,2,0,P|101:77|104:119,1,110.999996612549,2|0,1:0|0:0,0:0:0:0:
321,203,14560,5,2,1:0:0:0:
424,29,14723,1,2,1:0:0:0:
338,60,14885,5,6,1:0:0:0:
418,117,15047,1,0,0:0:0:0:
210,228,15209,1,4,0:0:0:0:
219,118,15371,1,0,0:0:0:0:
455,258,15534,1,2,1:2:0:0:
344,331,15696,1,0,0:0:0:0:
344,331,15777,1,0,1:0:0:0:
344,331,15858,1,0,1:0:0:0:
362,231,16020,1,0,1:0:0:0:
423,380,16182,5,4,1:2:0:0:
211,361,16344,1,2,0:0:0:0:
228,319,16425,1,2,0:0:0:0:
233,273,16506,1,2,1:2:0:0:
224,234,16587,1,2,0:0:0:0:
209,204,16669,1,2,0:0:0:0:
209,176,16750,1,2,0:0:0:0:
215,149,16831,1,2,1:2:0:0:
226,123,16912,1,2,0:0:0:0:
233,111,16993,1,2,0:0:0:0:
236,97,17075,1,2,0:0:0:0:
236,83,17155,2,2,P|233:65|225:39,3,34.6875013232232,2|2|2|2,1:2|0:0|0:0|0:0,0:0:0:0:
211,32,17479,5,4,1:0:0:0:
165,182,17642,1,4,3:0:0:0:
229,322,17804,1,4,3:0:0:0:
273,182,17966,1,4,3:0:0:0:
117,67,18128,5,4,1:2:0:0:
322,302,18290,1,8,1:3:0:0:
341,40,18452,5,4,1:2:0:0:
94,325,18614,1,4,1:3:0:0:
280,167,18777,6,0,P|337:179|379:189,1,92.5,4|0,1:0|0:0,0:0:0:0:
456,138,19101,1,0,3:0:0:0:
478,317,19263,2,0,P|381:294|290:272,1,185,0|0,1:0|1:0,0:0:0:0:
177,211,19750,1,0,3:0:0:0:
124,316,19912,1,0,1:0:0:0:
203,232,20074,6,0,P|215:175|225:133,1,92.5,0|0,1:0|0:0,0:0:0:0:
130,35,20398,1,0,3:0:0:0:
44,150,20560,2,0,P|22:239|0:329,1,185,0|0,1:0|0:0,0:0:0:0:
0,329,20966,1,0,1:0:0:0:
0,329,21047,1,2,3:2:0:0:
137,384,21209,1,0,1:0:0:0:
187,164,21371,5,2,1:2:0:0:
223,49,21533,1,0,1:0:0:0:
334,103,21696,1,0,3:0:0:0:
334,103,21858,1,0,1:0:0:0:
409,370,22020,5,4,1:2:0:0:
264,342,22182,1,0,1:0:0:0:
310,209,22344,1,0,3:0:0:0:
310,209,22506,1,0,1:0:0:0:
497,208,22669,5,4,1:0:0:0:
395,67,22831,1,2,0:0:0:0:
254,169,22993,1,0,3:0:0:0:
356,310,23155,1,4,0:0:0:0:
380,193,23317,5,8,3:0:0:0:
296,255,23479,1,4,3:0:0:0:
70,114,23642,5,4,3:0:0:0:
178,32,23804,1,4,1:3:0:0:
280,64,23966,6,0,P|264:141|256:183,1,92.5,0|0,1:0|0:0,0:0:0:0:
165,193,24290,1,0,3:0:0:0:
334,366,24452,2,0,P|350:272|370:180,1,185,0|0,1:0|1:0,0:0:0:0:
259,248,24939,1,0,3:0:0:0:
334,366,25101,1,0,1:0:0:0:
470,227,25263,5,2,1:2:0:0:
466,202,25425,1,0,0:0:0:0:
293,89,25587,1,2,3:2:0:0:
278,137,25750,1,0,0:0:0:0:
464,82,25912,1,2,1:2:0:0:
427,12,26074,1,0,0:0:0:0:
337,247,26236,1,2,3:2:0:0:
386,336,26398,1,0,0:0:0:0:
476,200,26560,6,0,P|400:184|360:178,1,92.5,2|0,1:2|0:0,0:0:0:0:
216,235,26885,2,0,P|164:244|114:255,1,92.5,0|0,3:0|0:0,0:0:0:0:
165,136,27209,1,2,1:2:0:0:
295,151,27371,1,0,0:0:0:0:
305,291,27533,1,4,3:2:0:0:
195,350,27696,1,0,0:0:0:0:
64,245,27858,5,0,1:0:0:0:
141,96,28020,1,0,0:0:0:0:
141,96,28101,1,0,1:0:0:0:
141,96,28182,1,0,3:0:0:0:
299,122,28344,1,0,1:0:0:0:
175,382,28506,5,8,3:0:0:0:
354,305,28669,1,4,3:0:0:0:
304,108,28831,2,0,P|307:53|312:11,1,69.3750026464463,4|0,1:0|0:0,0:0:0:0:
442,174,29155,6,0,P|426:258|424:291,1,92.5,4|2,1:0|0:3,0:0:0:0:
494,377,29479,1,0,3:0:0:0:
289,369,29642,2,0,P|303:279|323:171,1,185,2|2,1:3|1:3,0:0:0:0:
409,59,30128,1,0,3:0:0:0:
459,304,30290,5,2,0:3:0:0:
459,304,30371,1,0,1:0:0:0:
459,304,30452,1,0,1:0:0:0:
512,168,30614,1,2,1:3:0:0:
289,66,30777,1,0,3:0:0:0:
249,202,30939,2,0,P|233:293|219:385,1,185,2|2,1:3|1:3,0:0:0:0:
139,265,31425,2,0,P|91:226|76:183,1,92.5,2|0,3:1|1:3,0:0:0:0:
197,91,31750,5,2,1:0:0:0:
353,181,31912,1,0,1:3:0:0:
353,181,31993,1,0,0:0:0:0:
353,181,32074,2,0,P|401:142|416:99,1,92.5,2|0,3:1|1:3,0:0:0:0:
318,62,32398,1,4,1:2:0:0:
244,238,32560,1,2,1:2:0:0:
196,104,32723,1,0,3:0:0:0:
353,181,32885,1,2,1:2:0:0:
164,18,33047,5,4,1:0:0:0:
6,73,33209,1,0,0:3:0:0:
6,73,33290,1,0,0:0:0:0:
6,73,33371,1,0,3:0:0:0:
133,166,33533,1,4,0:3:0:0:
86,99,33696,5,8,3:0:0:0:
20,239,33858,1,4,3:3:0:0:
349,275,34020,5,4,3:0:0:0:
266,104,34182,1,4,1:3:0:0:
485,213,34344,6,0,P|468:285|457:333,1,92.5,0|2,1:0|0:3,0:0:0:0:
335,375,34669,1,0,3:0:0:0:
266,205,34831,2,0,P|283:137|315:19,1,185,2|2,1:3|1:0,0:0:0:0:
399,165,35317,1,0,3:0:0:0:
158,313,35479,5,2,1:0:0:0:
158,313,35560,1,0,0:0:0:0:
158,313,35642,2,0,P|149:279|133:220,1,92.5,6|0,1:2|0:0,0:0:0:0:
56,116,35966,1,2,3:2:0:0:
230,206,36128,2,0,P|205:295|183:384,1,185,2|2,1:0|1:0,0:0:0:0:
317,339,36614,1,0,3:1:0:0:
230,206,36777,1,2,1:0:0:0:
430,35,36939,6,0,P|444:88|458:142,1,92.5,6|0,1:0|0:0,0:0:0:0:
423,258,37263,1,0,3:0:0:0:
453,124,37425,1,0,0:0:0:0:
82,35,37587,6,0,P|67:88|53:142,1,92.5,6|0,1:2|0:0,0:0:0:0:
58,124,37831,1,0,0:0:0:0:
58,124,37912,1,4,3:2:0:0:
89,258,38074,1,0,0:0:0:0:
430,349,38236,6,0,P|444:295|458:241,1,92.5,4|0,1:0|0:0,0:0:0:0:
55,256,38560,2,0,P|70:323|83:368,1,115.625,4|0,3:2|0:0,0:0:0:0:
254,299,38885,6,0,B|190:160|325:176|261:16,1,277.500010585785,4|4,3:1|1:0,0:0:0:0:
267,33,39371,1,2,0:0:0:0:
48,92,39533,5,2,1:2:0:0:
152,176,39696,1,2,0:0:0:0:
164,82,39858,1,0,1:0:0:0:
164,82,40020,1,0,1:0:0:0:
48,92,40182,5,2,1:2:0:0:
47,200,40344,1,2,0:2:0:0:
164,82,40506,1,0,1:0:0:0:
164,82,40669,1,0,1:0:0:0:
237,211,40831,5,4,1:2:0:0:
337,132,40993,1,0,1:2:0:0:
205,187,41155,2,0,P|214:238|217:273,1,69.3750026464463,2|0,1:2|0:0,0:0:0:0:
432,156,41479,2,0,P|423:105|420:70,1,69.3750026464463,2|0,1:2|0:0,0:0:0:0:
313,206,41804,5,0,1:0:0:0:
410,266,41966,1,0,0:0:0:0:
348,55,42128,2,0,P|288:67|227:81,1,92.5,4|0,1:0|0:0,0:0:0:0:
257,73,42371,1,0,1:0:0:0:
257,73,42452,1,0,3:0:0:0:
163,39,42614,1,0,1:0:0:0:
183,293,42777,1,0,1:0:0:0:
277,214,42939,1,0,1:0:0:0:
36,95,43101,1,0,3:0:0:0:
44,230,43263,1,0,1:0:0:0:
175,144,43425,6,0,P|244:163|288:174,1,92.5,4|0,1:0|0:0,0:0:0:0:
264,168,43669,1,0,1:0:0:0:
264,168,43750,1,0,3:0:0:0:
331,290,43912,1,0,1:0:0:0:
423,189,44074,2,0,P|467:177|512:164,1,92.5,0|0,3:0|1:0,0:0:0:0:
344,212,44398,5,0,1:0:0:0:
493,298,44560,1,0,3:0:0:0:
210,104,44723,6,0,P|216:62|237:1,1,92.5,4|2,1:0|0:0,0:0:0:0:
123,90,45047,1,0,1:0:0:0:
158,160,45209,1,0,1:0:0:0:
344,218,45371,6,0,P|338:176|317:115,1,92.5,2|2,1:2|0:0,0:0:0:0:
426,208,45695,1,0,1:0:0:0:
396,279,45857,1,0,1:0:0:0:
206,276,46020,5,4,1:2:0:0:
142,189,46182,1,2,0:0:0:0:
120,286,46344,1,0,1:0:0:0:
231,196,46506,1,0,1:0:0:0:
413,384,46669,5,4,1:2:0:0:
339,325,46831,1,0,0:0:0:0:
339,325,46912,1,0,1:0:0:0:
339,325,46993,2,0,P|305:332|239:338,1,92.5,4|0,1:2|0:0,0:0:0:0:
326,137,47317,5,4,1:0:0:0:
425,274,47480,1,0,1:0:0:0:
425,106,47642,1,0,3:0:0:0:
326,242,47803,1,0,1:0:0:0:
503,190,47966,5,4,1:2:0:0:
295,114,48128,1,0,1:0:0:0:
437,311,48291,1,0,3:0:0:0:
437,68,48453,1,0,1:0:0:0:
295,264,48614,5,4,1:0:0:0:
395,188,48777,1,0,1:0:0:0:
199,119,48939,5,0,3:0:0:0:
99,197,49102,1,0,1:0:0:0:
401,334,49263,5,6,1:2:0:0:
306,150,49425,1,0,1:0:0:0:
94,51,49587,5,0,3:0:0:0:
189,235,49750,1,0,1:0:0:0:
377,96,49912,5,4,1:0:0:0:
446,14,50074,1,0,0:0:0:0:
446,14,50155,1,0,1:0:0:0:
446,14,50236,1,4,1:0:0:0:
477,181,50398,1,0,1:0:0:0:
172,210,50560,5,4,1:0:0:0:
267,384,50723,1,0,1:0:0:0:
267,384,50804,1,0,1:0:0:0:
267,384,50885,1,4,1:0:0:0:
346,282,51047,1,0,1:0:0:0:
74,57,51209,6,0,P|65:175|54:290,1,221.999993225098,4|8,1:0|0:0,0:0:0:0:
174,384,51696,1,0,0:0:0:0:
312,201,51858,2,0,P|267:145|212:136,1,110.999996612549,0|2,0:0|0:2,0:0:0:0:
232,136,52101,1,0,0:0:0:0:
232,136,52182,1,8,0:0:0:0:
316,288,52344,1,0,0:0:0:0:
387,40,52506,6,0,P|381:103|382:168,1,110.999996612549,0|2,0:0|0:2,0:0:0:0:
164,313,52831,2,0,P|170:250|169:185,1,110.999996612549,8|0,0:0|0:0,0:0:0:0:
260,299,53155,1,0,0:0:0:0:
76,255,53317,1,2,0:2:0:0:
266,214,53479,5,8,0:0:0:0:
161,91,53642,1,0,0:0:0:0:
312,15,53804,1,4,0:2:0:0:
417,138,53966,1,2,0:2:0:0:
288,112,54128,1,8,0:0:0:0:
224,25,54290,5,0,0:0:0:0:
468,79,54452,2,0,P|452:139|441:198,1,110.999996612549,0|2,0:0|0:2,0:0:0:0:
295,270,54777,1,8,0:0:0:0:
412,379,54939,1,0,0:0:0:0:
512,222,55101,5,4,0:2:0:0:
318,52,55263,1,0,0:0:0:0:
335,265,55425,5,8,0:0:0:0:
509,20,55587,1,0,0:0:0:0:
169,39,55750,5,8,0:0:0:0:
299,171,55912,1,0,0:0:0:0:
299,171,55993,1,8,0:0:0:0:
299,171,56074,1,8,0:0:0:0:
423,41,56236,1,8,0:0:0:0:
52,182,56398,6,0,P|179:215|273:244,1,221.999993225098,4|8,0:0|0:0,0:0:0:0:
424,191,56885,1,0,0:0:0:0:
445,200,56966,1,2,0:0:0:0:
464,212,57047,2,0,P|399:228|341:252,1,110.999996612549,2|0,0:0|0:0,0:0:0:0:
224,70,57371,1,8,0:0:0:0:
105,66,57533,1,2,0:0:0:0:
84,75,57614,1,0,0:0:0:0:
65,87,57695,2,0,P|130:103|183:126,1,110.999996612549,2|0,0:0|0:0,0:0:0:0:
337,16,58020,5,10,0:0:0:0:
426,106,58182,1,0,0:0:0:0:
314,161,58344,1,2,0:0:0:0:
224,70,58506,1,0,0:0:0:0:
444,17,58669,5,10,0:0:0:0:
447,39,58750,1,0,0:0:0:0:
450,61,58831,1,2,0:0:0:0:
453,83,58912,1,0,0:0:0:0:
456,105,58993,1,4,0:2:0:0:
460,198,59155,1,0,0:0:0:0:
472,292,59317,1,2,0:2:0:0:
471,384,59479,1,2,0:2:0:0:
335,171,59642,6,0,P|343:110|343:67,1,92.5,4|2,0:2|0:2,0:0:0:0:
84,283,59966,2,0,P|88:317|92:378,1,92.5,4|0,0:2|0:0,0:0:0:0:
359,336,60290,5,8,0:0:0:0:
247,288,60452,1,0,0:0:0:0:
11,118,60614,5,8,0:0:0:0:
193,64,60776,1,0,0:0:0:0:
356,0,60939,6,0,P|359:59|361:85,1,69.3750026464463,8|0,0:0|0:0,0:0:0:0:
498,238,61263,6,0,P|501:188|503:173,1,46.25,4|0,0:0|0:0,0:0:0:0:
453,124,61587,6,0,P|422:131|395:141,1,55.4999983062745,4|0,1:0|0:0,0:0:0:0:
323,157,62074,1,0,0:0:0:0:
305,232,62236,2,0,P|307:266|309:295,1,55.4999983062745,0|0,1:0|0:0,0:0:0:0:
207,152,62885,6,0,P|205:118|203:89,1,55.4999983062745,4|0,1:0|0:0,0:0:0:0:
147,45,63371,1,0,0:0:0:0:
94,101,63533,1,0,1:0:0:0:
152,210,63858,1,4,0:0:0:0:
71,308,64182,6,0,P|67:260|62:217,1,69.3750026464463,4|0,1:2|0:0,0:0:0:0:
31,174,64506,1,4,1:0:0:0:
31,174,64669,1,0,0:0:0:0:
96,142,64831,1,0,1:0:0:0:
174,226,64993,1,0,1:0:0:0:
303,197,65155,1,8,1:0:0:0:
308,37,65317,1,8,1:0:0:0:
156,3,65479,5,4,1:0:0:0:
251,274,65642,1,0,1:0:0:0:
357,104,65804,1,12,1:0:0:0:
65,184,65966,1,8,0:1:0:0:
324,186,66128,5,4,1:0:0:0:
324,186,66452,2,0,P|316:229|315:238,1,37,4|0,0:0|0:0,0:0:0:0:
266,287,66777,5,0,1:0:0:0:
432,188,66939,1,0,1:0:0:0:
432,188,67020,1,2,0:0:0:0:
432,188,67101,1,0,1:0:0:0:
250,101,67263,1,0,1:0:0:0:
348,201,67425,6,0,P|344:182|327:100,1,92.5,0|2,1:0|0:0,0:0:0:0:
231,181,67750,1,2,1:0:0:0:
444,94,67912,1,0,1:0:0:0:
129,12,68074,5,0,1:0:0:0:
101,85,68236,1,2,0:0:0:0:
106,102,68317,1,0,0:0:0:0:
111,119,68398,1,0,1:0:0:0:
36,38,68560,1,2,0:0:0:0:
190,356,68723,5,0,1:0:0:0:
161,287,68885,1,2,0:0:0:0:
165,269,68966,1,0,0:0:0:0:
168,250,69047,1,0,1:0:0:0:
97,330,69209,1,2,0:0:0:0:
489,361,69371,5,0,1:0:0:0:
466,356,69452,1,2,0:0:0:0:
443,351,69533,1,2,0:0:0:0:
420,346,69614,1,2,0:0:0:0:
396,349,69696,1,0,1:0:0:0:
373,345,69777,1,2,0:0:0:0:
350,341,69858,1,2,0:0:0:0:
327,337,69939,1,2,0:0:0:0:
296,314,70020,5,4,1:2:0:0:
268,308,70101,1,2,0:0:0:0:
241,302,70182,1,2,0:0:0:0:
213,296,70263,1,2,0:0:0:0:
175,306,70345,1,0,1:0:0:0:
148,302,70426,1,2,0:0:0:0:
120,297,70507,1,2,0:0:0:0:
93,292,70588,1,2,0:0:0:0:
70,261,70669,5,4,1:0:0:0:
228,369,70831,1,2,1:2:0:0:
201,224,70993,5,8,1:0:0:0:
90,374,71155,1,2,1:3:0:0:
0,214,71317,5,4,1:2:0:0:
127,130,71479,1,2,1:3:0:0:
22,116,71642,1,10,1:0:0:0:
93,223,71804,1,0,1:0:0:0:
323,148,71966,6,0,B|330:93|361:77|361:77|421:108|496:105,1,185,0|0,1:0|1:0,0:0:0:0:
512,280,72452,1,2,0:0:0:0:
333,364,72614,2,0,P|342:298|347:256,1,92.5,0|2,1:0|0:0,0:0:0:0:
345,272,72858,1,2,0:3:0:0:
345,272,72939,1,2,1:3:0:0:
223,340,73101,1,0,1:3:0:0:
420,353,73263,6,0,P|486:362|528:367,1,92.5,0|0,1:0|0:0,0:0:0:0:
220,240,73587,2,0,P|174:234|128:227,1,92.5,0|0,1:0|0:0,0:0:0:0:
355,117,73912,1,0,1:0:0:0:
386,116,73993,1,2,0:0:0:0:
418,115,74074,1,2,0:0:0:0:
449,114,74155,1,2,0:0:0:0:
481,112,74236,1,0,1:0:0:0:
413,15,74398,1,0,1:0:0:0:
280,197,74560,5,2,1:0:0:0:
235,56,74723,1,2,0:0:0:0:
202,54,74804,1,2,0:0:0:0:
169,52,74885,1,0,1:0:0:0:
136,50,74966,1,2,0:0:0:0:
103,47,75047,1,2,0:0:0:0:
70,44,75128,1,2,0:0:0:0:
42,60,75209,5,4,1:0:0:0:
37,82,75290,1,2,0:0:0:0:
33,104,75371,1,2,0:0:0:0:
31,127,75452,1,2,0:0:0:0:
31,150,75533,1,0,1:0:0:0:
32,173,75614,1,2,0:0:0:0:
36,196,75696,1,2,0:0:0:0:
41,218,75777,1,2,0:0:0:0:
28,249,75858,5,6,1:0:0:0:
127,320,76020,1,0,1:0:0:0:
198,221,76182,1,8,1:0:0:0:
99,150,76344,1,0,1:0:0:0:
458,145,76506,5,4,1:0:0:0:
329,123,76669,1,8,1:0:0:0:
307,251,76831,1,12,1:0:0:0:
432,276,76993,1,0,1:0:0:0:
213,86,77155,5,4,1:0:0:0:
213,86,77479,1,0,3:0:0:0:
248,156,77642,2,0,P|235:224|214:347,1,185,0|0,1:0|1:0,0:0:0:0:
331,205,78128,2,0,P|374:167|377:127,1,92.5,0|0,3:0|1:0,0:0:0:0:
95,147,78452,5,4,1:2:0:0:
132,258,78614,1,0,0:0:0:0:
167,176,78777,1,0,3:0:0:0:
42,206,78939,2,0,P|3:177|13:49,1,185,0|0,1:0|0:0,0:0:0:0:
125,4,79425,1,2,3:2:0:0:
139,115,79587,1,0,1:0:0:0:
401,83,79750,5,2,1:2:0:0:
261,17,79912,1,0,1:0:0:0:
249,166,80074,2,0,P|292:164|329:127,1,92.5,0|0,3:0|1:0,0:0:0:0:
166,91,80398,5,4,1:2:0:0:
233,246,80560,1,0,1:0:0:0:
386,182,80723,1,0,3:0:0:0:
317,25,80885,1,0,1:0:0:0:
303,102,81047,5,4,1:0:0:0:
223,175,81209,1,2,0:0:0:0:
200,67,81371,1,0,3:0:0:0:
403,145,81533,5,4,0:0:0:0:
242,285,81696,1,8,3:0:0:0:
200,67,81858,5,4,3:0:0:0:
403,145,82020,1,4,3:0:0:0:
242,285,82182,1,4,1:3:0:0:
32,205,82344,1,0,1:0:0:0:
32,205,82669,5,0,3:0:0:0:
68,272,82831,2,0,P|142:277|264:281,1,185,0|0,1:0|1:0,0:0:0:0:
125,118,83317,2,0,P|87:86|46:67,1,92.5,0|0,3:0|1:0,0:0:0:0:
8,169,83642,1,2,1:2:0:0:
112,248,83804,1,0,0:0:0:0:
221,181,83966,1,2,3:2:0:0:
172,40,84128,2,0,P|264:37|356:31,1,185,0|0,1:0|1:0,0:0:0:0:
506,84,84614,1,2,3:2:0:0:
429,158,84777,1,0,0:0:0:0:
205,179,84939,5,2,1:2:0:0:
84,124,85101,1,0,0:0:0:0:
55,260,85263,1,0,3:0:0:0:
55,260,85425,1,0,0:0:0:0:
390,358,85587,5,2,1:2:0:0:
305,224,85750,1,0,0:0:0:0:
458,195,85912,1,4,3:2:0:0:
458,195,86074,1,0,0:0:0:0:
280,355,86236,5,0,1:0:0:0:
142,291,86398,1,0,0:0:0:0:
119,295,86479,1,0,1:0:0:0:
96,300,86560,1,0,3:0:0:0:
160,212,86723,1,0,1:0:0:0:
364,281,86885,5,8,3:0:0:0:
256,102,87047,1,4,3:0:0:0:
271,279,87209,5,4,1:0:0:0:
353,37,87371,1,0,0:0:0:0:
242,18,87533,6,0,P|190:32|124:42,1,92.5,4|2,1:0|0:3,0:0:0:0:
22,1,87858,1,0,3:0:0:0:
181,186,88020,2,0,P|244:166|364:113,1,185,2|2,1:3|1:3,0:0:0:0:
364,98,88425,1,0,0:0:0:0:
372,76,88506,1,0,3:0:0:0:
439,194,88669,1,2,1:3:0:0:
112,23,88831,6,0,P|126:75|136:141,1,92.5,0|2,1:0|0:3,0:0:0:0:
40,200,89155,1,0,3:0:0:0:
143,274,89317,1,2,1:3:0:0:
143,274,89398,1,0,0:0:0:0:
143,274,89479,1,0,0:0:0:0:
228,183,89642,1,2,1:3:0:0:
145,199,89804,2,0,P|132:243|124:289,1,92.5,2|0,3:1|1:3,0:0:0:0:
355,114,90128,5,2,1:0:0:0:
199,67,90290,1,0,1:3:0:0:
310,193,90452,1,2,3:1:0:0:
294,37,90614,1,0,1:3:0:0:
391,194,90777,5,4,1:2:0:0:
366,287,90939,1,2,1:2:0:0:
366,287,91020,1,0,0:0:0:0:
366,287,91101,1,0,3:0:0:0:
485,167,91263,1,2,1:2:0:0:
161,177,91425,5,4,1:0:0:0:
238,346,91587,1,0,0:3:0:0:
287,216,91750,1,0,3:0:0:0:
114,309,91912,1,4,0:3:0:0:
327,298,92074,5,8,3:3:0:0:
232,118,92236,1,4,3:0:0:0:
51,204,92398,1,4,3:3:0:0:
146,384,92560,1,4,1:3:0:0:
158,204,92723,6,0,P|161:147|160:86,1,92.5,0|2,1:0|0:3,0:0:0:0:
80,39,93047,1,0,3:0:0:0:
367,17,93209,2,0,P|295:33|266:137,1,185,2|2,1:3|1:0,0:0:0:0:
381,194,93696,1,0,3:0:0:0:
505,71,93858,5,2,1:0:0:0:
505,71,93939,1,0,1:0:0:0:
505,71,94020,1,6,1:2:0:0:
394,108,94182,1,0,0:0:0:0:
501,178,94344,1,2,3:2:0:0:
396,323,94506,2,0,P|409:258|419:115,1,185,2|2,1:0|1:0,0:0:0:0:
333,245,94993,1,0,3:1:0:0:
481,331,95155,1,2,1:0:0:0:
297,372,95317,5,6,1:0:0:0:
180,247,95479,1,0,0:0:0:0:
328,179,95642,1,0,3:0:0:0:
273,270,95804,1,0,1:0:0:0:
200,342,95966,5,6,1:2:0:0:
234,158,96128,1,0,0:0:0:0:
379,281,96290,1,4,3:2:0:0:
273,270,96452,1,0,1:0:0:0:
128,165,96614,5,4,1:0:0:0:
361,134,96777,1,0,0:0:0:0:
361,134,96858,1,0,1:0:0:0:
361,134,96939,1,4,3:2:0:0:
306,376,97101,1,0,0:0:0:0:
131,363,97263,6,0,P|116:310|97:266,1,92.5,4|0,3:1|0:0,0:0:0:0:
381,21,97587,2,0,P|396:74|415:118,1,92.5,4|2,1:0|0:0,0:0:0:0:
247,243,97912,5,2,1:2:0:0:
154,168,98074,1,2,0:0:0:0:
253,165,98236,1,0,1:0:0:0:
253,165,98398,1,0,1:0:0:0:
247,243,98560,5,2,1:2:0:0:
141,274,98722,1,2,0:2:0:0:
204,94,98884,1,0,1:0:0:0:
204,94,99046,1,0,1:0:0:0:
247,243,99209,5,4,1:2:0:0:
66,204,99371,1,0,1:2:0:0:
286,93,99533,1,2,1:2:0:0:
286,93,99695,1,0,0:0:0:0:
247,243,99858,5,2,1:2:0:0:
355,340,100020,1,0,0:0:0:0:
352,235,100182,1,0,1:0:0:0:
460,332,100344,1,0,1:0:0:0:
189,322,100506,6,0,P|196:252|202:204,1,92.5,4|0,1:0|0:0,0:0:0:0:
112,128,100831,1,0,3:0:0:0:
53,235,100993,1,0,1:0:0:0:
53,235,101074,1,0,1:0:0:0:
53,235,101155,1,0,1:0:0:0:
246,146,101317,1,0,1:0:0:0:
69,22,101479,1,0,3:0:0:0:
11,97,101642,1,0,1:0:0:0:
220,0,101804,5,4,1:0:0:0:
158,85,101966,1,0,0:0:0:0:
329,99,102128,1,0,3:0:0:0:
391,184,102290,1,0,1:0:0:0:
192,286,102452,1,0,3:0:0:0:
130,201,102614,1,0,1:0:0:0:
364,300,102777,1,0,1:0:0:0:
301,384,102939,1,0,3:0:0:0:
258,232,103101,6,0,P|250:179|243:127,1,92.5,4|2,1:0|0:0,0:0:0:0:
321,69,103425,1,0,1:0:0:0:
321,69,103587,1,0,1:0:0:0:
104,215,103750,6,0,P|135:171|167:130,1,92.5,2|2,1:2|0:0,0:0:0:0:
321,69,104074,1,0,1:0:0:0:
321,69,104236,1,0,1:0:0:0:
0,104,104398,6,0,P|53:96|105:89,1,92.5,4|2,1:2|0:0,0:0:0:0:
321,69,104722,1,0,1:0:0:0:
321,69,104884,1,0,1:0:0:0:
249,228,105047,5,4,1:2:0:0:
164,172,105209,1,0,0:0:0:0:
231,98,105371,1,4,1:2:0:0:
316,154,105533,1,0,0:0:0:0:
66,248,105696,6,0,P|75:314|78:355,1,92.5,4|0,1:0|1:0,0:0:0:0:
376,264,106020,2,0,P|380:217|387:172,1,92.5,0|0,3:0|1:0,0:0:0:0:
180,155,106344,6,0,P|154:216|136:253,1,92.5,4|0,1:2|1:0,0:0:0:0:
457,186,106668,2,0,P|483:148|512:112,1,92.5,0|0,3:0|1:0,0:0:0:0:
47,39,106993,6,0,P|87:91|110:125,1,92.5,4|0,1:0|1:0,0:0:0:0:
480,379,107317,2,0,P|460:336|443:293,1,92.5,0|0,3:0|1:0,0:0:0:0:
252,2,107642,5,6,1:2:0:0:
184,103,107804,1,0,1:0:0:0:
184,103,107885,1,0,1:0:0:0:
184,103,107966,1,0,3:0:0:0:
277,175,108128,1,0,1:0:0:0:
262,361,108290,5,4,1:0:0:0:
262,361,108452,1,0,0:0:0:0:
52,234,108614,5,4,1:0:0:0:
52,234,108776,1,0,1:0:0:0:
391,39,108939,5,4,1:0:0:0:
391,39,109101,1,0,1:0:0:0:
44,0,109263,5,4,1:0:0:0:
44,0,109425,1,0,1:0:0:0:
254,118,109587,6,0,B|302:241|190:205|237:352,1,221.999993225098,4|8,1:0|0:0,0:0:0:0:
378,384,110074,1,0,0:0:0:0:
439,230,110236,2,0,P|426:174|421:120,1,110.999996612549,0|2,0:0|0:2,0:0:0:0:
421,120,110479,1,0,0:0:0:0:
421,120,110560,1,8,0:0:0:0:
305,227,110723,1,0,0:0:0:0:
499,340,110885,6,0,P|512:238|515:202,1,110.999996612549,0|2,0:0|0:2,0:0:0:0:
488,66,111209,1,8,0:0:0:0:
372,13,111371,1,0,0:0:0:0:
311,127,111533,1,0,0:0:0:0:
206,76,111695,1,2,0:2:0:0:
296,19,111858,5,8,0:0:0:0:
406,241,112020,1,0,0:0:0:0:
155,218,112182,2,0,P|127:144|102:71,1,110.999996612549,4|2,0:2|0:2,0:0:0:0:
121,86,112425,1,0,0:0:0:0:
128,59,112506,1,8,0:0:0:0:
278,166,112669,1,0,0:0:0:0:
174,328,112831,5,0,0:0:0:0:
0,227,112993,1,2,0:2:0:0:
145,202,113155,1,8,0:0:0:0:
44,361,113317,1,0,0:0:0:0:
274,269,113479,5,4,0:2:0:0:
300,120,113642,1,0,0:0:0:0:
148,98,113804,1,8,0:0:0:0:
121,247,113967,1,0,0:0:0:0:
353,204,114128,5,8,0:0:0:0:
235,35,114291,1,0,0:0:0:0:
67,161,114453,1,8,0:0:0:0:
185,330,114614,1,8,0:0:0:0:
223,165,114777,6,0,P|229:275|249:384,1,221.999993225098,4|8,0:0|0:0,0:0:0:0:
343,298,115263,1,0,0:0:0:0:
117,239,115425,2,0,P|53:280|22:338,1,110.999996612549,2|0,0:0|0:0,0:0:0:0:
33,307,115669,1,0,0:0:0:0:
33,307,115750,1,8,0:0:0:0:
4,121,115912,1,2,0:0:0:0:
208,31,116074,5,2,0:0:0:0:
279,170,116236,1,0,0:0:0:0:
127,155,116398,1,10,0:0:0:0:
356,51,116560,1,0,0:0:0:0:
326,275,116723,2,0,P|313:349|310:397,1,110.999996612549,2|0,0:0|0:0,0:0:0:0:
247,270,117047,5,10,0:0:0:0:
361,179,117209,1,2,0:0:0:0:
455,311,117371,2,0,P|449:255|439:201,1,110.999996612549,4|0,0:2|0:0,0:0:0:0:
359,298,117696,5,2,0:2:0:0:
251,132,117858,1,2,0:2:0:0:
426,70,118020,1,4,0:2:0:0:
361,179,118182,1,2,0:2:0:0:
312,21,118344,5,4,0:2:0:0:
487,197,118506,1,0,0:0:0:0:
269,272,118669,6,0,P|171:243|138:237,1,92.5,8|0,0:0|0:0,0:0:0:0:
104,135,118993,6,0,P|50:149|16:166,1,69.3750026464463,8|0,0:0|0:0,0:0:0:0:
43,353,119317,6,0,P|56:294|63:240,1,92.5,8|4,0:0|0:0,0:0:0:0:
257,111,119966,5,4,1:0:0:0:
370,177,120290,1,0,0:0:0:0:
370,177,120452,1,0,0:0:0:0:
370,177,120614,2,0,P|413:162|509:145,1,138.75,0|0,1:0|0:0,0:0:0:0:
344,33,121263,5,4,1:0:0:0:
344,33,121587,2,0,P|299:44|282:49,1,46.25,0|0,0:0|0:0,0:0:0:0:
232,10,121912,2,0,P|191:8|175:8,1,46.25,0|0,1:0|0:0,0:0:0:0:
91,64,122236,2,0,P|114:62|137:61,1,46.25,4|0,0:0|0:0,0:0:0:0:
24,10,122560,6,0,P|16:86|11:137,1,104.06250396967,4|0,1:2|0:0,0:0:0:0:
0,134,122885,2,0,L|13:178,3,34.6875013232232,4|2|2|2,1:0|0:0|0:0|0:0,0:0:0:0:
82,155,123209,5,0,1:0:0:0:
35,255,123371,1,0,1:0:0:0:
214,380,123533,5,8,1:0:0:0:
182,203,123696,1,8,1:0:0:0:
347,9,123858,5,4,1:0:0:0:
323,291,124020,1,0,1:0:0:0:
494,72,124182,1,12,1:0:0:0:
236,126,124344,1,8,0:1:0:0:
494,259,124506,1,4,1:0:0:0:
415,275,124831,6,0,P|414:233|412:214,1,46.25,4|0,0:0|0:0,0:0:0:0:
261,348,125155,6,0,P|199:335|151:323,1,92.5,4|0,1:0|0:0,0:0:0:0:
79,255,125479,2,0,P|110:200|155:217,1,92.5,0|0,1:0|0:0,0:0:0:0:
278,159,125804,2,0,P|247:104|202:121,1,92.5,0|0,1:0|0:0,0:0:0:0:
202,108,126047,1,0,3:0:0:0:
179,111,126128,2,0,P|123:96|121:47,1,92.5,0|0,1:0|0:0,0:0:0:0:
318,42,126452,5,0,1:0:0:0:
433,222,126614,1,0,3:0:0:0:
224,252,126777,1,0,1:0:0:0:
296,142,126939,2,0,P|339:132|387:35,1,138.75,0|0,1:0|0:0,0:0:0:0:
393,34,127263,2,0,L|493:70,2,92.5,0|2|0,1:0|1:0|0:0,0:0:0:0:
174,113,127750,6,0,P|184:222|188:272,1,138.75,2|0,1:0|0:0,0:0:0:0:
205,263,128074,1,0,1:0:0:0:
359,358,128236,2,0,P|364:288|371:219,1,138.75,0|0,1:0|0:0,0:0:0:0:
351,207,128560,1,0,1:0:0:0:
274,302,128723,1,0,1:0:0:0:
450,293,128885,1,0,1:0:0:0:
259,179,129047,5,6,1:0:0:0:
445,162,129209,1,0,1:0:0:0:
358,357,129371,2,0,P|359:256|355:191,1,138.75,0|0,1:0|0:0,0:0:0:0:
370,198,129696,1,0,1:0:0:0:
376,102,129858,5,8,1:0:0:0:
191,150,130020,1,8,1:0:0:0:
6,198,130182,1,0,1:0:0:0:
77,87,130344,6,0,P|135:95|175:101,1,92.5,0|0,1:0|0:0,0:0:0:0:
269,204,130669,2,0,P|291:145|235:119,1,92.5,0|0,1:0|0:0,0:0:0:0:
51,291,130993,6,2,B|64:293|64:293|67:305|67:305|80:300|80:300|81:313|81:313|95:308|95:308|98:320|98:320|108:316|108:316|117:327|117:327|129:326|129:326|136:338|136:338|151:337,1,138.750005292893,0|0,1:0|0:0,1:1:0:0:
176,324,131236,1,0,0:0:0:0:
209,313,131317,2,0,L|310:357,1,92.5,0|0,1:0|1:0,0:0:0:0:
390,158,131642,6,0,P|355:165|356:233,1,92.5,4|0,1:0|0:0,0:0:0:0:
405,357,131966,2,0,L|406:240,1,92.5,0|0,1:0|0:0,0:0:0:0:
506,78,132290,6,2,P|467:79|475:-3,1,138.750005292893,6|0,1:0|0:0,1:1:0:0:
466,0,132533,1,0,1:0:0:0:
466,0,132614,1,0,1:0:0:0:
342,127,132777,1,0,1:0:0:0:
99,84,132939,6,2,B|86:86|86:86|83:98|83:98|70:93|70:93|69:106|69:106|55:101|55:101|52:113|52:113|42:109|42:109|33:120|33:120|21:119|21:119|14:131|14:131|-1:130,1,138.750005292893,6|0,1:0|0:0,1:1:0:0:
271,93,133263,6,2,B|269:80|269:80|257:77|257:77|262:64|262:64|249:63|249:63|254:49|254:49|242:46|242:46|246:36|246:36|235:27|235:27|236:15|236:15|224:8|224:8|225:-7,1,138.750005292893,2|0,1:0|0:0,1:1:0:0:
257,354,133587,6,2,B|270:352|270:352|273:340|273:340|286:345|286:345|287:332|287:332|301:337|301:337|304:325|304:325|314:329|314:329|323:318|323:318|335:319|335:319|342:307|342:307|357:308,1,138.750005292893,2|0,1:0|0:0,1:1:0:0:
37,291,133912,6,2,B|39:304|39:304|51:307|51:307|46:320|46:320|59:321|59:321|54:335|54:335|66:338|66:338|62:348|62:348|73:357|73:357|72:369|72:369|84:376|84:376|83:391,1,138.750005292893,2|0,1:0|0:0,1:1:0:0:
159,214,134236,6,2,B|159:209|159:209|153:206|153:206|153:200|153:200|148:195|148:195|150:190|150:190|144:189|144:189|146:182|146:182|140:181|140:181|142:175|142:175|136:173|136:173|135:167,1,69.3750026464463,6|0,1:0|0:0,1:1:0:0:
268,75,134398,6,2,B|266:81|266:81|261:83|261:83|263:89|263:89|257:89|257:89|259:97|259:97|253:98|253:98|255:103|255:103|250:108|250:108|250:113|250:113|244:117|244:117|244:121,1,69.3750026464463,2|0,1:0|0:0,1:1:0:0:
328,219,134560,1,2,1:0:0:0:
442,118,134723,1,0,1:0:0:0:
512,286,134885,6,0,P|504:319|491:395,1,92.5,0|0,1:0|0:0,0:0:0:0:
202,381,135209,6,0,P|141:359|65:333,1,138.750005292893,0|4,1:0|0:1,0:0:0:0:
258,16,139425,5,4,0:0:0:0:
264,94,139750,1,0,3:0:0:0:
256,170,140074,1,0,3:0:0:0:
268,245,140398,1,0,3:0:0:0:
254,360,140723,6,0,P|201:333|179:328,2,69.3750026464463,4|0|8,3:1|1:0|0:0,0:0:0:0:
324,333,141209,1,0,1:0:0:0:
363,268,141371,2,0,P|416:241|438:236,2,69.3750026464463,0|8|8,1:0|0:0|0:0,0:0:0:0:
324,333,141858,1,0,1:0:0:0:
176,229,142020,6,0,P|189:177|192:147,1,69.3750026464463,4|0,3:1|0:0,0:0:0:0:
328,63,142344,2,0,P|333:97|342:130,1,69.3750026464463,0|0,1:0|0:0,0:0:0:0:
275,176,142669,1,0,1:0:0:0:
234,53,142831,1,0,0:0:0:0:
234,53,142912,1,0,1:0:0:0:
234,53,142993,2,0,P|199:58|166:67,1,69.3750026464463,0|0,1:0|0:0,0:0:0:0:
330,0,143317,5,4,1:0:0:0:
433,53,143479,1,2,0:0:0:0:
444,238,143642,1,0,1:0:0:0:
345,300,143804,1,0,1:0:0:0:
180,216,143966,1,4,1:2:0:0:
176,100,144128,1,2,0:0:0:0:
315,150,144290,1,0,1:0:0:0:
315,150,144452,1,0,1:0:0:0:
173,373,144614,5,4,1:0:0:0:
51,285,144777,1,2,0:0:0:0:
315,150,144939,1,0,1:0:0:0:
301,298,145101,1,0,1:0:0:0:
52,138,145263,1,4,1:2:0:0:
187,77,145425,1,2,0:0:0:0:
150,191,145587,6,0,P|157:269|165:303,1,92.5,0|2,1:0|1:2,0:0:0:0:
451,364,145912,6,0,B|492:302|412:266,1,110.999996612549,6|0,1:0|0:0,0:0:0:0:
90,22,146236,6,0,B|49:84|129:120,1,110.999996612549,8|0,1:0|0:0,0:0:0:0:
55,355,146560,6,0,B|117:396|153:316,1,110.999996612549,4|0,1:2|0:0,0:0:0:0:
477,58,146885,6,0,B|415:17|379:97,1,110.999996612549,8|0,1:0|0:0,0:0:0:0:
20,108,147533,6,0,B|-14:92|-21:37|38:-7,1,129.499996047974,12|0,1:0|0:0,0:0:0:0:
464,275,147857,6,0,B|498:291|505:346|446:390,1,129.499996047974,8|0,1:0|0:0,0:0:0:0:
250,232,148182,6,0,L|258:149,1,74,12|0,1:0|0:0,0:0:0:0:
256,192,148587,12,4,149804,1:0:0:0:
256,192,150128,5,8,0:0:0:0:
256,192,150290,1,0,0:0:0:0:
256,192,150452,1,0,0:0:0:0:
182,286,150614,1,2,0:2:0:0:
149,123,150777,1,8,0:0:0:0:
312,90,150939,1,0,0:0:0:0:
381,275,151101,6,0,P|365:354|361:387,1,110.999996612549,0|2,0:0|0:2,0:0:0:0:
82,232,151425,2,0,P|74:177|62:122,1,110.999996612549,8|0,0:0|0:0,0:0:0:0:
48,98,151669,1,0,0:0:0:0:
31,75,151750,1,0,0:0:0:0:
236,50,151912,1,2,0:2:0:0:
207,238,152074,5,8,0:0:0:0:
137,101,152236,1,0,0:0:0:0:
319,147,152398,2,0,P|377:138|440:126,1,110.999996612549,4|2,0:2|0:2,0:0:0:0:
264,53,152723,1,8,0:0:0:0:
403,257,152885,1,0,0:0:0:0:
471,188,153047,5,0,0:0:0:0:
360,65,153209,1,2,0:2:0:0:
299,233,153371,1,8,0:0:0:0:
404,351,153533,1,0,0:0:0:0:
389,206,153696,5,6,0:0:0:0:
440,112,153858,1,0,0:0:0:0:
201,17,154020,5,8,0:0:0:0:
234,163,154182,1,0,0:0:0:0:
44,313,154344,5,10,0:0:0:0:
106,120,154506,1,0,0:0:0:0:
378,47,154669,5,10,0:0:0:0:
411,324,154831,1,8,0:0:0:0:
251,270,154993,6,0,P|244:196|240:132,1,110.999996612549,4|0,0:0|0:0,0:0:0:0:
241,131,155236,1,0,0:0:0:0:
240,103,155317,1,8,0:0:0:0:
379,225,155479,1,2,0:0:0:0:
122,364,155642,2,0,P|129:290|133:226,1,110.999996612549,2|0,0:0|0:0,0:0:0:0:
51,107,155966,1,10,0:0:0:0:
185,26,156128,1,2,0:0:0:0:
318,209,156290,5,2,0:0:0:0:
471,294,156452,1,0,0:0:0:0:
506,139,156614,1,10,0:0:0:0:
506,139,156777,1,0,0:0:0:0:
320,30,156939,6,0,P|248:48|197:55,1,110.999996612549,2|0,0:0|0:0,0:0:0:0:
184,58,157182,1,0,0:0:0:0:
156,62,157263,1,8,0:0:0:0:
283,174,157425,1,0,0:0:0:0:
441,22,157587,5,4,0:2:0:0:
471,117,157750,1,0,0:0:0:0:
364,74,157912,1,2,0:2:0:0:
396,187,158074,1,2,0:2:0:0:
480,105,158236,5,4,0:2:0:0:
320,139,158398,1,2,0:2:0:0:
353,296,158560,1,4,0:2:0:0:
512,260,158723,1,0,0:0:0:0:
287,234,158885,5,8,0:0:0:0:
425,366,159047,1,0,0:0:0:0:
348,56,159209,1,8,0:0:0:0:
469,192,159371,1,0,0:0:0:0:
249,144,159533,6,0,P|179:127|147:122,1,92.5,8|0,0:0|0:0,0:0:0:0:
293,357,159858,6,0,P|359:331|387:319,1,69.3750026464463,4|0,0:0|2:0,0:0:0:0:
110,290,160182,6,0,P|70:218|26:64,1,221.999993225098,4|8,1:0|0:0,0:0:0:0:
143,17,160669,1,0,0:0:0:0:
212,147,160831,1,0,0:0:0:0:
122,112,160993,1,2,0:2:0:0:
122,112,161074,1,0,0:0:0:0:
122,112,161155,1,8,0:0:0:0:
244,49,161317,1,0,0:0:0:0:
381,205,161479,6,0,P|316:183|251:161,1,110.999996612549,0|2,0:0|0:2,0:0:0:0:
479,38,161804,2,0,P|474:102|470:172,1,110.999996612549,8|0,0:0|0:0,0:0:0:0:
474,176,162047,1,0,0:0:0:0:
477,203,162128,1,0,0:0:0:0:
436,342,162290,1,2,0:2:0:0:
323,266,162452,5,8,0:0:0:0:
501,280,162614,1,0,0:0:0:0:
391,188,162777,5,4,0:2:0:0:
418,357,162939,1,2,0:2:0:0:
231,265,163101,5,8,0:0:0:0:
417,285,163263,1,0,0:0:0:0:
276,131,163425,5,0,0:0:0:0:
291,359,163587,1,2,0:2:0:0:
364,234,163750,1,8,0:0:0:0:
199,248,163912,1,0,0:0:0:0:
453,141,164074,5,6,0:0:0:0:
499,207,164236,1,0,0:0:0:0:
261,204,164398,5,8,0:0:0:0:
292,80,164560,1,0,0:0:0:0:
49,37,164723,5,10,0:0:0:0:
90,233,164885,1,0,0:0:0:0:
338,314,165047,5,10,0:0:0:0:
439,72,165209,1,8,0:0:0:0:
234,26,165371,6,0,P|227:114|210:262,1,221.999993225098,4|8,0:0|0:0,0:0:0:0:
244,348,165858,1,0,0:0:0:0:
390,243,166020,1,2,0:0:0:0:
303,184,166182,1,0,0:0:0:0:
303,184,166263,1,0,0:0:0:0:
303,184,166344,1,8,0:0:0:0:
356,358,166506,1,2,0:0:0:0:
456,296,166669,6,0,P|468:237|482:184,1,110.999996612549,2|0,0:0|0:0,0:0:0:0:
284,269,166993,1,10,0:0:0:0:
386,260,167155,1,0,0:0:0:0:
238,130,167317,2,0,P|226:71|212:18,1,110.999996612549,2|0,0:0|0:0,0:0:0:0:
315,62,167642,1,8,0:0:0:0:
231,211,167804,1,0,0:0:0:0:
106,43,167966,5,4,0:2:0:0:
11,131,168128,1,0,0:0:0:0:
117,215,168290,1,2,0:2:0:0:
117,215,168452,1,2,0:2:0:0:
382,350,168614,5,4,0:2:0:0:
291,214,168777,1,2,0:2:0:0:
444,169,168939,1,4,0:2:0:0:
444,169,169101,1,0,0:0:0:0:
406,264,169263,5,10,0:0:0:0:
292,61,169425,1,0,0:0:0:0:
495,104,169587,5,8,0:0:0:0:
222,246,169750,1,0,0:0:0:0:
79,111,169912,5,10,0:0:0:0:
378,156,170074,1,0,0:0:0:0:
225,101,170236,5,6,0:0:0:0:
99,322,170398,1,0,0:0:0:0:
470,253,170560,6,0,P|458:146|441:60,1,194.249994071961,4|0,1:0|0:0,0:0:0:0:
412,45,170885,1,8,0:0:0:0:
348,182,171047,1,0,0:0:0:0:
42,253,171209,6,0,P|54:146|71:60,1,194.249994071961,0|0,0:0|0:0,0:0:0:0:
100,45,171534,1,8,0:0:0:0:
164,182,171696,1,0,0:0:0:0:
290,80,171858,5,0,0:0:0:0:
109,126,172020,1,2,0:2:0:0:
314,295,172182,1,8,0:0:0:0:
124,344,172344,1,0,0:0:0:0:
194,192,172506,6,0,P|296:205|354:205,1,129.499996047974,0|2,0:0|0:2,0:0:0:0:
365,189,172750,1,0,0:0:0:0:
406,171,172831,1,8,0:0:0:0:
241,11,172993,1,0,0:0:0:0:
65,173,173155,6,0,P|52:275|52:333,1,129.499996047974,4|2,0:2|0:2,0:0:0:0:
86,330,173398,1,0,0:0:0:0:
121,358,173479,1,8,0:0:0:0:
269,212,173642,1,0,0:0:0:0:
101,88,173804,1,0,0:0:0:0:
134,205,173966,1,2,0:2:0:0:
259,117,174128,1,8,0:0:0:0:
226,0,174290,1,0,0:0:0:0:
188,105,174452,5,6,0:0:0:0:
209,172,174614,1,0,0:0:0:0:
308,303,174777,5,10,0:0:0:0:
350,159,174939,1,0,0:0:0:0:
428,71,175101,5,10,0:0:0:0:
452,250,175263,1,0,0:0:0:0:
258,236,175425,5,8,0:0:0:0:
406,345,175587,1,10,0:0:0:0:
278,91,175750,6,0,B|392:86|355:176|447:174,1,194.249994071961,4|0,0:0|0:0,0:0:0:0:
482,152,176074,1,8,0:0:0:0:
260,309,176236,1,0,0:0:0:0:
234,91,176398,6,0,B|120:86|157:176|65:174,1,194.249994071961,2|0,0:0|0:0,0:0:0:0:
30,150,176722,1,8,0:0:0:0:
182,308,176884,1,2,0:0:0:0:
256,188,177047,6,0,P|259:284|266:331,1,129.499996047974,2|0,0:0|0:0,0:0:0:0:
361,219,177371,1,10,0:0:0:0:
246,92,177533,1,0,0:0:0:0:
109,372,177696,2,0,P|116:307|116:242,1,129.499996047974,2|0,0:0|0:0,0:0:0:0:
51,171,178020,5,8,0:0:0:0:
198,237,178182,1,0,0:0:0:0:
1,362,178344,1,4,0:2:0:0:
1,22,178993,1,4,0:2:0:0:
511,22,179317,1,4,0:2:0:0:
511,362,179642,1,10,0:0:0:0:
384,363,179804,1,0,0:0:0:0:
255,363,179966,1,8,0:0:0:0:
126,360,180128,1,0,0:0:0:0:
0,359,180290,1,10,0:0:0:0:
254,286,180614,5,6,0:0:0:0:
261,213,180777,1,0,0:0:0:0:
270,26,180939,5,4,1:0:0:0:
142,118,181101,1,0,0:0:0:0:
142,118,181182,1,2,0:0:0:0:
142,118,181263,1,8,0:0:0:0:
388,149,181425,1,0,0:0:0:0:
221,270,181587,5,6,0:0:0:0:
80,201,181750,1,0,0:0:0:0:
338,213,181912,5,14,0:0:0:0:
230,370,182074,1,0,0:0:0:0:
483,307,182236,5,12,0:0:0:0:
344,130,182398,1,8,0:0:0:0:
512,153,182560,1,10,0:0:0:0:
334,297,182723,1,8,0:0:0:0:
245,29,182885,6,0,P|182:44|124:59,1,92.5,6|0,0:0|0:0,0:0:0:0:
252,199,183209,6,0,P|244:259|242:273,1,46.25,4|0,0:2|2:0,0:0:0:0:
