osu file format v14

[General]
AudioFilename: audio.mp3
AudioLeadIn: 0
PreviewTime: 51128
Countdown: 0
SampleSet: Soft
StackLeniency: 0.7
Mode: 0
LetterboxInBreaks: 0
WidescreenStoryboard: 1

[Editor]
Bookmarks: 52831,108614,119966,135533,149804,160182,170560
DistanceSpacing: 0.7
BeatDivisor: 8
GridSize: 4
TimelineZoom: 1.7

[Metadata]
Title:Kigurumi Sungeki
TitleUnicode:きぐるみ寸劇
Artist:Chikamori Kayako
ArtistUnicode:浮森かや子
Creator:Mirash
Version:Jounzan's Extra
Source:
Tags:-MikanMyMommy kogumax koguma cross kaine raja jounzan evilelvis natteke desu djulus delis shirohamymommy pop jpop j-pop japanese 幼蚕文庫 オッカ 99 Yousan Bunko
BeatmapID:2730819
BeatmapSetID:1312079

[Difficulty]
HPDrainRate:7
CircleSize:5
OverallDifficulty:9
ApproachRate:7
SliderMultiplier:1.85
SliderTickRate:1

[Events]
//Background and Video events
0,0,"notkigurumiXD.jpg",0,0
//Break Periods
//Storyboard Layer 0 (Background)
//Storyboard Layer 1 (Fail)
//Storyboard Layer 2 (Pass)
//Storyboard Layer 3 (Foreground)
//Storyboard Layer 4 (Overlay)
//Storyboard Sound Samples

[TimingPoints]
615,324.324324324324,4,2,1,50,1,0
13587,-83.3333333333333,4,2,1,60,0,0
17479,-83.3333333333333,4,2,1,70,0,0
18128,-83.3333333333333,4,2,1,80,0,0
18777,-100,4,2,1,50,0,0
29155,-100,4,2,2,60,0,0
38560,-100,4,2,1,60,0,0
38885,-100,4,2,1,70,0,0
39209,-125,4,2,1,70,0,0
39533,-125,4,2,1,60,0,0
39858,-200,4,2,1,60,0,0
42128,-100,4,2,1,60,0,0
47317,-100,4,2,1,65,0,0
51209,-90.9090909090909,4,1,1,70,0,0
59642,-90.9090909090909,4,1,1,65,0,0
60939,-90.9090909090909,4,1,1,60,0,0
61263,-66.6666666666667,4,2,1,50,0,0
61587,-133.333333333333,4,2,1,40,0,0
64182,-76.9230769230769,4,2,1,50,0,0
65479,-76.9230769230769,4,2,1,60,0,0
66452,-333.333333333333,4,2,1,50,0,0
66777,-100,4,2,1,55,0,0
70669,-100,4,2,1,65,0,0
71966,-100,4,2,1,55,0,0
73263,-200,4,2,1,55,0,0
73587,-133.333333333333,4,2,1,55,0,0
73912,-100,4,2,1,55,0,0
75858,-100,4,2,1,70,0,0
77155,-100,4,2,1,50,0,0
81047,-200,4,2,1,50,0,0
82344,-100,4,2,1,50,0,0
87533,-100,4,2,2,60,0,0
97587,-133.333333333333,4,2,2,60,0,0
97912,-133.333333333333,4,2,1,60,0,0
100506,-100,4,2,1,60,0,0
106993,-100,4,2,1,65,0,0
108290,-333.333333333333,4,2,1,70,0,0
108614,-133.333333333333,4,2,1,70,0,0
108939,-100,4,2,1,70,0,0
109263,-66.6666666666667,4,2,1,70,0,0
109587,-83.3333333333333,4,1,1,70,0,0
118669,-83.3333333333333,4,1,1,65,0,0
118993,-83.3333333333333,4,1,1,60,0,0
119317,-83.3333333333333,4,1,1,50,0,0
119642,-66.6666666666667,4,1,1,50,0,0
119966,-200,4,2,1,40,0,0
122560,-100,4,2,1,50,0,0
122885,-66.6666666666667,4,2,1,50,0,0
123209,-66.6666666666667,4,2,1,60,0,0
123858,-66.6666666666667,4,2,1,65,0,0
124831,-200,4,2,1,50,0,0
125155,-100,4,2,1,65,0,0
130993,-76.9230769230769,4,2,1,65,0,0
131642,-100,4,2,1,65,0,0
132290,-76.9230769230769,4,2,1,65,0,0
132939,-76.9230769230769,4,2,1,65,0,0
134885,-76.9230769230769,4,2,1,50,0,0
135209,-76.9230769230769,4,2,1,40,0,0
135533,-153.846153846154,4,2,1,40,0,0
140723,-100,4,2,1,40,0,0
143317,-100,4,2,1,50,0,0
144614,-100,4,2,1,55,0,0
145587,-100,4,2,1,60,0,0
145912,-100,4,2,1,70,0,0
147209,-100,4,2,1,80,0,0
148506,-100,4,2,1,50,0,0
149804,-83.3333333333333,4,1,1,70,0,0
159858,-66.6666666666667,4,1,1,70,0,0
160182,-76.9230769230769,4,1,1,70,0,0
164074,-200,4,1,1,70,0,0
164398,-133.333333333333,4,1,1,70,0,0
164723,-100,4,1,1,70,0,0
165047,-66.6666666666667,4,1,1,70,0,0
170560,-58.8235294117647,4,1,1,80,0,0
174452,-200,4,1,1,80,0,0
174777,-133.333333333333,4,1,1,80,0,0
175101,-66.6666666666667,4,1,1,80,0,0
175425,-58.8235294117647,4,1,1,80,0,0
178020,-100,4,1,1,80,0,0
178993,-58.8235294117647,4,1,1,80,0,0
179642,-100,4,1,1,80,0,0
180614,-66.6666666666667,4,1,1,80,0,0
180939,-58.8235294117647,4,1,1,80,0,0
182885,-58.8235294117647,4,1,1,60,0,0
183209,-58.8235294117647,4,1,1,50,0,0

[Colours]
Combo1 : 171,107,109
Combo2 : 72,126,130
Combo3 : 147,157,115
Combo4 : 176,89,143

[HitObjects]
54,85,615,6,0,L|142:49,1,92.5,0|0,1:0|0:0,0:0:0:0:
200,92,939,1,0,1:0:0:0:
256,44,1101,1,0,0:0:0:0:
264,60,1182,1,0,0:0:0:0:
272,76,1263,1,0,1:0:0:0:
340,104,1425,1,0,0:0:0:0:
348,88,1506,1,0,1:0:0:0:
356,72,1587,1,0,1:0:0:0:
408,20,1750,1,0,1:0:0:0:
416,36,1831,1,0,0:0:0:0:
424,52,1912,6,0,L|516:88,1,92.5,0|0,1:0|0:0,0:0:0:0:
456,136,2236,1,0,1:0:0:0:
496,200,2398,1,0,0:0:0:0:
424,196,2560,1,0,1:0:0:0:
452,264,2723,2,0,L|364:300,2,92.5,2|0|2,0:1|1:0|0:1,0:0:0:0:
332,204,3209,6,0,B|264:232|264:232|300:344,1,185,0|0,1:0|3:0,0:0:0:0:
228,356,3696,1,0,0:0:0:0:
184,296,3858,2,0,L|80:284,1,92.5,0|0,1:0|0:0,0:0:0:0:
24,312,4182,1,0,3:0:0:0:
36,240,4344,1,0,1:0:0:0:
28,224,4425,1,0,0:0:0:0:
20,208,4506,5,0,1:0:0:0:
64,148,4669,1,0,0:0:0:0:
136,164,4831,1,0,3:0:0:0:
200,204,4993,2,0,P|232:168|224:24,1,185,0|0,1:0|0:0,0:0:0:0:
216,32,5398,1,0,1:0:0:0:
196,32,5479,1,0,3:0:0:0:
180,44,5560,1,0,0:0:0:0:
172,60,5642,1,0,1:0:0:0:
100,44,5804,5,2,1:2:0:0:
64,108,5966,1,2,0:0:0:0:
128,144,6128,1,0,3:0:0:0:
80,200,6290,1,0,0:0:0:0:
140,244,6452,2,0,B|248:304,1,92.5,2|2,1:2|0:0,0:0:0:0:
228,304,6696,1,2,1:2:0:0:
244,300,6777,1,0,3:0:0:0:
316,296,6939,1,2,1:2:0:0:
364,356,7101,5,4,1:0:0:0:
364,356,7263,1,0,0:0:0:0:
320,300,7425,1,0,0:0:0:0:
320,300,7587,1,0,0:0:0:0:
376,256,7750,1,8,3:0:0:0:
448,92,7912,5,4,3:0:0:0:
488,168,8074,5,4,3:3:0:0:
332,132,8236,5,4,1:3:0:0:
256,204,8398,6,0,B|192:272|192:272|248:364,1,185,0|0,1:0|3:0,0:0:0:0:
312,356,8885,1,0,1:0:0:0:
356,296,9047,1,0,0:0:0:0:
332,224,9209,1,0,1:0:0:0:
324,208,9290,1,0,0:0:0:0:
324,188,9371,1,0,3:0:0:0:
348,116,9533,1,0,0:0:0:0:
356,100,9614,1,0,1:0:0:0:
356,80,9695,5,2,3:2:0:0:
300,28,9858,1,0,1:0:0:0:
240,72,10020,1,2,3:2:0:0:
276,136,10182,2,0,P|220:204|104:204,1,185,0|0,1:0|1:0,0:0:0:0:
56,196,10669,1,2,3:2:0:0:
64,180,10750,1,0,3:0:0:0:
72,164,10831,1,0,3:0:0:0:
80,148,10912,1,0,3:0:0:0:
88,132,10993,5,2,1:3:0:0:
152,92,11155,1,0,0:0:0:0:
200,148,11317,1,4,3:0:0:0:
136,188,11479,1,0,0:0:0:0:
52,264,11642,5,4,0:0:0:0:
116,304,11804,1,0,0:0:0:0:
4,320,11966,1,8,3:0:0:0:
68,360,12128,1,0,0:0:0:0:
184,284,12290,6,0,B|212:248|212:248|192:188,1,92.5,4|0,1:0|0:0,0:0:0:0:
68,88,12614,2,0,B|40:124|40:124|60:184,1,92.5,4|0,1:3|0:0,0:0:0:0:
256,12,12939,5,4,0:0:0:0:
256,372,13263,1,4,0:0:0:0:
256,372,13587,5,4,1:0:0:0:
200,316,13750,2,0,P|196:248|348:244,1,221.999993225098,0|2,0:0|1:0,0:0:0:0:
368,276,14236,1,2,1:0:0:0:
388,348,14398,5,0,0:0:0:0:
268,264,14560,1,2,1:0:0:0:
404,208,14723,1,2,1:0:0:0:
484,280,14885,5,6,1:0:0:0:
464,284,14966,1,0,3:0:0:0:
444,288,15047,1,0,3:0:0:0:
300,180,15209,1,4,0:0:0:0:
320,176,15290,1,0,3:0:0:0:
340,172,15371,1,0,3:0:0:0:
400,128,15533,1,2,1:2:0:0:
500,72,15696,1,0,0:0:0:0:
472,64,15777,1,0,1:0:0:0:
444,56,15858,1,0,1:0:0:0:
416,48,15939,1,0,0:0:0:0:
388,40,16020,1,0,1:0:0:0:
312,24,16182,5,4,1:2:0:0:
284,40,16263,1,0,0:0:0:0:
280,72,16344,1,2,0:0:0:0:
296,100,16425,1,2,0:0:0:0:
328,108,16506,1,2,1:2:0:0:
356,124,16587,1,2,0:0:0:0:
368,156,16669,1,2,0:0:0:0:
352,184,16750,1,2,0:0:0:0:
324,200,16831,2,0,B|220:236|200:92|76:164,1,221.999993225098,2|2,1:2|1:2,0:0:0:0:
118,146,17317,1,2,0:0:0:0:
36,216,17479,5,4,1:0:0:0:
92,308,17642,1,4,3:0:0:0:
196,296,17804,1,4,3:0:0:0:
196,296,17966,1,4,3:0:0:0:
344,224,18128,5,4,1:2:0:0:
260,168,18290,5,8,1:3:0:0:
108,248,18452,5,4,1:2:0:0:
256,376,18614,5,4,1:3:0:0:
436,304,18777,6,0,P|468:260|472:124,2,185,4|0|0,1:0|3:0|0:0,0:0:0:0:
372,320,19750,1,0,3:0:0:0:
308,304,20074,1,0,1:0:0:0:
248,328,20398,1,0,3:0:0:0:
184,304,20723,1,0,0:0:0:0:
184,304,20885,2,0,L|88:336,2,92.5,0|2|0,0:0|3:2|1:0,0:0:0:0:
236,256,21371,6,0,P|256:240|248:172,1,92.5,2|0,1:2|1:0,0:0:0:0:
188,148,21696,1,0,3:0:0:0:
132,196,21858,1,0,1:0:0:0:
48,104,22020,2,0,P|28:88|36:20,1,92.5,4|0,1:2|1:0,0:0:0:0:
104,12,22344,1,0,3:0:0:0:
104,12,22506,1,0,1:0:0:0:
236,76,22669,6,0,L|136:100,1,92.5,4|2,1:0|0:0,0:0:0:0:
96,152,22993,1,0,3:0:0:0:
148,204,23155,1,4,0:0:0:0:
204,156,23317,1,8,3:0:0:0:
36,100,23479,5,4,3:0:0:0:
24,224,23642,5,4,3:0:0:0:
20,112,23804,5,4,1:3:0:0:
24,224,23966,6,0,P|64:304|168:304,2,185,0|0|0,1:0|3:0|3:0,0:0:0:0:
92,192,24939,2,0,L|148:184,2,46.25,0|0|0,3:0|0:0|1:0,0:0:0:0:
184,140,25263,1,2,1:2:0:0:
264,224,25587,6,0,L|320:216,2,46.25,2|0|0,3:2|0:0|0:0,0:0:0:0:
356,172,25911,1,2,1:2:0:0:
404,228,26074,2,0,B|432:256|432:256|408:312,2,92.5,2|2|0,0:1|3:2|0:0,0:0:0:0:
432,160,26560,6,0,L|460:56,1,92.5,2|0,1:2|0:0,0:0:0:0:
404,24,26885,2,0,L|348:12,2,46.25,0|0|0,3:0|0:0|0:0,0:0:0:0:
464,72,27209,2,0,L|439:161,1,92.5,2|0,1:2|0:0,0:0:0:0:
384,204,27533,1,4,3:2:0:0:
348,188,27614,1,0,0:0:0:0:
316,172,27696,1,0,0:0:0:0:
284,156,27777,1,0,0:0:0:0:
280,192,27858,6,0,L|292:292,1,92.5,0|0,1:0|0:0,0:0:0:0:
291,283,28101,1,0,1:0:0:0:
291,283,28182,1,0,3:0:0:0:
348,344,28344,1,0,1:0:0:0:
276,356,28506,1,8,3:0:0:0:
36,292,28669,5,4,3:0:0:0:
176,272,28831,5,4,1:0:0:0:
60,296,28993,5,0,0:0:0:0:
204,296,29155,6,0,B|248:276|248:276|272:128,1,185,4|0,1:0|3:0,0:0:0:0:
308,76,29642,1,2,1:3:0:0:
252,28,29804,1,0,0:0:0:0:
208,88,29966,1,2,1:3:0:0:
192,92,30047,1,0,0:0:0:0:
172,96,30128,1,0,3:0:0:0:
112,136,30290,1,2,0:3:0:0:
96,140,30371,1,0,1:0:0:0:
76,144,30452,5,0,1:0:0:0:
128,200,30614,1,2,1:3:0:0:
56,220,30777,1,0,3:0:0:0:
104,272,30939,2,0,L|220:248,1,92.5,2|0,1:3|0:0,0:0:0:0:
164,324,31263,1,2,1:3:0:0:
228,348,31425,1,2,3:1:0:0:
244,340,31506,1,0,0:0:0:0:
264,344,31587,1,0,1:3:0:0:
280,356,31669,1,0,0:0:0:0:
296,360,31750,6,0,B|344:360|344:360|368:304,1,92.5,2|0,1:0|1:3,0:0:0:0:
344,248,32074,1,2,3:1:0:0:
416,256,32236,1,0,1:3:0:0:
428,252,32317,1,0,0:0:0:0:
432,260,32398,2,0,L|464:160,1,92.5,4|2,1:2|1:2,0:0:0:0:
484,108,32723,1,0,3:0:0:0:
476,32,32885,1,2,1:2:0:0:
344,88,33047,5,4,1:0:0:0:
312,156,33209,1,0,0:3:0:0:
316,168,33290,1,0,0:0:0:0:
324,172,33371,1,0,3:0:0:0:
368,232,33533,1,4,0:3:0:0:
368,300,33696,1,8,3:0:0:0:
296,368,33858,5,4,3:3:0:0:
200,300,34020,5,4,3:0:0:0:
72,356,34182,5,4,1:3:0:0:
28,220,34344,6,0,B|0:184|0:184|20:124,1,92.5,0|2,1:0|0:3,0:0:0:0:
76,96,34669,1,0,3:0:0:0:
140,132,34831,1,2,1:3:0:0:
152,136,34912,1,0,0:0:0:0:
152,124,34993,2,0,L|200:20,1,92.5,0|2,0:0|1:0,0:0:0:0:
200,56,35236,1,0,0:0:0:0:
208,72,35317,1,0,3:0:0:0:
268,116,35479,1,2,1:0:0:0:
280,100,35560,1,0,0:0:0:0:
292,88,35642,6,0,B|384:112,1,92.5,6|0,1:2|0:0,0:0:0:0:
444,76,35966,1,2,3:2:0:0:
472,144,36128,2,0,P|456:200|436:348,1,185,2|2,1:0|1:0,0:0:0:0:
368,352,36614,1,0,3:1:0:0:
312,304,36777,1,2,1:0:0:0:
192,368,36939,6,0,P|208:324|220:264,1,92.5,6|0,1:0|0:0,0:0:0:0:
228,264,37182,1,0,0:0:0:0:
240,252,37263,1,0,3:0:0:0:
284,200,37425,1,0,0:0:0:0:
236,28,37587,6,0,P|220:72|208:132,1,92.5,6|0,1:2|0:0,0:0:0:0:
200,132,37830,1,0,0:0:0:0:
188,144,37911,1,4,3:2:0:0:
120,212,38073,1,0,0:0:0:0:
24,144,38236,5,4,1:0:0:0:
24,144,38398,1,0,0:0:0:0:
284,236,38560,5,4,3:2:0:0:
196,208,38723,1,0,0:0:0:0:
508,320,38885,5,4,3:1:0:0:
24,144,39209,2,0,P|16:116|8:60,1,74,4|2,1:0|0:0,0:0:0:0:
108,24,39533,5,2,1:2:0:0:
140,96,39696,1,2,0:0:0:0:
132,164,39858,1,0,1:0:0:0:
16,244,40182,5,2,1:2:0:0:
36,320,40344,1,2,0:2:0:0:
92,356,40506,1,0,1:0:0:0:
92,356,40831,5,4,1:2:0:0:
36,320,40993,1,0,1:2:0:0:
16,244,41155,1,2,1:2:0:0:
28,164,41317,1,0,0:0:0:0:
64,84,41479,2,0,B|80:68|80:68|76:32,1,46.25,2|0,1:2|0:0,0:0:0:0:
84,28,41723,1,0,0:0:0:0:
68,24,41804,1,0,1:0:0:0:
8,52,41966,1,0,0:0:0:0:
111,151,42128,6,0,B|204:116|196:224|313:205,1,185,4|0,1:0|3:0,0:0:0:0:
344,236,42614,1,0,1:0:0:0:
396,180,42777,2,0,P|408:152|424:80,1,92.5,0|0,1:0|1:0,0:0:0:0:
436,80,43020,1,0,0:0:0:0:
448,92,43101,1,0,3:0:0:0:
480,156,43263,1,0,1:0:0:0:
448,224,43425,5,4,1:0:0:0:
436,240,43506,1,0,0:0:0:0:
432,256,43587,1,0,0:0:0:0:
432,276,43669,1,0,1:0:0:0:
436,292,43750,1,0,3:0:0:0:
484,348,43912,1,0,1:0:0:0:
412,368,44074,1,0,3:0:0:0:
484,348,44398,5,0,1:0:0:0:
412,368,44560,1,0,3:0:0:0:
352,324,44723,1,4,1:0:0:0:
352,324,45047,5,0,1:0:0:0:
300,268,45209,1,0,1:0:0:0:
224,256,45371,5,2,1:2:0:0:
224,256,45533,1,2,0:0:0:0:
152,300,45696,5,0,1:0:0:0:
64,312,45858,1,0,1:0:0:0:
0,240,46020,2,0,B|-12:196|-12:196|20:144,1,92.5,4|2,1:2|0:0,0:0:0:0:
68,88,46344,1,0,1:0:0:0:
88,88,46425,1,0,0:0:0:0:
92,108,46506,1,0,1:0:0:0:
168,176,46669,2,0,L|80:204,1,92.5,4|0,1:2|0:0,0:0:0:0:
52,280,46993,1,4,1:2:0:0:
60,296,47074,1,0,3:0:0:0:
76,308,47155,1,0,3:0:0:0:
96,312,47236,1,0,3:0:0:0:
112,308,47317,5,4,1:0:0:0:
176,260,47479,1,0,1:0:0:0:
248,296,47642,1,0,3:0:0:0:
248,296,47804,1,0,1:0:0:0:
424,240,47966,5,4,1:2:0:0:
352,168,48128,1,0,1:0:0:0:
352,168,48209,1,0,0:0:0:0:
352,168,48290,1,0,3:0:0:0:
264,204,48453,1,0,1:0:0:0:
56,160,48614,5,4,1:0:0:0:
144,76,48776,1,0,1:0:0:0:
268,120,48939,1,0,3:0:0:0:
268,120,49101,1,0,1:0:0:0:
52,300,49263,5,6,1:2:0:0:
24,280,49425,1,0,1:0:0:0:
128,272,49587,5,0,3:0:0:0:
108,208,49750,1,0,1:0:0:0:
200,288,49912,5,4,1:0:0:0:
240,216,50074,1,0,0:0:0:0:
468,184,50236,5,4,1:0:0:0:
376,296,50398,1,0,1:0:0:0:
240,216,50560,5,4,1:0:0:0:
348,56,50723,1,0,1:0:0:0:
392,128,50885,5,4,1:0:0:0:
208,148,51047,1,0,1:0:0:0:
256,16,51209,6,0,P|288:92|320:228,1,203.500006210327,4|8,1:0|0:0,0:0:0:0:
388,284,51696,1,0,0:0:0:0:
256,364,51858,2,0,P|264:320|324:288,1,101.750003105164,0|2,0:0|0:2,0:0:0:0:
388,284,52182,1,8,0:0:0:0:
260,240,52344,1,0,0:0:0:0:
240,248,52425,1,0,0:0:0:0:
220,240,52506,6,0,P|168:224|164:160,1,101.750003105164,0|2,0:0|0:2,0:0:0:0:
44,184,52831,2,0,P|47:129|109:111,1,101.750003105164,8|0,0:0|0:0,0:0:0:0:
124,20,53155,2,0,P|177:11|209:67,1,101.750003105164,0|2,0:0|0:2,0:0:0:0:
240,112,53479,1,8,0:0:0:0:
252,120,53560,1,0,0:0:0:0:
252,132,53642,1,0,0:0:0:0:
248,136,53723,1,0,0:0:0:0:
244,132,53804,6,0,L|308:32,1,101.750003105164,4|2,0:2|0:2,0:0:0:0:
464,88,54128,2,0,L|400:188,1,101.750003105164,8|0,0:0|0:0,0:0:0:0:
416,288,54452,1,0,0:0:0:0:
296,240,54614,1,2,0:2:0:0:
300,232,54696,1,0,0:0:0:0:
308,232,54777,1,8,0:0:0:0:
376,236,54939,1,0,0:0:0:0:
288,340,55101,5,4,0:2:0:0:
212,236,55263,1,0,0:0:0:0:
108,212,55425,5,8,0:0:0:0:
212,136,55587,1,0,0:0:0:0:
232,48,55750,5,8,0:0:0:0:
308,152,55912,1,0,0:0:0:0:
404,172,56074,5,8,0:0:0:0:
300,248,56236,1,8,0:0:0:0:
460,356,56398,6,0,B|516:320|516:320|480:156,1,203.500006210327,4|8,0:0|0:0,0:0:0:0:
504,120,56885,1,0,0:0:0:0:
448,72,57047,1,2,0:0:0:0:
416,84,57128,1,0,0:0:0:0:
380,96,57209,1,0,0:0:0:0:
348,108,57290,1,0,0:0:0:0:
316,120,57371,1,8,0:0:0:0:
284,132,57452,1,0,0:0:0:0:
252,144,57533,1,2,0:0:0:0:
248,244,57696,6,0,B|300:256|300:256|336:200,1,101.750003105164,2|0,0:0|0:0,0:0:0:0:
256,44,58020,2,0,B|204:32|204:32|168:88,1,101.750003105164,10|0,0:0|0:0,0:0:0:0:
252,144,58344,2,0,B|320:124|328:200|416:184,1,152.625004657746,2|0,0:0|0:0,0:0:0:0:
416,156,58669,1,10,0:0:0:0:
480,192,58831,1,2,0:0:0:0:
392,268,58993,6,0,P|372:312|352:376,2,101.750003105164,4|0|2,0:2|0:0|0:2,0:0:0:0:
456,268,59479,1,2,0:2:0:0:
232,188,59642,6,0,P|252:144|272:80,2,101.750003105164,4|2|4,0:2|0:2|0:2,0:0:0:0:
168,188,60128,1,0,0:0:0:0:
264,312,60290,5,8,0:0:0:0:
316,236,60452,1,0,0:0:0:0:
372,172,60614,1,8,0:0:0:0:
388,104,60777,1,0,0:0:0:0:
424,52,60939,1,8,0:0:0:0:
424,52,61263,6,0,B|420:64|420:64|428:63|428:63|416:89|416:89|442:84|442:84|424:109|424:109|445:112|445:112|436:131|436:131|442:130|442:130|434:145|434:145|449:143|449:143|443:152|443:152|444:152|444:152|442:159|442:159|443:160|443:160|443:166|443:166|443:166|443:166|449:190,1,208.125007939339,4|0,0:0|0:0,0:0:0:0:
456,240,61587,6,0,B|400:248|392:168|337:177,1,138.750005292893,4|2,1:0|0:0,0:0:0:0:
268,176,62074,1,0,0:0:0:0:
200,272,62236,1,0,1:0:0:0:
268,312,62398,1,0,0:0:0:0:
252,360,62560,1,2,0:0:0:0:
220,364,62723,1,2,0:0:0:0:
128,240,62885,6,0,P|76:244|12:336,1,138.750005292893,4|0,1:0|1:0,0:0:0:0:
8,320,63371,1,0,0:0:0:0:
28,360,63533,1,0,1:0:0:0:
100,328,63696,1,0,0:0:0:0:
188,296,63858,5,4,0:0:0:0:
296,336,64020,5,0,0:0:0:0:
448,376,64182,6,0,B|516:324|516:324|484:188,1,180.374991743088,4|0,1:2|0:0,0:0:0:0:
476,200,64506,2,0,L|488:72,1,120.249994495392,4|0,1:0|0:0,0:0:0:0:
436,12,64831,5,0,1:0:0:0:
416,56,64993,1,0,1:0:0:0:
320,168,65155,5,8,1:0:0:0:
280,72,65317,1,8,1:0:0:0:
164,152,65479,5,4,1:0:0:0:
104,284,65641,1,0,1:0:0:0:
232,232,65804,5,12,1:0:0:0:
40,192,65966,1,8,0:1:0:0:
208,40,66128,5,4,1:0:0:0:
208,40,66452,2,0,L|256:48,1,41.6249987297059,4|0,0:0|0:0,0:0:0:0:
269,40,66777,5,0,1:0:0:0:
312,103,66939,2,0,P|324:155|317:301,1,185,0|0,1:0|1:0,0:0:0:0:
359,348,67425,1,0,1:0:0:0:
285,350,67587,1,2,0:0:0:0:
249,362,67669,1,0,0:0:0:0:
213,350,67750,1,2,1:0:0:0:
190,320,67831,1,0,0:0:0:0:
190,283,67912,1,0,1:0:0:0:
241,229,68074,5,0,1:0:0:0:
190,283,68236,2,0,P|183:336|168:387,1,92.5,2|0,0:0|1:0,0:0:0:0:
107,338,68560,1,2,0:0:0:0:
121,265,68723,1,0,1:0:0:0:
187,170,68885,1,2,0:0:0:0:
213,143,68966,1,0,0:0:0:0:
221,107,69047,1,0,1:0:0:0:
212,33,69209,1,2,0:0:0:0:
140,15,69371,5,0,1:0:0:0:
122,22,69452,1,2,0:0:0:0:
112,37,69533,1,2,0:0:0:0:
114,55,69614,1,2,0:0:0:0:
102,69,69696,5,0,1:0:0:0:
127,79,69777,1,2,0:0:0:0:
140,103,69858,1,2,0:0:0:0:
138,130,69939,1,2,0:0:0:0:
121,152,70020,6,0,L|15:141,1,92.5,4|2,1:2|0:0,0:0:0:0:
0,165,70263,1,2,0:0:0:0:
11,200,70344,1,0,1:0:0:0:
71,242,70506,1,2,0:0:0:0:
203,202,70669,5,4,1:0:0:0:
259,110,70831,5,2,1:2:0:0:
183,12,70993,5,8,1:0:0:0:
130,54,71155,1,2,1:3:0:0:
135,65,71236,1,0,0:0:0:0:
133,79,71317,1,4,1:2:0:0:
66,153,71479,5,2,1:3:0:0:
175,227,71642,5,10,1:0:0:0:
338,135,71804,5,0,1:0:0:0:
294,70,71966,5,0,1:0:0:0:
257,134,72128,2,0,P|245:204|288:340,1,185,0|2,0:0|0:0,0:0:0:0:
335,350,72614,2,0,L|441:333,1,92.5,0|2,1:0|0:0,0:0:0:0:
442,330,72858,1,2,0:3:0:0:
425,325,72939,1,2,1:3:0:0:
367,278,73101,1,0,1:3:0:0:
432,244,73263,6,0,B|452:232|452:232|456:196,1,46.25,0|0,1:0|0:0,0:0:0:0:
348,184,73587,6,0,B|360:148|360:148|328:112,1,69.3750026464463,0|0,1:0|0:0,0:0:0:0:
244,212,73912,6,0,B|229:170|229:170|175:151,1,92.5,0|2,1:0|0:0,0:0:0:0:
112,156,74236,1,0,1:0:0:0:
80,224,74398,1,0,1:0:0:0:
152,236,74560,5,2,1:0:0:0:
188,244,74642,1,0,0:0:0:0:
208,276,74723,1,2,0:0:0:0:
204,312,74804,1,2,0:0:0:0:
216,308,74885,1,0,1:0:0:0:
241,333,74966,1,2,0:0:0:0:
278,330,75047,1,2,0:0:0:0:
400,364,75209,2,0,B|472:296|472:296|448:208,1,185,4|0,1:0|1:0,0:0:0:0:
388,188,75696,1,2,0:0:0:0:
336,100,75858,5,6,1:0:0:0:
420,52,76020,1,0,1:0:0:0:
472,128,76182,1,8,1:0:0:0:
472,128,76344,1,0,1:0:0:0:
264,148,76506,5,4,1:0:0:0:
180,116,76668,5,8,1:0:0:0:
72,136,76830,5,12,1:0:0:0:
8,260,76992,5,0,1:0:0:0:
56,316,77155,5,4,1:0:0:0:
112,272,77317,2,0,B|136:236|136:236|112:168,1,92.5,0|0,0:0|3:0,0:0:0:0:
72,136,77642,2,0,B|144:72|176:180|248:156,1,185,0|0,1:0|1:0,0:0:0:0:
316,144,78128,1,0,3:0:0:0:
340,76,78290,1,0,1:0:0:0:
460,160,78452,5,4,1:2:0:0:
412,216,78614,1,0,0:0:0:0:
480,244,78777,1,0,3:0:0:0:
408,232,78939,2,0,P|352:244|256:348,1,185,0|0,1:0|0:0,0:0:0:0:
260,348,79344,1,0,0:0:0:0:
268,364,79425,1,2,3:2:0:0:
200,336,79587,1,0,1:0:0:0:
160,272,79750,6,0,P|132:228|128:180,1,92.5,2|0,1:2|1:0,0:0:0:0:
164,124,80074,1,0,3:0:0:0:
164,124,80236,1,0,1:0:0:0:
252,0,80398,6,0,P|280:44|284:92,1,92.5,4|0,1:2|1:0,0:0:0:0:
248,148,80722,1,0,3:0:0:0:
248,148,80884,1,0,1:0:0:0:
48,184,81047,6,0,L|0:192,3,46.25,4|2|0|4,1:0|0:0|3:0|0:0,0:0:0:0:
100,228,81696,5,8,3:0:0:0:
160,148,81858,5,4,3:0:0:0:
108,40,82020,5,4,3:0:0:0:
8,124,82182,5,4,1:3:0:0:
184,208,82344,6,0,B|264:232|280:136|400:164,2,185,0|0|0,1:0|3:0|0:0,0:0:0:0:
128,256,83155,1,0,1:0:0:0:
172,316,83317,1,0,3:0:0:0:
180,300,83398,1,0,0:0:0:0:
196,288,83479,1,0,1:0:0:0:
244,344,83642,6,0,P|288:344|340:352,1,92.5,2|0,1:2|0:0,0:0:0:0:
400,316,83966,1,2,3:2:0:0:
400,316,84047,1,0,0:0:0:0:
400,316,84128,2,0,P|440:260|508:136,1,185,0|0,1:0|1:0,0:0:0:0:
436,116,84614,1,2,3:2:0:0:
392,56,84777,1,0,0:0:0:0:
360,124,84939,6,0,P|332:176|308:216,1,92.5,2|0,1:2|0:0,0:0:0:0:
264,256,85263,1,0,3:0:0:0:
192,272,85425,1,0,0:0:0:0:
120,260,85587,1,2,1:2:0:0:
48,276,85750,1,0,0:0:0:0:
168,356,85912,5,4,3:2:0:0:
232,332,86074,1,0,0:0:0:0:
340,364,86236,6,0,B|368:324|368:324|344:264,1,92.5,0|0,1:0|0:0,0:0:0:0:
380,260,86479,1,0,1:0:0:0:
348,244,86560,1,0,3:0:0:0:
232,176,86723,5,0,1:0:0:0:
272,32,86885,5,8,3:0:0:0:
332,60,87047,1,4,3:0:0:0:
102,162,87209,6,0,L|58:158,1,23.125,4|0,1:0|0:0,0:0:0:0:
102,162,87533,6,0,P|92:264|104:356,1,185,4|0,1:0|3:0,0:0:0:0:
169,347,88020,1,2,1:3:0:0:
164,280,88182,1,0,0:0:0:0:
225,255,88344,1,2,1:3:0:0:
241,256,88425,1,0,0:0:0:0:
251,269,88506,1,0,3:0:0:0:
263,334,88669,1,2,1:3:0:0:
276,344,88750,1,0,0:0:0:0:
288,342,88831,6,0,P|335:332|349:284,1,92.5,0|2,1:0|0:3,0:0:0:0:
324,233,89155,1,0,3:0:0:0:
339,168,89317,1,2,1:3:0:0:
405,165,89479,1,0,0:0:0:0:
457,206,89642,1,2,1:3:0:0:
479,195,89723,1,0,3:0:0:0:
490,172,89804,1,2,3:1:0:0:
493,147,89885,1,0,3:0:0:0:
486,122,89966,1,0,3:3:0:0:
464,59,90128,6,0,L|362:25,1,92.5,2|0,1:0|1:3,0:0:0:0:
323,70,90452,1,2,3:1:0:0:
330,136,90614,1,0,1:3:0:0:
339,150,90696,1,0,0:0:0:0:
338,166,90777,1,4,1:2:0:0:
313,225,90939,1,2,1:2:0:0:
312,241,91020,1,0,0:0:0:0:
321,255,91102,1,0,3:0:0:0:
349,322,91263,1,2,1:2:0:0:
243,371,91425,5,4,1:0:0:0:
212,303,91587,1,0,0:3:0:0:
230,230,91750,1,0,3:0:0:0:
258,161,91912,1,4,0:3:0:0:
251,87,92074,1,8,3:0:0:0:
167,19,92236,5,4,3:3:0:0:
88,81,92398,5,4,3:0:0:0:
180,188,92560,5,4,1:3:0:0:
0,229,92723,6,0,B|80:200|96:300|194:272,1,185,0|0,1:0|3:0,0:0:0:0:
188,268,93128,1,0,0:0:0:0:
208,268,93209,1,2,1:3:0:0:
284,248,93371,1,0,0:0:0:0:
264,176,93533,1,2,1:0:0:0:
260,156,93614,1,0,0:0:0:0:
264,136,93696,1,0,3:0:0:0:
284,68,93858,1,2,1:0:0:0:
284,68,93939,1,0,1:0:0:0:
284,68,94020,6,0,B|332:60|332:60|396:100,1,92.5,6|0,1:2|0:0,0:0:0:0:
436,56,94344,1,2,3:2:0:0:
464,124,94506,2,0,P|484:204|500:320,1,185,2|2,1:0|1:0,0:0:0:0:
428,324,94993,1,0,3:1:0:0:
400,320,95074,1,0,3:0:0:0:
372,320,95155,1,2,3:0:0:0:
344,324,95236,1,0,3:0:0:0:
316,332,95317,5,6,1:0:0:0:
224,364,95479,1,0,0:0:0:0:
144,352,95642,1,0,3:0:0:0:
72,360,95804,1,0,1:0:0:0:
20,248,95966,5,6,1:2:0:0:
192,228,96128,1,0,0:0:0:0:
112,216,96291,1,4,3:2:0:0:
264,220,96453,1,0,1:0:0:0:
140,108,96614,6,0,B|40:72,1,92.5,4|0,1:0|0:0,0:0:0:0:
340,72,96939,2,0,B|440:36,1,92.5,4|0,3:2|0:0,0:0:0:0:
504,196,97263,5,4,3:1:0:0:
8,196,97587,2,0,P|4:240|0:268,1,69.3750026464463,4|2,1:0|0:0,0:0:0:0:
68,344,97912,5,2,1:2:0:0:
132,316,98074,1,2,0:0:0:0:
140,244,98236,1,0,1:0:0:0:
212,160,98560,5,2,1:2:0:0:
220,88,98722,1,2,0:2:0:0:
284,60,98884,1,0,1:0:0:0:
284,60,99209,5,4,1:2:0:0:
220,88,99371,1,0,1:2:0:0:
212,160,99533,1,2,1:2:0:0:
240,236,99696,1,0,0:0:0:0:
208,360,99858,2,0,B|184:340|184:340|200:304,1,69.3750026464463,2|0,1:2|0:0,0:0:0:0:
212,296,100101,1,0,0:0:0:0:
220,304,100182,1,0,1:0:0:0:
280,340,100344,1,0,1:0:0:0:
348,231,100506,6,0,B|372:177|372:177|243:128,1,185,4|0,1:0|3:0,0:0:0:0:
202,79,100993,1,0,1:0:0:0:
159,139,101155,2,0,L|131:243,1,92.5,0|0,1:0|1:0,0:0:0:0:
130,246,101398,1,0,0:0:0:0:
132,264,101479,1,0,3:0:0:0:
170,327,101642,1,0,1:0:0:0:
97,341,101804,5,4,1:0:0:0:
79,334,101885,1,0,3:0:0:0:
65,321,101966,1,0,3:0:0:0:
56,304,102047,1,0,3:0:0:0:
51,286,102128,1,0,3:0:0:0:
39,212,102290,1,0,1:0:0:0:
53,139,102452,1,0,3:0:0:0:
53,139,102777,5,0,1:0:0:0:
39,212,102939,1,0,3:0:0:0:
51,286,103101,1,4,1:0:0:0:
51,286,103425,5,0,1:0:0:0:
100,340,103587,1,0,1:0:0:0:
176,344,103750,5,2,1:2:0:0:
176,344,103912,1,2,0:0:0:0:
224,288,104074,5,0,1:0:0:0:
304,248,104236,1,0,1:0:0:0:
392,288,104398,2,0,P|408:248|424:200,1,92.5,4|2,1:2|0:0,0:0:0:0:
488,124,104723,1,0,1:0:0:0:
480,108,104804,1,0,0:0:0:0:
468,96,104885,1,0,1:0:0:0:
400,16,105047,2,0,P|384:56|368:104,1,92.5,4|0,1:2|0:0,0:0:0:0:
324,168,105371,1,4,1:2:0:0:
308,156,105452,1,0,0:0:0:0:
292,148,105533,1,0,0:0:0:0:
272,144,105614,1,0,0:0:0:0:
252,144,105696,5,4,1:0:0:0:
168,164,105858,1,0,1:0:0:0:
164,260,106020,1,0,3:0:0:0:
164,260,106182,1,0,1:0:0:0:
176,80,106344,5,4,1:2:0:0:
92,160,106506,1,0,1:0:0:0:
164,260,106668,1,0,3:0:0:0:
164,260,106830,1,0,1:0:0:0:
72,80,106993,5,4,1:0:0:0:
32,220,107155,1,0,1:0:0:0:
169,267,107317,1,0,3:0:0:0:
169,267,107479,1,0,1:0:0:0:
368,356,107642,5,6,1:2:0:0:
416,212,107804,1,0,1:0:0:0:
261,167,107966,1,0,3:0:0:0:
261,167,108128,1,0,1:0:0:0:
216,320,108290,6,0,L|248:308,1,27.7499991531372,4|0,1:0|0:0,0:0:0:0:
280,244,108614,6,0,L|190:214,1,69.3750026464463,4|0,1:0|1:0,0:0:0:0:
196,148,108939,6,0,L|308:112,1,92.5,4|0,1:0|1:0,0:0:0:0:
328,56,109263,6,0,L|184:16,1,138.750005292893,4|0,1:0|1:0,0:0:0:0:
72,116,109587,6,0,B|20:152|20:152|76:316,1,221.999993225098,4|8,1:0|0:0,0:0:0:0:
140,344,110074,1,0,0:0:0:0:
184,280,110236,1,0,0:0:0:0:
252,248,110398,1,2,0:2:0:0:
276,248,110479,1,0,0:0:0:0:
292,260,110560,1,8,0:0:0:0:
312,272,110642,1,0,0:0:0:0:
332,276,110723,1,0,0:0:0:0:
400,316,110885,6,0,B|432:272|432:272|408:220,1,110.999996612549,0|2,0:0|0:2,0:0:0:0:
488,16,111209,2,0,B|464:68|464:68|496:112,1,110.999996612549,8|0,0:0|0:0,0:0:0:0:
496,180,111533,1,0,0:0:0:0:
432,136,111696,1,2,0:2:0:0:
412,148,111777,1,0,0:0:0:0:
404,128,111858,1,8,0:0:0:0:
336,164,112020,1,0,0:0:0:0:
260,132,112182,6,0,P|164:140|24:160,1,221.999993225098,4|8,0:2|0:0,0:0:0:0:
56,232,112669,1,0,0:0:0:0:
132,224,112831,1,0,0:0:0:0:
168,328,112993,1,2,0:2:0:0:
180,348,113074,1,0,0:0:0:0:
192,328,113155,1,8,0:0:0:0:
260,320,113317,1,0,0:0:0:0:
408,356,113479,5,4,0:2:0:0:
360,224,113642,1,0,0:0:0:0:
384,76,113804,5,8,0:0:0:0:
252,124,113967,1,0,0:0:0:0:
104,88,114128,5,8,0:0:0:0:
152,220,114291,1,0,0:0:0:0:
128,368,114453,5,8,0:0:0:0:
260,320,114614,1,0,0:0:0:0:
444,360,114777,6,0,P|472:300|480:145,1,221.999993225098,4|8,0:0|0:0,0:0:0:0:
508,72,115263,1,0,0:0:0:0:
432,52,115425,1,2,0:0:0:0:
404,80,115506,1,0,0:0:0:0:
388,116,115587,1,0,0:0:0:0:
380,156,115669,1,0,0:0:0:0:
376,192,115750,1,8,0:0:0:0:
380,232,115831,1,0,0:0:0:0:
388,268,115912,1,2,0:0:0:0:
340,328,116074,6,0,B|280:320|280:320|232:364,1,110.999996612549,2|0,0:0|0:0,0:0:0:0:
72,196,116398,2,0,B|132:204|132:204|180:160,1,110.999996612549,10|0,0:0|0:0,0:0:0:0:
300,244,116723,2,0,P|196:268|92:304,1,166.499994918823,2|0,0:0|0:0,0:0:0:0:
104,300,117047,1,10,0:0:0:0:
60,364,117209,1,2,0:0:0:0:
28,292,117371,6,0,P|12:232|-8:176,2,110.999996612549,4|0|2,0:2|0:0|0:2,0:0:0:0:
76,232,117858,1,2,0:2:0:0:
189,361,118020,2,0,P|204:307|224:255,1,110.999996612549,4|2,0:2|0:2,0:0:0:0:
256,236,118263,1,0,0:0:0:0:
292,224,118344,1,4,0:2:0:0:
328,212,118425,1,0,0:0:0:0:
364,200,118506,1,0,0:0:0:0:
468,148,118669,5,8,0:0:0:0:
376,100,118831,1,0,0:0:0:0:
292,104,118993,1,8,0:0:0:0:
232,60,119155,1,0,0:0:0:0:
164,64,119317,1,8,0:0:0:0:
164,64,119642,6,0,B|158:64|158:64|164:69|164:69|155:66|155:66|161:72|161:72|152:69|152:69|158:75|158:75|149:72|149:72|155:78|155:78|147:75|147:75|152:80|152:80|144:78|144:78|149:83|149:83|141:80|141:80|147:86|147:86|138:83|138:83|144:89|144:89|135:86|135:86|141:92|141:92|132:89|132:89|138:95|138:95|130:92|130:92|135:97|135:97|127:95|127:95|132:100|132:100|120:104|120:104|120:116,1,208.125007939339,4|0,0:0|0:0,0:0:0:0:
64,144,119966,6,0,P|76:212|80:256,1,92.5,4|0,1:0|0:0,0:0:0:0:
180,316,120614,2,0,P|172:268|168:252,1,46.25,0|0,1:0|0:0,0:0:0:0:
188,208,120939,1,0,0:0:0:0:
244,176,121101,1,0,0:0:0:0:
320,108,121263,6,0,P|328:60|332:44,1,46.25,4|0,1:0|0:0,0:0:0:0:
272,20,121587,1,0,0:0:0:0:
212,56,121750,1,0,0:0:0:0:
252,112,121912,1,0,1:0:0:0:
252,112,122074,1,0,0:0:0:0:
296,200,122236,5,4,0:0:0:0:
244,268,122398,1,0,0:0:0:0:
312,328,122560,2,0,B|380:352|380:352|444:304,1,138.75,4|0,1:2|0:0,0:0:0:0:
492,240,122885,6,0,B|504:228|504:228|480:132|480:132|508:92,1,138.750005292893,4|2,1:0|0:0,0:0:0:0:
416,24,123209,5,0,1:0:0:0:
476,48,123371,1,0,1:0:0:0:
352,128,123533,5,8,1:0:0:0:
248,188,123696,1,8,1:0:0:0:
48,332,123858,5,4,1:0:0:0:
140,376,124020,1,0,1:0:0:0:
60,208,124182,5,12,1:0:0:0:
136,352,124344,1,8,0:1:0:0:
172,132,124506,5,4,1:0:0:0:
144,324,124831,2,0,B|148:296|148:296|150:299|150:299|156:252,1,69.375,4|0,0:0|0:0,0:0:0:0:
208,216,125155,6,0,B|240:232|240:232|228:308,1,92.5,4|0,1:0|0:0,0:0:0:0:
284,340,125479,1,0,1:0:0:0:
308,268,125642,1,0,0:0:0:0:
360,320,125804,2,0,L|456:300,1,92.5,0|0,1:0|0:0,0:0:0:0:
472,296,126047,1,0,3:0:0:0:
452,284,126128,1,0,1:0:0:0:
400,232,126290,1,0,0:0:0:0:
420,220,126371,1,0,0:0:0:0:
440,208,126452,5,0,1:0:0:0:
492,156,126614,1,0,3:0:0:0:
452,92,126777,1,0,1:0:0:0:
480,24,126939,2,0,B|400:-24|384:88|304:56,1,185,0|0,1:0|1:0,0:0:0:0:
280,36,127344,1,0,0:0:0:0:
244,32,127425,1,2,1:0:0:0:
216,44,127506,1,0,0:0:0:0:
208,64,127587,1,0,0:0:0:0:
236,204,127750,6,0,P|244:148|256:108,1,92.5,2|0,1:0|0:0,0:0:0:0:
254,113,128074,1,0,1:0:0:0:
220,272,128236,2,0,P|156:264|32:312,1,185,0|0,1:0|1:0,0:0:0:0:
36,324,128642,1,0,0:0:0:0:
24,304,128723,1,0,1:0:0:0:
32,232,128885,1,0,1:0:0:0:
144,332,129047,5,6,1:0:0:0:
220,272,129209,1,0,1:0:0:0:
352,244,129371,1,0,1:0:0:0:
352,244,129533,1,0,0:0:0:0:
360,312,129696,5,0,1:0:0:0:
288,264,129858,1,8,1:0:0:0:
404,192,130020,5,8,1:0:0:0:
416,272,130182,1,0,1:0:0:0:
316,188,130344,6,0,B|252:120|252:120|300:-8,1,185,0|0,1:0|1:0,0:0:0:0:
470,195,130993,6,0,B|466:204|446:207|446:207|455:205|455:205|475:202|475:202|471:224|471:224|474:201|474:201|483:220|483:220|475:202|475:202|495:216|495:216|476:202|476:202|505:187|505:187|502:189|502:189|485:196|470:187,1,240.499988990784,0|0,1:0|1:0,0:0:0:0:
424,145,131479,1,0,1:0:0:0:
404,268,131642,6,0,B|342:298|342:298|327:341|327:341|260:370,1,185,4|0,1:0|1:0,0:0:0:0:
24,216,132290,6,0,B|24:192|56:152|132:160|140:228|104:308|60:300|24:216|112:208|132:256,1,240.499988990784,6|0,1:0|1:0,0:0:0:0:
164,300,132777,1,0,1:0:0:0:
283,173,132939,6,0,B|299:153|299:153|291:137|291:137|299:153|299:153|355:81,1,120.249994495392,6|0,1:0|0:0,0:0:0:0:
432,44,133263,2,0,B|468:90|468:90|476:74|476:74|468:90|468:90|484:110,1,120.249994495392,2|0,1:0|0:0,0:0:0:0:
428,248,133587,6,0,B|420:252|420:252|416:272|416:272|420:252|420:252|392:263|392:263|400:272|400:272|392:263|392:263|368:272,1,120.249994495392,2|0,1:0|0:0,0:0:0:0:
212,164,133912,2,0,B|203:160|203:160|185:170|185:170|203:160|203:160|177:146|177:146|175:157|175:157|177:146|177:146|162:137,1,120.249994495392,2|0,1:0|0:0,0:0:0:0:
336,28,134236,6,0,B|340:40|340:40|356:44|356:44|340:40|340:40|330:51|330:51|324:36|324:36|308:32|308:32|324:36|324:36|336:28,1,120.249994495392,6|2,1:0|1:0,0:0:0:0:
385,101,134560,5,2,1:0:0:0:
256,74,134723,5,0,1:0:0:0:
449,195,134885,5,0,1:0:0:0:
160,140,135209,2,0,B|192:128|192:128|192:124|192:124|192:132|192:132|236:144|236:144|240:148|240:148|280:160|280:160|276:164|276:164|272:168|272:168|280:160|280:160|320:172,1,180.374991743088,4|0,1:0|0:0,0:0:0:0:
300,240,135533,6,0,P|288:296|264:376,1,120.249994495392,4|2,0:1|0:0,0:0:0:0:
140,292,136182,1,0,3:0:0:0:
76,324,136344,1,0,3:0:0:0:
36,264,136506,1,2,0:0:0:0:
36,264,136831,6,0,P|48:208|72:128,1,120.249994495392,0|2,3:0|0:0,0:0:0:0:
176,52,137479,1,0,3:0:0:0:
232,96,137642,1,0,3:0:0:0:
467,111,138128,6,0,P|416:120|340:140,1,120.249994495392,0|2,3:0|0:0,0:0:0:0:
220,204,138777,1,0,3:0:0:0:
256,264,138939,1,0,3:0:0:0:
328,260,139101,1,0,1:0:0:0:
148,324,139425,6,0,P|76:332|20:356,3,120.249994495392,4|0|0|0,0:0|3:0|3:0|3:0,0:0:0:0:
16,280,140560,1,0,0:0:0:0:
92,212,140723,5,4,3:1:0:0:
24,180,140885,1,0,1:0:0:0:
84,132,141047,1,8,0:0:0:0:
84,132,141371,1,0,1:0:0:0:
24,180,141533,5,8,0:0:0:0:
24,180,141696,1,8,0:0:0:0:
92,212,141858,5,0,1:0:0:0:
196,140,142020,6,0,B|224:100|224:100|200:48,1,92.5,4|0,3:1|0:0,0:0:0:0:
148,36,142344,2,0,L|44:12,1,92.5,0|0,1:0|0:0,0:0:0:0:
212,143,142669,2,0,B|240:103|240:103|216:51,1,92.5,4|0,3:1|0:0,0:0:0:0:
240,38,142912,1,0,1:0:0:0:
214,41,142993,1,0,1:0:0:0:
148,101,143155,1,0,0:0:0:0:
160,228,143317,5,4,1:0:0:0:
160,228,143479,1,2,0:0:0:0:
264,156,143642,5,0,1:0:0:0:
160,228,143804,1,0,1:0:0:0:
260,292,143966,5,4,1:2:0:0:
260,292,144128,1,2,0:0:0:0:
268,140,144290,5,0,1:0:0:0:
260,292,144452,1,0,1:0:0:0:
408,256,144614,5,4,1:0:0:0:
408,256,144777,1,2,0:0:0:0:
256,156,144939,5,0,1:0:0:0:
408,256,145101,1,0,1:0:0:0:
460,64,145263,5,4,1:2:0:0:
460,64,145425,1,2,0:0:0:0:
272,152,145587,1,0,1:0:0:0:
272,152,145750,1,2,1:2:0:0:
440,328,145912,6,0,B|484:312|464:208,1,92.5,6|0,1:0|0:0,0:0:0:0:
368,16,146236,2,0,B|324:32|344:136,1,92.5,8|0,1:0|0:0,0:0:0:0:
440,328,146560,2,0,B|544:240|392:164,1,185,4|8,1:2|1:0,0:0:0:0:
76,80,147533,6,0,B|32:92|20:120|72:176,1,92.5,12|0,1:0|0:0,0:0:0:0:
280,376,147858,2,0,B|324:364|336:336|284:280,1,92.5,8|0,1:0|0:0,0:0:0:0:
76,80,148182,2,0,B|0:96|8:208|120:172,1,185,12|0,1:0|0:0,0:0:0:0:
116,168,148587,1,0,3:0:0:0:
128,164,148669,1,0,3:0:0:0:
140,164,148750,1,0,3:0:0:0:
152,172,148831,1,0,3:0:0:0:
156,184,148912,1,0,3:0:0:0:
152,196,148993,1,0,3:0:0:0:
140,200,149074,1,0,3:0:0:0:
132,212,149155,5,0,3:0:0:0:
128,248,149236,1,0,3:0:0:0:
156,272,149317,1,0,3:0:0:0:
188,288,149398,1,0,3:0:0:0:
224,280,149479,1,0,3:0:0:0:
252,256,149560,1,0,3:0:0:0:
288,244,149642,1,0,3:0:0:0:
320,260,149723,1,0,3:0:0:0:
352,276,149804,6,0,P|392:184|456:80,1,221.999993225098,4|8,1:0|0:0,0:0:0:0:
508,128,150290,1,0,0:0:0:0:
348,56,150452,2,0,P|276:28|236:12,1,110.999996612549,0|2,0:0|0:2,0:0:0:0:
172,128,150777,1,8,0:0:0:0:
316,188,150939,1,0,0:0:0:0:
324,176,151020,1,0,0:0:0:0:
304,172,151101,6,0,B|256:208|256:208|276:264,1,110.999996612549,0|2,0:0|0:2,0:0:0:0:
404,364,151425,2,0,B|452:328|452:328|432:272,1,110.999996612549,8|0,0:0|0:0,0:0:0:0:
296,356,151750,1,0,0:0:0:0:
296,356,151912,1,2,0:2:0:0:
352,264,152074,1,8,0:0:0:0:
440,200,152236,1,0,0:0:0:0:
296,356,152398,6,0,P|248:336|180:328,1,110.999996612549,4|2,0:2|0:2,0:0:0:0:
72,252,152723,1,8,0:0:0:0:
128,368,152885,1,0,0:0:0:0:
156,236,153047,1,0,0:0:0:0:
44,336,153209,1,2,0:2:0:0:
48,320,153290,1,0,0:0:0:0:
64,332,153371,1,8,0:0:0:0:
128,368,153533,1,0,0:0:0:0:
288,208,153696,5,6,0:0:0:0:
176,48,153858,1,0,0:0:0:0:
216,180,154020,5,8,0:0:0:0:
328,20,154182,1,0,0:0:0:0:
228,108,154344,5,10,0:0:0:0:
404,160,154506,1,0,0:0:0:0:
284,76,154669,5,10,0:0:0:0:
360,208,154831,1,8,0:0:0:0:
504,64,154993,6,0,B|400:8|400:8|344:108,1,221.999993225098,4|8,0:0|0:0,0:0:0:0:
280,184,155479,1,2,0:0:0:0:
288,216,155560,1,0,0:0:0:0:
292,248,155642,1,2,0:0:0:0:
348,336,155804,1,0,0:0:0:0:
412,268,155966,1,10,0:0:0:0:
472,296,156128,1,2,0:0:0:0:
284,372,156290,6,0,P|228:348|224:296,1,110.999996612549,2|0,0:0|0:0,0:0:0:0:
312,120,156614,2,0,P|368:144|372:196,1,110.999996612549,10|0,0:0|0:0,0:0:0:0:
256,220,156939,1,2,0:0:0:0:
240,188,157020,1,0,0:0:0:0:
212,172,157101,1,0,0:0:0:0:
180,168,157182,1,0,0:0:0:0:
152,188,157263,1,8,0:0:0:0:
108,248,157425,1,0,0:0:0:0:
36,216,157587,6,0,P|16:148|8:104,2,110.999996612549,4|0|2,0:2|0:0|0:2,0:0:0:0:
32,284,158074,1,2,0:2:0:0:
280,252,158236,6,0,P|300:320|308:364,2,110.999996612549,4|2|4,0:2|0:2|0:2,0:0:0:0:
284,184,158723,1,0,0:0:0:0:
188,336,158885,5,8,0:0:0:0:
100,280,159047,1,0,0:0:0:0:
112,192,159209,1,8,0:0:0:0:
180,172,159371,1,0,0:0:0:0:
232,212,159533,1,8,0:0:0:0:
232,212,159858,6,0,B|244:196|244:196|256:212|256:212|264:184|264:184|280:196|280:196|276:168|276:168|296:172|296:172|284:148|284:148|304:148|304:148|280:108,1,208.125007939339,4|0,0:0|0:0,0:0:0:0:
320,36,160182,6,0,B|224:-32|200:140|104:104,1,240.499988990784,4|8,1:0|0:0,0:0:0:0:
124,196,160669,1,0,0:0:0:0:
88,192,160750,1,0,0:0:0:0:
56,208,160831,1,0,0:0:0:0:
40,240,160912,1,0,0:0:0:0:
40,276,160993,1,2,0:2:0:0:
88,328,161155,1,8,0:0:0:0:
152,296,161317,1,0,0:0:0:0:
184,308,161398,1,0,0:0:0:0:
188,344,161479,6,0,B|240:316|240:316|228:236,1,120.249994495392,0|2,0:0|0:2,0:0:0:0:
384,120,161804,2,0,B|332:148|332:148|344:228,1,120.249994495392,8|0,0:0|0:0,0:0:0:0:
456,344,162128,2,0,B|472:264|472:264|476:264|476:264|500:152,1,180.374991743088,0|0,0:0|0:0,0:0:0:0:
500,144,162452,1,8,0:0:0:0:
460,84,162614,1,0,0:0:0:0:
376,276,162777,6,0,B|320:272|316:316|252:320,2,120.249994495392,4|2|8,0:2|0:2|0:0,0:0:0:0:
408,224,163263,1,0,0:0:0:0:
156,136,163425,6,0,B|212:132|216:176|280:180,2,120.249994495392,0|2|8,0:0|0:2|0:0,0:0:0:0:
124,84,163911,1,0,0:0:0:0:
16,224,164074,6,0,B|40:220|40:220|56:188,1,46.25,6|0,0:0|0:0,0:0:0:0:
128,288,164398,6,0,B|136:256|136:256|112:220,1,69.3750026464463,8|0,0:0|0:0,0:0:0:0:
304,276,164723,6,0,B|268:244|268:244|216:248,1,92.5,10|0,0:0|0:0,0:0:0:0:
420,80,165047,6,0,B|352:92|352:92|316:180,1,138.750005292893,10|8,0:0|0:0,0:0:0:0:
416,356,165371,6,0,B|488:376|536:284|392:200|444:124|560:152,1,277.500010585785,4|8,0:0|0:0,0:0:0:0:
392,272,165858,1,0,0:0:0:0:
356,292,165939,1,0,0:0:0:0:
316,284,166020,1,2,0:0:0:0:
304,260,166101,1,0,0:0:0:0:
284,252,166182,1,0,0:0:0:0:
220,288,166344,1,8,0:0:0:0:
204,304,166425,1,0,0:0:0:0:
164,308,166506,1,2,0:0:0:0:
140,276,166587,1,0,0:0:0:0:
104,256,166669,6,0,P|60:328|40:384,1,138.750005292893,2|0,0:0|0:0,0:0:0:0:
184,220,166993,1,10,0:0:0:0:
120,152,167155,1,0,0:0:0:0:
136,84,167317,1,2,0:0:0:0:
136,84,167479,1,0,0:0:0:0:
244,28,167642,5,8,0:0:0:0:
304,48,167804,1,0,0:0:0:0:
320,120,167966,5,4,0:2:0:0:
248,188,168128,1,0,0:0:0:0:
232,284,168290,1,2,0:2:0:0:
288,332,168452,1,2,0:2:0:0:
376,248,168614,5,4,0:2:0:0:
416,240,168696,1,0,0:0:0:0:
452,260,168777,1,2,0:2:0:0:
468,296,168858,1,0,0:0:0:0:
452,336,168939,1,4,0:2:0:0:
384,368,169101,1,0,0:0:0:0:
312,228,169263,5,10,0:0:0:0:
444,88,169425,1,0,0:0:0:0:
276,136,169587,5,8,0:0:0:0:
472,188,169750,1,0,0:0:0:0:
296,32,169912,6,0,B|372:0|396:76|352:136,1,138.750005292893,10|0,0:0|0:0,0:0:0:0:
240,64,170236,1,6,0:0:0:0:
240,64,170398,1,0,0:0:0:0:
472,188,170560,6,0,B|512:296|372:236|264:368|256:240,1,314.500005998612,4|8,1:0|0:0,0:0:0:0:
136,132,171047,1,0,0:0:0:0:
160,112,171128,1,0,0:0:0:0:
188,124,171209,2,0,B|256:168|200:244|148:232|148:172,1,157.250002999306,0|0,0:0|0:0,0:0:0:0:
64,96,171533,1,8,0:0:0:0:
68,60,171614,1,0,0:0:0:0:
96,44,171696,1,0,0:0:0:0:
112,44,171777,1,0,0:0:0:0:
124,56,171858,6,0,B|100:124|-16:72|8:0,1,157.250002999306,0|2,0:0|0:2,0:0:0:0:
348,212,172182,2,0,B|277:225|264:98|338:83,1,157.250002999306,8|0,0:0|0:0,0:0:0:0:
44,364,172506,2,0,B|-2:309|100:234|150:291,1,157.250002999306,0|2,0:0|0:2,0:0:0:0:
212,300,172831,1,8,0:0:0:0:
224,304,172912,1,0,0:0:0:0:
240,328,172993,1,0,0:0:0:0:
276,352,173074,1,0,0:0:0:0:
328,356,173155,6,0,B|428:348|460:280|368:244|256:324|276:232,1,235.875004498959,4|0,0:2|0:0,0:0:0:0:
252,248,173479,1,8,0:0:0:0:
288,120,173642,1,0,0:0:0:0:
420,124,173804,1,0,0:0:0:0:
476,248,173966,1,2,0:2:0:0:
464,260,174047,1,0,0:0:0:0:
456,252,174128,1,8,0:0:0:0:
412,196,174290,1,0,0:0:0:0:
356,40,174452,6,0,B|368:28|384:32|400:56,1,46.25,6|0,0:0|0:0,0:0:0:0:
240,190,174777,6,0,B|260:206|296:186|304:142,1,69.3750026464463,10|0,0:0|0:0,0:0:0:0:
140,32,175101,6,0,B|180:24|224:52|212:124,1,138.750005292893,10|0,0:0|0:0,0:0:0:0:
48,312,175425,6,0,B|68:356|176:332|112:224,1,157.250002999306,10|8,0:0|0:0,0:0:0:0:
120,128,175750,6,0,B|80:92|-18:139|78:251|190:275|262:163,1,314.500005998612,4|8,1:2|0:0,0:0:0:0:
344,92,176236,1,0,0:0:0:0:
268,24,176398,1,2,0:0:0:0:
228,16,176479,1,0,0:0:0:0:
208,28,176560,1,0,0:0:0:0:
200,40,176642,1,0,0:0:0:0:
200,56,176723,1,8,0:0:0:0:
256,124,176885,1,2,0:0:0:0:
491,73,177047,6,0,B|551:29|467:-75|443:45,1,157.250002999306,2|0,0:0|0:0,0:0:0:0:
333,335,177371,2,0,B|315:435|231:331|291:287,1,157.250002999306,10|0,0:0|0:0,0:0:0:0:
256,124,177696,2,0,B|276:60|228:16|156:60|196:144|260:184|348:176,1,235.875004498959,2|0,0:0|0:0,0:0:0:0:
485,228,178020,2,0,B|446:220|446:196|402:192,1,92.5,8|0,0:0|0:0,0:0:0:0:
27,188,178344,5,4,0:2:0:0:
256,360,178993,2,0,L|272:24,2,314.500005998612,4|4|10,0:2|0:2|0:0,0:0:0:0:
136,312,179804,1,0,0:0:0:0:
192,344,179966,1,8,0:0:0:0:
80,280,180128,1,0,0:0:0:0:
360,196,180290,5,10,0:0:0:0:
360,196,180614,2,0,B|352:212|352:212|371:207|371:207|362:209|362:209|364:228|364:228|372:232|372:232|368:244|368:244|380:249|380:249|368:251|368:251|376:264|376:264|372:272|372:272|382:285|382:285|373:292|373:292|392:316|392:316|376:320|376:320|384:340,1,208.125007939339,6|0,0:0|0:0,0:0:0:0:
440,360,180939,6,0,B|516:344|504:260|420:216,1,157.250002999306,4|0,1:0|0:0,0:0:0:0:
300,128,181263,2,0,B|224:144|236:228|320:272,1,157.250002999306,8|0,0:0|0:0,0:0:0:0:
500,72,181587,2,0,L|176:8,2,314.500005998612,6|14|12,0:0|0:0|0:0,0:0:0:0:
420,148,182398,5,8,0:0:0:0:
300,128,182560,5,10,0:0:0:0:
148,192,182723,5,8,0:0:0:0:
44,372,182885,5,6,0:0:0:0:
44,372,183209,1,4,0:2:0:0:
