osu file format v14

[General]
AudioFilename: audio.mp3
AudioLeadIn: 0
PreviewTime: 51128
Countdown: 0
SampleSet: Normal
StackLeniency: 0.7
Mode: 0
LetterboxInBreaks: 0
WidescreenStoryboard: 0

[Editor]
Bookmarks: 119966,135533,149804,160182,170560
DistanceSpacing: 1.2
BeatDivisor: 4
GridSize: 8
TimelineZoom: 2.1

[Metadata]
Title:Kigurumi Sungeki
TitleUnicode:きぐるみ寸劇
Artist:Chikamori Kayako
ArtistUnicode:浮森かや子
Creator:Mirash
Version:Hard
Source:
Tags:-MikanMyMommy kogumax koguma cross kaine raja jounzan evilelvis natteke desu djulus delis shirohamymommy pop jpop j-pop japanese 幼蚕文庫 オッカ 99 Yousan Bunko
BeatmapID:2781761
BeatmapSetID:1312079

[Difficulty]
HPDrainRate:5
CircleSize:4
OverallDifficulty:7
ApproachRate:8
SliderMultiplier:1.3
SliderTickRate:1

[Events]
//Background and Video events
0,0,"notkigurumiXD.jpg",0,0
//Break Periods
2,13625,18027
2,66777,75108
2,120166,123108
2,135733,139973
//Storyboard Layer 0 (Background)
//Storyboard Layer 1 (Fail)
//Storyboard Layer 2 (Pass)
//Storyboard Layer 3 (Foreground)
//Storyboard Layer 4 (Overlay)
//Storyboard Sound Samples

[TimingPoints]
615,324.324324324324,4,2,1,50,1,0
13587,-100,4,2,1,60,0,0
17479,-100,4,2,1,70,0,0
18128,-100,4,2,1,80,0,0
18777,-100,4,2,1,50,0,0
29155,-100,4,2,2,60,0,0
38560,-100,4,2,1,60,0,0
38885,-100,4,2,1,70,0,0
39533,-100,4,2,1,60,0,0
47317,-100,4,2,1,65,0,0
51209,-83.3333333333333,4,1,1,70,0,0
59642,-83.3333333333333,4,1,1,65,0,0
60939,-83.3333333333333,4,1,1,60,0,0
61263,-83.3333333333333,4,2,1,50,0,0
61587,-133.333333333333,4,2,1,40,0,0
64182,-133.333333333333,4,2,1,50,0,0
64506,-100,4,2,1,50,0,0
65479,-100,4,2,1,60,0,0
66452,-100,4,2,1,50,0,0
66777,-100,4,2,1,55,0,0
70669,-100,4,2,1,65,0,0
71966,-100,4,2,1,55,0,0
75858,-100,4,2,1,70,0,0
77155,-100,4,2,1,50,0,0
87533,-100,4,2,2,60,0,0
97912,-100,4,2,1,60,0,0
106993,-100,4,2,1,65,0,0
108290,-100,4,2,1,70,0,0
109587,-83.3333333333333,4,1,1,70,0,0
118669,-83.3333333333333,4,1,1,65,0,0
118993,-83.3333333333333,4,1,1,60,0,0
119317,-100,4,1,1,50,0,0
119966,-100,4,2,1,40,0,0
122560,-100,4,2,1,50,0,0
123209,-100,4,2,1,60,0,0
123858,-83.3333333333333,4,2,1,65,0,0
124831,-83.3333333333333,4,2,1,50,0,0
125155,-100,4,2,1,65,0,0
134885,-100,4,2,1,50,0,0
135209,-100,4,2,1,40,0,0
140642,-133.333333333333,4,2,1,40,0,0
142669,-100,4,2,1,40,0,0
143317,-100,4,2,1,50,0,0
144614,-100,4,2,1,55,0,0
145587,-100,4,2,1,60,0,0
145912,-100,4,2,1,70,0,0
147209,-100,4,2,1,80,0,0
148506,-100,4,2,1,50,0,0
149804,-100,4,1,1,70,0,0
150128,-83.3333333333333,4,1,1,70,0,0
159858,-100,4,1,1,70,0,0
160182,-83.3333333333333,4,1,1,70,0,0
170560,-83.3333333333333,4,1,1,80,0,0
182885,-83.3333333333333,4,1,1,60,0,0
183209,-83.3333333333333,4,1,1,50,0,0

[Colours]
Combo1 : 171,107,109
Combo2 : 72,126,130
Combo3 : 147,157,115
Combo4 : 176,89,143

[HitObjects]
108,118,615,6,0,P|154:129|248:143,1,130,0|0,1:0|1:0,0:0:0:0:
301,99,1101,1,0,0:0:0:0:
346,162,1263,2,0,P|337:212|334:250,1,65,0|0,1:0|0:0,0:0:0:0:
295,289,1587,1,0,1:0:0:0:
364,351,1750,5,0,1:0:0:0:
364,351,1831,1,0,0:0:0:0:
364,351,1912,2,0,P|420:333|441:254,1,130,0|0,1:0|1:0,0:0:0:0:
419,196,2398,1,0,0:0:0:0:
478,145,2560,1,0,1:0:0:0:
420,93,2723,1,2,0:1:0:0:
492,64,2885,2,0,P|487:28|487:9,2,32.5,0|0|2,1:0|0:0|0:1,0:0:0:0:
380,6,3209,6,0,P|328:12|241:32,1,130,0|0,1:0|3:0,0:0:0:0:
197,86,3696,1,0,0:0:0:0:
126,53,3858,2,0,P|86:65|42:76,1,65,0|0,1:0|0:0,0:0:0:0:
66,148,4182,2,0,P|106:136|150:125,1,65,0|0,3:0|1:0,0:0:0:0:
183,184,4506,6,0,P|172:220|165:266,2,65,0|0|0,1:0|0:0|3:0,0:0:0:0:
107,292,4993,2,0,P|158:298|257:309,1,130,0|0,1:0|0:0,0:0:0:0:
296,260,5479,1,0,3:0:0:0:
348,318,5642,1,0,1:0:0:0:
420,277,5804,6,0,P|408:229|402:191,1,65,2|2,1:2|0:0,0:0:0:0:
394,136,6128,2,0,P|386:190|365:278,1,130,0|2,3:0|1:2,0:0:0:0:
409,341,6614,1,2,0:0:0:0:
409,341,6696,1,2,1:2:0:0:
409,341,6777,1,0,3:0:0:0:
480,320,6939,1,2,1:2:0:0:
478,232,7101,6,0,P|490:184|496:146,1,65,4|0,1:0|0:0,0:0:0:0:
455,100,7425,2,0,P|443:52|437:14,1,65,0|0,0:0|0:0,0:0:0:0:
366,104,7750,5,8,3:0:0:0:
313,47,7912,1,4,3:0:0:0:
263,102,8074,1,4,3:3:0:0:
202,58,8236,1,4,1:3:0:0:
144,5,8398,6,0,P|137:49|126:150,1,130,0|0,1:0|3:0,0:0:0:0:
162,204,8885,2,0,P|171:268|178:332,1,130,0|0,1:0|1:0,0:0:0:0:
250,362,9371,1,0,3:0:0:0:
300,292,9533,5,0,0:0:0:0:
300,292,9614,1,0,1:0:0:0:
300,292,9696,2,0,P|288:238|281:205,2,65,2|0|2,3:2|1:0|3:2,0:0:0:0:
351,350,10182,2,0,P|394:343|431:254,1,130,0|0,1:0|1:0,0:0:0:0:
388,210,10669,2,0,P|418:197|431:190,2,32.5,2|0|0,3:2|0:0|0:0,0:0:0:0:
323,153,10993,5,2,1:3:0:0:
359,81,11155,1,0,0:0:0:0:
282,73,11317,1,4,3:0:0:0:
317,2,11479,1,0,0:0:0:0:
220,1,11642,6,0,P|182:23|154:36,1,65,4|0,0:0|0:0,0:0:0:0:
115,95,11966,2,0,P|76:73|51:55,1,65,8|0,3:0|0:0,0:0:0:0:
186,131,12290,5,4,1:0:0:0:
255,192,12452,1,0,0:0:0:0:
255,192,12533,1,0,0:0:0:0:
255,192,12614,1,4,1:3:0:0:
169,213,12777,1,0,0:0:0:0:
232,275,12939,2,0,P|237:316|239:353,1,65,4|0,0:0|0:0,0:0:0:0:
351,297,13263,2,0,P|353:264|357:232,1,65,4|0,0:0|0:0,0:0:0:0:
256,191,18777,5,4,1:0:0:0:
143,118,19101,1,0,3:0:0:0:
143,118,19263,2,0,P|139:167|127:258,1,130,0|0,1:0|1:0,0:0:0:0:
171,314,19750,2,0,P|213:304|259:299,1,65,0|0,3:0|1:0,0:0:0:0:
336,247,20074,6,0,P|376:256|430:258,2,65,0|0|0,1:0|0:0|3:0,0:0:0:0:
311,317,20560,2,0,P|306:264|296:173,1,130,0|0,1:0|0:0,0:0:0:0:
264,116,21047,2,0,P|260:55|255:26,1,65,2|0,3:2|1:0,0:0:0:0:
321,5,21371,5,2,1:2:0:0:
386,47,21533,1,0,1:0:0:0:
456,11,21696,1,0,3:0:0:0:
469,87,21858,1,0,1:0:0:0:
412,140,22020,2,0,P|426:179|435:216,1,65,4|0,1:2|1:0,0:0:0:0:
489,256,22344,2,0,P|462:287|434:313,1,65,0|0,3:0|1:0,0:0:0:0:
397,365,22669,5,4,1:0:0:0:
332,317,22831,1,2,0:0:0:0:
271,366,22993,1,0,3:0:0:0:
252,291,23155,2,0,P|262:248|270:210,1,65,4|8,0:0|3:0,0:0:0:0:
201,167,23479,5,4,3:0:0:0:
292,119,23642,1,4,3:0:0:0:
208,57,23804,1,4,1:3:0:0:
128,100,23966,6,0,P|90:94|53:85,2,65,0|0|0,1:0|0:0|3:0,0:0:0:0:
151,172,24452,2,0,P|205:159|299:135,1,130,0|0,1:0|1:0,0:0:0:0:
313,73,24939,1,0,3:0:0:0:
375,125,25101,1,0,1:0:0:0:
441,32,25263,6,0,P|464:86|480:112,1,65,2|0,1:2|0:0,0:0:0:0:
362,44,25587,2,0,P|329:42|297:36,1,65,2|0,3:2|0:0,0:0:0:0:
375,125,25912,2,0,P|386:155|401:184,1,65,2|0,1:2|0:0,0:0:0:0:
286,117,26236,2,0,P|256:131|226:143,1,65,2|0,3:2|0:0,0:0:0:0:
208,227,26560,5,2,1:2:0:0:
146,183,26723,1,0,0:0:0:0:
99,241,26885,1,0,3:0:0:0:
35,207,27047,1,0,0:0:0:0:
88,127,27209,2,0,P|131:139|166:147,1,65,2|0,1:2|0:0,0:0:0:0:
239,198,27533,2,0,P|270:190|301:181,1,65,4|0,3:2|0:0,0:0:0:0:
353,102,27858,5,0,1:0:0:0:
432,161,28020,1,0,0:0:0:0:
432,161,28101,1,0,1:0:0:0:
432,161,28182,1,0,3:0:0:0:
383,239,28344,1,0,1:0:0:0:
446,326,28506,5,8,3:0:0:0:
486,261,28669,1,4,3:0:0:0:
409,258,28831,2,0,P|370:268|334:277,1,65,4|0,1:0|0:0,0:0:0:0:
224,349,29155,6,0,P|188:343|89:316,1,130,4|0,1:0|3:0,0:0:0:0:
36,269,29642,2,0,P|72:263|171:236,1,130,2|2,1:3|1:3,0:0:0:0:
199,171,30128,1,0,3:0:0:0:
294,208,30290,5,2,0:3:0:0:
294,208,30371,1,0,1:0:0:0:
294,208,30452,2,0,P|295:163|296:133,2,65,0|2|0,1:0|1:3|3:0,0:0:0:0:
246,82,30939,2,0,P|308:99|372:111,1,130,2|2,1:3|1:3,0:0:0:0:
441,71,31425,2,0,P|454:112|458:122,2,32.5,2|0|0,3:1|0:0|1:3,0:0:0:0:
370,19,31750,5,2,1:0:0:0:
296,47,31912,1,0,1:3:0:0:
231,4,32074,2,0,P|151:20|98:32,1,130,2|4,3:1|1:2,0:0:0:0:
27,14,32560,1,2,1:2:0:0:
5,90,32723,1,0,3:0:0:0:
81,111,32885,1,2,1:2:0:0:
153,182,33047,6,0,P|139:216|128:250,1,65,4|0,1:0|0:3,0:0:0:0:
245,201,33371,2,0,P|234:170|222:140,1,65,0|4,3:0|0:3,0:0:0:0:
206,269,33696,1,8,3:0:0:0:
284,274,33858,1,4,3:3:0:0:
342,219,34020,1,4,3:0:0:0:
306,148,34182,1,4,1:3:0:0:
416,114,34344,6,0,P|423:167|436:248,1,130,0|0,1:0|3:0,0:0:0:0:
483,331,34831,2,0,P|430:338|349:351,1,130,2|2,1:3|1:0,0:0:0:0:
275,302,35317,1,0,3:0:0:0:
181,363,35479,5,2,1:0:0:0:
181,363,35560,1,0,0:0:0:0:
181,363,35642,2,0,P|140:355|110:350,2,65,6|0|2,1:2|0:0|3:2,0:0:0:0:
254,337,36128,1,2,1:0:0:0:
193,290,36290,2,0,P|190:240|178:142,1,130,0|0,0:0|3:1,0:0:0:0:
231,102,36777,1,2,1:0:0:0:
155,31,36939,6,0,P|107:42|70:45,1,65,6|0,1:0|0:0,0:0:0:0:
20,14,37263,1,0,3:0:0:0:
20,14,37425,1,0,0:0:0:0:
8,130,37587,2,0,P|56:141|93:144,1,65,6|0,1:2|0:0,0:0:0:0:
143,113,37911,1,4,3:2:0:0:
143,113,38073,1,0,0:0:0:0:
252,174,38236,6,0,P|284:169|315:161,1,65,4|0,1:0|0:0,0:0:0:0:
361,81,38560,1,4,3:2:0:0:
436,133,38723,1,0,0:0:0:0:
391,227,38885,2,0,P|362:256|352:358,1,130,4|4,3:1|1:0,0:0:0:0:
191,260,39533,6,0,P|131:238|85:167,1,130,2|0,1:2|1:0,0:0:0:0:
95,29,40182,1,2,1:2:0:0:
166,2,40344,1,2,0:2:0:0:
192,75,40506,2,0,P|231:72|268:62,1,65,0|0,1:0|1:0,0:0:0:0:
326,13,40831,6,0,P|366:35|406:137,2,130,4|2|2,1:2|1:2|1:2,0:0:0:0:
276,88,41642,1,0,0:0:0:0:
276,88,41723,1,0,0:0:0:0:
276,88,41804,2,0,P|275:122|277:160,1,65,0|0,1:0|0:0,0:0:0:0:
351,250,42128,6,0,P|419:223|430:145,1,130,4|0,1:0|3:0,0:0:0:0:
368,142,42614,1,0,1:0:0:0:
368,142,42696,1,0,0:0:0:0:
368,142,42777,2,0,P|315:153|290:157,1,65,0|0,1:0|1:0,0:0:0:0:
251,230,43101,2,0,P|219:224|187:217,1,65,0|0,3:0|1:0,0:0:0:0:
123,145,43425,5,4,1:0:0:0:
34,317,43750,1,0,3:0:0:0:
94,367,43912,1,0,1:0:0:0:
151,313,44074,2,0,P|145:279|137:239,2,65,0|0|0,3:0|1:0|1:0,0:0:0:0:
211,367,44560,1,0,3:0:0:0:
271,309,44723,6,0,P|317:300|385:245,1,130,4|0,1:0|1:0,0:0:0:0:
370,39,45371,1,2,1:2:0:0:
293,18,45533,1,2,0:0:0:0:
276,93,45696,2,0,P|223:95|182:97,1,65,0|0,1:0|1:0,0:0:0:0:
120,34,46020,6,0,P|86:64|57:147,2,130,4|0|4,1:2|1:0|1:2,0:0:0:0:
183,95,46831,1,0,0:0:0:0:
183,95,46912,1,0,1:0:0:0:
183,95,46993,2,0,P|177:129|169:168,1,65,4|0,1:2|0:0,0:0:0:0:
178,259,47317,6,0,P|224:246|256:239,1,65,4|0,1:0|1:0,0:0:0:0:
273,177,47642,2,0,P|304:184|335:193,1,65,0|0,3:0|1:0,0:0:0:0:
331,267,47966,6,0,P|285:254|253:247,1,65,4|0,1:2|1:0,0:0:0:0:
236,185,48291,2,0,P|204:192|173:201,1,65,0|0,3:0|1:0,0:0:0:0:
164,280,48614,6,0,P|210:267|242:260,1,65,4|0,1:0|1:0,0:0:0:0:
289,163,48939,2,0,P|320:170|351:179,1,65,0|0,3:0|1:0,0:0:0:0:
364,286,49263,6,0,P|318:273|286:266,1,65,6|0,1:2|1:0,0:0:0:0:
205,175,49588,2,0,P|173:182|142:191,1,65,0|0,3:0|1:0,0:0:0:0:
65,258,49912,5,4,1:0:0:0:
4,187,50074,1,0,0:0:0:0:
4,187,50155,1,0,1:0:0:0:
4,187,50236,1,4,1:0:0:0:
73,124,50398,1,0,1:0:0:0:
142,191,50560,2,0,P|173:182|205:175,1,65,4|0,1:0|1:0,0:0:0:0:
281,111,50885,2,0,P|304:133|326:156,1,65,4|0,1:0|1:0,0:0:0:0:
379,255,51209,6,0,P|429:239|461:134,1,155.999995239258,4|8,1:0|0:0,0:0:0:0:
390,91,51696,1,0,0:0:0:0:
408,0,51858,2,0,P|338:2|304:5,1,77.999997619629,0|2,0:0|0:2,0:0:0:0:
252,54,52182,1,8,0:0:0:0:
170,7,52344,1,0,0:0:0:0:
80,33,52506,6,0,P|81:106|77:197,2,155.999995239258,0|8|0,0:0|0:0|0:0,0:0:0:0:
165,73,53317,1,2,0:2:0:0:
165,73,53398,1,0,0:0:0:0:
165,73,53479,2,0,P|168:130|169:159,1,77.999997619629,8|0,0:0|0:0,0:0:0:0:
161,244,53804,6,0,P|212:242|262:154,1,155.999995239258,4|8,0:2|0:0,0:0:0:0:
292,70,54290,1,0,0:0:0:0:
362,131,54452,2,0,P|416:140|455:138,1,77.999997619629,0|2,0:0|0:2,0:0:0:0:
502,208,54777,1,8,0:0:0:0:
442,280,54939,1,0,0:0:0:0:
358,237,55101,6,0,P|329:296|325:321,1,77.999997619629,4|0,0:2|0:0,0:0:0:0:
222,356,55425,2,0,P|210:318|190:285,1,77.999997619629,8|0,0:0|0:0,0:0:0:0:
235,202,55750,1,8,0:0:0:0:
153,155,55912,1,0,0:0:0:0:
182,66,56074,1,8,0:0:0:0:
92,39,56236,1,8,0:0:0:0:
16,93,56398,6,0,P|26:151|34:278,1,155.999995239258,4|8,0:0|0:0,0:0:0:0:
78,330,56885,1,0,0:0:0:0:
165,361,57047,2,0,P|210:322|203:218,1,155.999995239258,2|8,0:0|0:0,0:0:0:0:
153,157,57533,5,2,0:0:0:0:
153,157,57614,1,0,0:0:0:0:
153,157,57696,2,0,P|236:147|324:137,2,155.999995239258,2|10|2,0:0|0:0|0:0,0:0:0:0:
86,91,58506,1,0,0:0:0:0:
175,63,58669,2,0,P|237:58|288:52,1,77.999997619629,10|2,0:0|0:0,0:0:0:0:
335,12,58993,6,0,P|382:55|420:147,1,155.999995239258,4|2,0:2|0:2,0:0:0:0:
372,219,59479,1,2,0:2:0:0:
415,302,59642,2,0,P|439:336|475:360,1,77.999997619629,4|2,0:2|0:2,0:0:0:0:
331,292,59966,2,0,P|289:295|250:314,1,77.999997619629,4|0,0:2|0:0,0:0:0:0:
176,358,60290,5,8,0:0:0:0:
125,298,60452,1,0,0:0:0:0:
59,339,60614,2,0,P|30:294|24:249,1,77.999997619629,8|0,0:0|0:0,0:0:0:0:
70,206,60939,2,0,P|77:152|61:40,1,155.999995239258,8|4,0:0|0:0,0:0:0:0:
219,31,61587,5,4,1:0:0:0:
265,220,62236,2,0,P|313:206|431:118,1,195.00000743866,0|4,1:0|1:0,0:0:0:0:
364,47,63209,1,0,0:0:0:0:
290,110,63533,1,0,1:0:0:0:
207,58,63858,1,4,0:0:0:0:
139,127,64182,6,0,P|143:172|141:197,1,48.750001859665,4|0,1:2|0:0,0:0:0:0:
88,227,64506,2,0,P|96:280|102:381,1,130,4|0,1:0|1:0,0:0:0:0:
180,357,64993,1,0,1:0:0:0:
215,287,65155,1,8,1:0:0:0:
168,224,65317,1,8,1:0:0:0:
229,175,65479,2,0,L|298:199,2,65,4|0|12,1:0|1:0|1:0,0:0:0:0:
190,106,65966,1,8,0:1:0:0:
128,153,66128,2,0,P|54:161|-8:172,1,130,4|4,1:0|0:0,0:0:0:0:
336,102,75858,6,0,P|326:157|323:192,1,65,6|0,1:0|1:0,0:0:0:0:
347,261,76182,2,0,P|292:251|257:248,1,65,8|0,1:0|1:0,0:0:0:0:
228,196,76506,1,4,1:0:0:0:
158,221,76669,1,8,1:0:0:0:
179,135,76831,1,12,1:0:0:0:
132,72,76993,1,0,1:0:0:0:
214,59,77155,6,0,P|274:55|364:31,1,130,4|0,1:0|3:0,0:0:0:0:
417,17,77642,2,0,P|421:77|445:167,1,130,0|0,1:0|1:0,0:0:0:0:
492,199,78128,2,0,P|482:241|478:276,1,65,0|0,3:0|1:0,0:0:0:0:
429,322,78452,6,0,P|454:353|472:377,2,65,4|0|0,1:2|0:0|3:0,0:0:0:0:
397,250,78939,2,0,P|344:267|256:291,1,130,0|0,1:0|0:0,0:0:0:0:
206,245,79425,1,2,3:2:0:0:
161,309,79587,1,0,1:0:0:0:
85,288,79750,6,0,P|83:223|78:200,1,65,2|0,1:2|1:0,0:0:0:0:
140,170,80074,2,0,P|137:119|142:27,1,130,0|4,3:0|1:2,0:0:0:0:
66,65,80560,1,0,1:0:0:0:
56,142,80723,2,0,P|59:195|59:228,1,65,0|0,3:0|1:0,0:0:0:0:
128,242,81047,6,0,P|182:231|213:221,2,65,4|2|0,1:0|0:0|3:0,0:0:0:0:
68,292,81533,2,0,P|78:328|83:363,1,65,4|8,0:0|3:0,0:0:0:0:
160,359,81858,1,4,3:0:0:0:
216,305,82020,1,4,3:0:0:0:
279,350,82182,1,4,1:3:0:0:
346,311,82344,6,0,P|341:256|337:169,1,130,0|0,1:0|3:0,0:0:0:0:
291,117,82831,1,0,1:0:0:0:
423,35,83155,1,0,1:0:0:0:
390,105,83317,2,0,P|387:177|388:192,1,65,0|0,3:0|1:0,0:0:0:0:
438,228,83642,6,0,P|437:272|435:305,2,65,2|0|2,1:2|0:0|3:2,0:0:0:0:
361,242,84128,2,0,P|274:232|205:233,1,130,0|0,1:0|1:0,0:0:0:0:
167,188,84614,1,2,3:2:0:0:
124,254,84777,1,0,0:0:0:0:
47,238,84939,6,0,P|49:191|48:155,1,65,2|0,1:2|0:0,0:0:0:0:
92,108,85263,1,0,3:0:0:0:
92,108,85425,1,0,0:0:0:0:
158,148,85587,2,0,P|217:143|243:140,1,65,2|0,1:2|0:0,0:0:0:0:
286,188,85912,2,0,P|345:183|371:180,1,65,4|0,3:2|0:0,0:0:0:0:
408,130,86236,5,0,1:0:0:0:
339,92,86398,1,0,0:0:0:0:
339,92,86479,1,0,1:0:0:0:
339,92,86560,2,0,P|343:29|344:6,1,65,0|0,3:0|1:0,0:0:0:0:
266,9,86885,5,8,3:0:0:0:
224,75,87047,1,4,3:0:0:0:
150,49,87209,1,4,1:0:0:0:
284,167,87533,6,0,P|285:227|294:321,1,130,4|0,1:0|3:0,0:0:0:0:
350,347,88020,2,0,P|382:325|402:236,1,130,2|2,1:3|1:3,0:0:0:0:
359,175,88506,1,0,3:0:0:0:
414,119,88669,5,2,1:3:0:0:
414,119,88750,1,0,0:0:0:0:
414,119,88831,2,0,P|407:74|407:37,2,65,0|2|0,1:0|0:3|3:0,0:0:0:0:
327,99,89317,2,0,P|286:95|176:93,1,130,2|2,1:3|1:3,0:0:0:0:
148,31,89804,2,0,P|97:38|56:42,1,65,2|0,3:1|1:3,0:0:0:0:
23,89,90128,5,2,1:0:0:0:
23,89,90290,1,0,1:3:0:0:
90,127,90452,1,2,3:1:0:0:
90,127,90614,1,0,1:3:0:0:
39,186,90777,2,0,P|30:219|16:252,1,65,4|2,1:2|1:2,0:0:0:0:
62,311,91101,2,0,P|103:289|138:277,1,65,0|2,3:0|1:2,0:0:0:0:
124,204,91425,6,0,P|170:207|263:225,1,130,4|0,1:0|3:0,0:0:0:0:
300,283,91912,1,4,0:3:0:0:
300,283,92074,1,8,3:0:0:0:
346,220,92236,1,4,3:3:0:0:
402,273,92398,1,4,3:0:0:0:
402,273,92560,1,4,1:3:0:0:
504,277,92723,6,0,P|491:234|481:135,1,130,0|0,1:0|3:0,0:0:0:0:
488,72,93209,2,0,P|449:78|336:93,1,130,2|2,1:3|1:0,0:0:0:0:
289,53,93696,1,0,3:0:0:0:
254,122,93858,5,2,1:0:0:0:
254,122,93939,1,0,1:0:0:0:
254,122,94020,2,0,P|266:172|274:206,2,65,6|0|2,1:2|0:0|3:2,0:0:0:0:
179,145,94506,2,0,P|135:140|31:121,1,130,2|2,1:0|1:0,0:0:0:0:
12,56,94993,1,0,3:1:0:0:
12,56,95155,1,2,1:0:0:0:
73,8,95317,5,6,1:0:0:0:
129,61,95479,1,0,0:0:0:0:
188,9,95642,2,0,P|223:18|276:31,1,65,0|0,3:0|1:0,0:0:0:0:
286,94,95966,1,6,1:2:0:0:
342,41,96128,1,0,0:0:0:0:
401,93,96291,2,0,P|436:84|489:71,1,65,4|0,3:2|1:0,0:0:0:0:
416,171,96614,5,4,1:0:0:0:
338,157,96777,1,0,0:0:0:0:
338,157,96858,1,0,1:0:0:0:
338,157,96939,2,0,P|341:199|342:247,1,65,4|0,3:2|0:0,0:0:0:0:
268,248,97263,2,0,P|266:291|268:379,1,130,4|4,3:1|1:0,0:0:0:0:
13,199,97912,5,2,1:2:0:0:
151,128,98236,1,0,1:0:0:0:
204,184,98398,1,0,1:0:0:0:
262,132,98560,2,0,P|318:146|405:152,1,130,2|0,1:2|1:0,0:0:0:0:
433,87,99047,1,0,1:0:0:0:
387,23,99209,2,0,P|338:28|314:31,1,65,4|0,1:2|1:2,0:0:0:0:
245,43,99533,2,0,P|197:32|158:24,1,65,2|0,1:2|0:0,0:0:0:0:
122,80,99858,1,2,1:2:0:0:
66,24,100020,1,0,0:0:0:0:
66,24,100101,1,0,0:0:0:0:
66,24,100182,1,0,1:0:0:0:
18,172,100506,6,0,P|16:227|12:257,1,65,4|0,1:0|0:0,0:0:0:0:
66,295,100831,1,0,3:0:0:0:
107,229,100993,1,0,1:0:0:0:
160,285,101155,1,0,1:0:0:0:
201,218,101317,1,0,1:0:0:0:
256,272,101479,2,0,P|258:327|262:357,1,65,0|0,3:0|1:0,0:0:0:0:
343,250,101804,6,0,P|334:197|330:157,2,65,4|0|0,1:0|0:0|3:0,0:0:0:0:
393,309,102290,1,0,1:0:0:0:
451,257,102452,2,0,P|457:200|466:110,1,130,0|0,3:0|1:0,0:0:0:0:
260,68,103101,5,4,1:0:0:0:
164,191,103425,1,0,1:0:0:0:
101,144,103587,1,0,1:0:0:0:
141,76,103750,2,0,P|189:93|269:103,1,130,2|0,1:2|1:0,0:0:0:0:
336,67,104236,1,0,1:0:0:0:
374,134,104398,2,0,P|364:175|357:202,1,65,4|2,1:2|0:0,0:0:0:0:
312,260,104723,2,0,P|322:301|329:328,1,65,0|0,1:0|1:0,0:0:0:0:
400,352,105047,1,4,1:2:0:0:
447,290,105209,1,0,0:0:0:0:
447,290,105290,1,0,0:0:0:0:
447,290,105371,1,4,1:2:0:0:
251,363,105696,5,4,1:0:0:0:
251,363,105858,1,0,1:0:0:0:
202,302,106020,1,0,3:0:0:0:
202,302,106182,1,0,1:0:0:0:
253,243,106344,2,0,P|254:198|251:162,1,65,4|0,1:2|1:0,0:0:0:0:
179,151,106669,2,0,P|180:183|179:215,1,65,0|0,3:0|1:0,0:0:0:0:
120,267,106993,5,4,1:0:0:0:
46,240,107155,1,0,1:0:0:0:
54,162,107317,2,0,P|50:111|41:75,1,65,0|0,3:0|1:0,0:0:0:0:
31,79,107560,1,0,0:0:0:0:
31,79,107642,2,0,P|98:75|116:70,1,65,6|0,1:2|1:0,0:0:0:0:
146,16,107966,1,0,3:0:0:0:
211,57,108128,1,0,1:0:0:0:
275,13,108290,5,4,1:0:0:0:
426,196,108614,1,4,1:0:0:0:
275,371,108939,1,4,1:0:0:0:
124,188,109263,1,4,1:0:0:0:
259,111,109587,6,0,P|253:195|248:285,1,155.999995239258,4|8,1:0|0:0,0:0:0:0:
168,316,110074,1,0,0:0:0:0:
89,264,110236,2,0,P|88:217|175:159,1,155.999995239258,0|8,0:0|0:0,0:0:0:0:
178,64,110723,5,0,0:0:0:0:
178,64,110804,1,0,0:0:0:0:
178,64,110885,2,0,P|132:75|75:81,1,77.999997619629,0|2,0:0|0:2,0:0:0:0:
229,0,111209,2,0,P|275:11|332:17,1,77.999997619629,8|0,0:0|0:0,0:0:0:0:
398,11,111533,2,0,P|382:63|366:174,1,155.999995239258,0|8,0:0|0:0,0:0:0:0:
277,192,112020,1,0,0:0:0:0:
331,268,112182,6,0,P|402:272|466:186,2,155.999995239258,4|8|0,0:2|0:0|0:0,0:0:0:0:
237,256,112993,1,2,0:2:0:0:
223,348,113155,2,0,P|265:339|303:335,1,77.999997619629,8|0,0:0|0:0,0:0:0:0:
151,292,113479,5,4,0:2:0:0:
91,232,113642,1,0,0:0:0:0:
151,169,113804,1,8,0:0:0:0:
83,106,113966,1,0,0:0:0:0:
132,26,114128,2,0,P|153:72|172:106,1,77.999997619629,8|0,0:0|0:0,0:0:0:0:
34,167,114452,2,0,P|13:213|-6:247,1,77.999997619629,8|8,0:0|0:0,0:0:0:0:
48,317,114777,6,0,P|105:287|106:196,1,155.999995239258,4|8,0:0|0:0,0:0:0:0:
191,157,115263,1,0,0:0:0:0:
191,157,115344,1,0,0:0:0:0:
191,157,115425,2,0,P|257:171|353:177,1,155.999995239258,2|8,0:0|0:0,0:0:0:0:
405,105,115912,1,2,0:0:0:0:
431,194,116074,6,0,P|439:249|453:292,1,77.999997619629,2|0,0:0|0:0,0:0:0:0:
372,329,116398,2,0,P|364:274|350:231,1,77.999997619629,10|0,0:0|0:0,0:0:0:0:
268,224,116723,1,2,0:0:0:0:
131,95,117047,5,10,0:0:0:0:
204,37,117209,1,2,0:0:0:0:
227,127,117371,2,0,P|199:186|165:280,1,155.999995239258,4|2,0:2|0:2,0:0:0:0:
219,349,117858,1,2,0:2:0:0:
310,328,118020,2,0,P|293:286|272:244,1,77.999997619629,4|2,0:2|0:2,0:0:0:0:
111,214,118344,2,0,P|94:249|79:285,1,77.999997619629,4|0,0:2|0:0,0:0:0:0:
137,359,118669,5,8,0:0:0:0:
137,359,118831,1,0,0:0:0:0:
202,292,118993,1,8,0:0:0:0:
202,292,119155,1,0,0:0:0:0:
202,198,119317,2,0,P|184:127|175:56,1,130,8|4,0:0|0:0,0:0:0:0:
39,148,119966,5,0,1:0:0:0:
266,68,123858,6,0,P|264:113|258:161,1,77.999997619629,4|0,1:0|1:0,0:0:0:0:
171,115,124182,2,0,P|169:160|165:197,1,77.999997619629,12|8,1:0|0:1,0:0:0:0:
72,179,124506,2,0,P|70:224|56:337,1,155.999995239258,4|4,1:0|0:0,0:0:0:0:
208,369,125155,6,0,P|256:355|281:348,1,65,4|0,1:0|0:0,0:0:0:0:
304,281,125479,2,0,P|351:298|437:313,2,130,0|0|0,1:0|1:0|1:0,0:0:0:0:
263,213,126290,1,0,0:0:0:0:
263,213,126371,1,0,0:0:0:0:
263,213,126452,2,0,P|260:153|255:119,1,65,0|0,1:0|3:0,0:0:0:0:
280,72,126777,1,0,1:0:0:0:
220,21,126939,2,0,P|165:37|79:56,1,130,0|0,1:0|1:0,0:0:0:0:
22,23,127425,1,2,1:0:0:0:
18,100,127587,1,0,0:0:0:0:
75,153,127750,6,0,P|85:219|99:300,1,130,2|0,1:0|1:0,0:0:0:0:
173,307,128236,2,0,P|183:242|193:178,1,130,0|0,1:0|1:0,0:0:0:0:
193,178,128642,1,0,0:0:0:0:
193,178,128723,2,0,P|243:197|267:200,1,65,0|0,1:0|1:0,0:0:0:0:
315,158,129047,5,6,1:0:0:0:
368,214,129209,1,0,1:0:0:0:
425,161,129371,2,0,P|411:214|405:249,1,65,0|0,1:0|0:0,0:0:0:0:
501,135,129696,5,0,1:0:0:0:
447,78,129858,1,8,1:0:0:0:
369,68,130020,1,8,1:0:0:0:
316,125,130182,1,0,1:0:0:0:
336,200,130344,6,0,P|322:253|316:288,1,65,0|0,1:0|0:0,0:0:0:0:
245,239,130669,2,0,P|231:292|225:327,1,65,0|0,1:0|0:0,0:0:0:0:
170,353,130993,2,0,B|105:357|142:273|76:272,1,130,0|0,1:0|1:0,0:0:0:0:
129,212,131479,1,0,1:0:0:0:
129,212,131560,1,0,0:0:0:0:
129,212,131642,2,0,P|115:159|109:124,1,65,4|0,1:0|0:0,0:0:0:0:
38,173,131967,2,0,P|24:120|18:85,1,65,0|0,1:0|0:0,0:0:0:0:
43,32,132290,2,0,B|105:53|113:4|159:74,1,130,6|0,1:0|1:0,0:0:0:0:
212,124,132777,1,0,1:0:0:0:
251,56,132939,6,0,P|290:63|306:40,1,65,6|0,1:0|0:0,0:0:0:0:
361,98,133263,2,0,P|354:137|377:153,1,65,2|0,1:0|0:0,0:0:0:0:
327,216,133587,2,0,P|288:209|272:232,1,65,2|0,1:0|0:0,0:0:0:0:
196,234,133912,2,0,P|189:273|212:289,1,65,2|0,1:0|0:0,0:0:0:0:
253,348,134236,5,6,1:0:0:0:
253,348,134398,1,2,1:0:0:0:
323,315,134560,1,2,1:0:0:0:
323,315,134723,1,0,1:0:0:0:
385,361,134885,1,0,1:0:0:0:
490,245,135209,2,0,P|485:194|475:109,1,130,0|4,1:0|0:1,0:0:0:0:
262,31,140723,5,4,3:1:0:0:
175,107,141047,1,8,0:0:0:0:
175,107,141209,1,0,1:0:0:0:
175,107,141371,2,0,P|183:159|185:173,1,48.750001859665,0|8,1:0|0:0,0:0:0:0:
136,219,141696,1,8,0:0:0:0:
136,219,141858,1,0,1:0:0:0:
196,266,142020,6,0,P|228:261|263:258,1,48.750001859665,4|0,3:1|0:0,0:0:0:0:
300,204,142344,2,0,P|324:206|348:210,1,48.750001859665,0|0,1:0|0:0,0:0:0:0:
396,269,142669,2,0,P|437:257|465:188,1,97.5,0|0,1:0|1:0,0:0:0:0:
436,186,142993,2,0,P|445:139|451:102,1,65,0|0,1:0|0:0,0:0:0:0:
399,61,143317,5,4,1:0:0:0:
399,61,143479,1,2,0:0:0:0:
333,103,143642,2,0,P|292:102|237:107,1,65,0|0,1:0|1:0,0:0:0:0:
210,50,143966,1,4,1:2:0:0:
210,50,144128,1,2,0:0:0:0:
151,102,144290,2,0,P|110:101|55:106,1,65,0|0,1:0|1:0,0:0:0:0:
66,177,144614,5,4,1:0:0:0:
140,200,144777,1,2,0:0:0:0:
211,168,144939,2,0,P|212:228|215:253,1,65,0|0,1:0|1:0,0:0:0:0:
288,251,145263,2,0,P|290:218|289:186,1,65,4|2,1:2|0:0,0:0:0:0:
344,130,145587,1,0,1:0:0:0:
418,153,145750,1,2,1:2:0:0:
426,230,145912,5,6,1:0:0:0:
220,352,146236,1,8,1:0:0:0:
59,199,146560,1,4,1:2:0:0:
265,77,146885,1,8,1:0:0:0:
460,237,147533,5,12,1:0:0:0:
212,383,147857,1,8,1:0:0:0:
19,200,148181,1,12,1:0:0:0:
256,192,148506,12,4,149804,0:0:0:0:
324,143,150290,5,0,0:0:0:0:
288,229,150452,2,0,P|222:231|123:178,1,155.999995239258,0|8,0:0|0:0,0:0:0:0:
47,185,150939,1,0,0:0:0:0:
84,99,151101,2,0,P|161:73|233:18,2,155.999995239258,0|8|0,0:0|0:0|0:0,0:0:0:0:
15,34,151912,1,2,0:2:0:0:
15,34,151993,1,0,0:0:0:0:
15,34,152074,2,0,P|8:80|1:117,1,77.999997619629,8|0,0:0|0:0,0:0:0:0:
51,190,152398,6,0,P|59:242|72:369,1,155.999995239258,4|8,0:2|0:0,0:0:0:0:
163,360,152885,1,0,0:0:0:0:
174,267,153047,1,0,0:0:0:0:
174,267,153209,1,2,0:2:0:0:
262,298,153371,2,0,P|257:225|253:193,1,77.999997619629,8|0,0:0|0:0,0:0:0:0:
330,162,153696,5,6,0:0:0:0:
330,162,153858,1,0,0:0:0:0:
363,249,154020,1,8,0:0:0:0:
363,249,154182,1,0,0:0:0:0:
452,222,154344,2,0,P|457:149|461:117,1,77.999997619629,10|0,0:0|0:0,0:0:0:0:
381,88,154669,1,10,0:0:0:0:
435,11,154831,1,8,0:0:0:0:
341,4,154993,6,0,P|292:13|187:57,1,155.999995239258,4|8,0:0|0:0,0:0:0:0:
150,135,155479,1,2,0:0:0:0:
150,135,155560,1,0,0:0:0:0:
150,135,155642,2,0,P|102:127|55:119,1,77.999997619629,2|0,0:0|0:0,0:0:0:0:
108,227,155966,2,0,P|156:219|203:211,1,77.999997619629,10|2,0:0|0:0,0:0:0:0:
184,214,156209,1,0,0:0:0:0:
184,214,156290,6,0,P|185:284|181:321,1,77.999997619629,2|0,0:0|0:0,0:0:0:0:
277,303,156614,2,0,P|275:264|276:225,1,77.999997619629,10|0,0:0|0:0,0:0:0:0:
247,135,156939,1,2,0:0:0:0:
247,135,157101,1,0,0:0:0:0:
332,97,157263,2,0,P|383:116|413:123,1,77.999997619629,8|0,0:0|0:0,0:0:0:0:
493,89,157587,6,0,P|484:152|480:253,1,155.999995239258,4|2,0:2|0:2,0:0:0:0:
386,255,158074,1,2,0:2:0:0:
351,341,158236,2,0,P|401:340|445:332,1,77.999997619629,4|2,0:2|0:2,0:0:0:0:
386,255,158560,2,0,P|336:254|292:246,1,77.999997619629,4|0,0:2|0:0,0:0:0:0:
244,318,158885,5,8,0:0:0:0:
95,204,159209,1,8,0:0:0:0:
240,87,159533,1,8,0:0:0:0:
383,207,159858,2,0,P|323:220|310:222,1,65,4|0,0:0|2:0,0:0:0:0:
259,266,160182,6,0,P|217:250|144:148,1,155.999995239258,4|8,1:0|0:0,0:0:0:0:
169,74,160669,1,0,0:0:0:0:
169,74,160750,1,0,0:0:0:0:
169,74,160831,2,0,P|122:77|76:80,1,77.999997619629,0|2,0:0|0:2,0:0:0:0:
0,63,161155,2,0,P|3:110|6:156,1,77.999997619629,8|0,0:0|0:0,0:0:0:0:
75,201,161479,5,0,0:0:0:0:
26,281,161642,1,2,0:2:0:0:
118,294,161804,1,8,0:0:0:0:
74,376,161966,1,0,0:0:0:0:
118,294,162128,2,0,P|176:290|285:275,1,155.999995239258,0|8,0:0|0:0,0:0:0:0:
354,232,162614,1,0,0:0:0:0:
397,315,162777,6,0,P|383:249|356:144,1,155.999995239258,4|8,0:2|0:0,0:0:0:0:
381,71,163263,1,0,0:0:0:0:
301,22,163425,2,0,P|251:33|204:42,1,77.999997619629,0|2,0:0|0:2,0:0:0:0:
197,128,163750,2,0,P|132:117|93:110,1,77.999997619629,8|0,0:0|0:0,0:0:0:0:
68,36,164074,5,6,0:0:0:0:
68,36,164236,1,0,0:0:0:0:
158,11,164398,1,8,0:0:0:0:
158,11,164560,1,0,0:0:0:0:
242,53,164723,2,0,P|288:70|323:79,1,77.999997619629,10|0,0:0|0:0,0:0:0:0:
408,62,165047,2,0,P|394:118|393:158,1,77.999997619629,10|8,0:0|0:0,0:0:0:0:
310,181,165371,6,0,P|335:233|341:361,1,155.999995239258,4|8,0:0|0:0,0:0:0:0:
256,359,165858,1,0,0:0:0:0:
256,359,165939,1,0,0:0:0:0:
256,359,166020,2,0,P|209:343|178:232,1,155.999995239258,2|8,0:0|0:0,0:0:0:0:
223,171,166506,5,2,0:0:0:0:
223,171,166587,1,0,0:0:0:0:
223,171,166669,2,0,P|166:163|127:154,1,77.999997619629,2|0,0:0|0:0,0:0:0:0:
88,85,166993,2,0,P|145:77|184:68,1,77.999997619629,10|0,0:0|0:0,0:0:0:0:
238,15,167317,2,0,P|283:24|404:39,1,155.999995239258,2|8,0:0|0:0,0:0:0:0:
482,11,167804,1,0,0:0:0:0:
477,104,167966,6,0,P|484:159|486:189,1,77.999997619629,4|0,0:2|0:0,0:0:0:0:
417,245,168290,2,0,P|410:300|408:330,1,77.999997619629,2|2,0:2|0:2,0:0:0:0:
491,365,168614,1,4,0:2:0:0:
491,365,168777,1,2,0:2:0:0:
501,272,168939,1,4,0:2:0:0:
501,272,169101,1,0,0:0:0:0:
417,229,169263,6,0,P|370:233|319:238,1,77.999997619629,10|0,0:0|0:0,0:0:0:0:
279,308,169587,2,0,P|210:295|180:286,1,77.999997619629,8|0,0:0|0:0,0:0:0:0:
158,210,169912,1,10,0:0:0:0:
69,240,170074,1,0,0:0:0:0:
91,149,170236,1,6,0:0:0:0:
2,178,170398,1,0,0:0:0:0:
91,149,170560,6,0,B|113:103|113:103|246:126,1,155.999995239258,4|8,1:0|0:0,0:0:0:0:
262,202,171047,1,0,0:0:0:0:
317,277,171209,2,0,B|420:294|420:294|442:248,1,155.999995239258,0|8,0:0|0:0,0:0:0:0:
487,168,171696,5,0,0:0:0:0:
487,168,171777,1,0,0:0:0:0:
487,168,171858,2,0,B|480:123|480:123|360:103,1,155.999995239258,0|8,0:0|0:0,0:0:0:0:
281,131,172344,1,0,0:0:0:0:
326,224,172506,2,0,L|161:191,1,155.999995239258,0|8,0:0|0:0,0:0:0:0:
116,118,172993,5,0,0:0:0:0:
116,118,173074,1,0,0:0:0:0:
116,118,173155,2,0,B|55:124|55:124|67:239,1,155.999995239258,4|8,0:2|0:0,0:0:0:0:
131,284,173642,1,0,0:0:0:0:
82,364,173804,2,0,B|96:327|96:327|79:286,1,77.999997619629,0|2,0:0|0:2,0:0:0:0:
180,355,174128,2,0,L|274:363,1,77.999997619629,8|0,0:0|0:0,0:0:0:0:
304,280,174452,5,6,0:0:0:0:
384,327,174614,1,0,0:0:0:0:
393,233,174777,1,10,0:0:0:0:
469,286,174939,1,0,0:0:0:0:
494,196,175101,6,0,B|474:159|474:159|501:115,1,77.999997619629,10|0,0:0|0:0,0:0:0:0:
380,87,175425,2,0,L|398:166,1,77.999997619629,10|8,0:0|0:0,0:0:0:0:
267,123,175750,6,0,B|307:160|307:160|273:287,1,155.999995239258,4|8,0:0|0:0,0:0:0:0:
193,225,176236,1,0,0:0:0:0:
155,139,176398,2,0,B|154:81|154:81|247:28,1,155.999995239258,2|8,0:0|0:0,0:0:0:0:
331,13,176885,5,2,0:0:0:0:
331,13,176966,1,0,0:0:0:0:
331,13,177047,2,0,B|355:39|355:39|326:177,1,155.999995239258,2|8,0:0|0:0,0:0:0:0:
253,111,177533,1,0,0:0:0:0:
237,21,177696,2,0,L|60:8,1,155.999995239258,2|8,0:0|0:0,0:0:0:0:
251,192,178344,5,4,0:2:0:0:
251,192,178993,1,4,0:2:0:0:
79,118,179317,1,4,0:2:0:0:
123,300,179642,1,10,0:0:0:0:
123,300,179804,1,0,0:0:0:0:
123,300,179966,1,8,0:0:0:0:
123,300,180128,1,0,0:0:0:0:
123,300,180290,1,10,0:0:0:0:
299,361,180614,2,0,P|349:350|381:341,1,77.999997619629,6|0,0:0|0:0,0:0:0:0:
249,295,180939,6,0,P|239:241|232:186,1,77.999997619629,4|0,1:0|0:0,0:0:0:0:
235,218,181182,1,2,0:0:0:0:
235,218,181263,2,0,P|245:164|252:109,1,77.999997619629,8|0,0:0|0:0,0:0:0:0:
224,50,181587,6,0,P|169:70|131:80,1,77.999997619629,6|0,0:0|0:0,0:0:0:0:
89,146,181912,2,0,P|51:134|15:120,1,77.999997619629,14|0,0:0|0:0,0:0:0:0:
46,32,182236,5,12,0:0:0:0:
139,38,182398,1,8,0:0:0:0:
195,112,182560,1,10,0:0:0:0:
172,203,182723,1,8,0:0:0:0:
88,244,182885,6,0,P|92:314|173:311,1,155.999995239258,6|6,0:0|1:2,0:0:0:0:
