osu file format v14

[General]
AudioFilename: audio.mp3
AudioLeadIn: 0
PreviewTime: 51128
Countdown: 0
SampleSet: Soft
StackLeniency: 0.7
Mode: 0
LetterboxInBreaks: 0
WidescreenStoryboard: 1

[Editor]
DistanceSpacing: 0.7
BeatDivisor: 4
GridSize: 8
TimelineZoom: 1.6

[Metadata]
Title:Kigurumi Sungeki
TitleUnicode:きぐるみ寸劇
Artist:Chikamori Kayako
ArtistUnicode:浮森かや子
Creator:Mirash
Version:Delis' Insane
Source:
Tags:-MikanMyMommy kogumax koguma cross kaine raja jounzan evilelvis natteke desu djulus delis shirohamymommy pop jpop j-pop japanese 幼蚕文庫 オッカ 99 Yousan Bunko
BeatmapID:2732132
BeatmapSetID:1312079

[Difficulty]
HPDrainRate:7
CircleSize:4
OverallDifficulty:7
ApproachRate:7
SliderMultiplier:1.8
SliderTickRate:1

[Events]
//Background and Video events
0,0,"notkigurumiXD.jpg",0,0
//Break Periods
2,13787,17877
2,66977,70742
//Storyboard Layer 0 (Background)
//Storyboard Layer 1 (Fail)
//Storyboard Layer 2 (Pass)
//Storyboard Layer 3 (Foreground)
//Storyboard Layer 4 (Overlay)
//Storyboard Sound Samples

[TimingPoints]
615,324.324324324324,4,2,1,50,1,0
13587,-100,4,2,1,60,0,0
17479,-100,4,2,1,70,0,0
18128,-100,4,2,1,80,0,0
18777,-100,4,2,1,50,0,0
29155,-100,4,2,2,60,0,0
38560,-100,4,2,1,60,0,0
38885,-100,4,2,1,70,0,0
39533,-133.333333333333,4,2,1,60,0,0
47317,-100,4,2,1,65,0,0
49912,-66.6666666666667,4,2,1,65,0,0
51209,-100,4,1,1,70,0,0
55101,-66.6666666666667,4,1,1,70,0,0
56398,-100,4,1,1,70,0,0
59642,-100,4,1,1,65,0,0
60939,-100,4,1,1,60,0,0
61263,-100,4,2,1,50,0,0
61587,-133.333333333333,4,2,1,40,0,0
64182,-100,4,2,1,50,0,0
65479,-100,4,2,1,60,0,0
66452,-100,4,2,1,50,0,0
66777,-100,4,2,1,55,0,0
70669,-100,4,2,1,65,0,0
71642,-66.6666666666667,4,2,1,65,0,0
71966,-66.6666666666667,4,2,1,55,0,0
72128,-100,4,2,1,55,0,0
75858,-100,4,2,1,70,0,0
77155,-100,4,2,1,50,0,0
87533,-100,4,2,2,60,0,0
97587,-133.333333333333,4,2,2,60,0,0
97912,-133.333333333333,4,2,1,60,0,0
105696,-100,4,2,1,60,0,0
106993,-100,4,2,1,65,0,0
108290,-100,4,2,1,70,0,0
109587,-100,4,1,1,70,0,0
118669,-100,4,1,1,65,0,0
118993,-100,4,1,1,60,0,0
119317,-100,4,1,1,50,0,0
119966,-133.333333333333,4,2,1,40,0,0
122560,-100,4,2,1,50,0,0
123209,-100,4,2,1,60,0,0
123858,-100,4,2,1,65,0,0
124831,-100,4,2,1,50,0,0
125155,-100,4,2,1,65,0,0
130993,-66.6666666666667,4,2,1,65,0,0
131642,-100,4,2,1,65,0,0
132290,-66.6666666666667,4,2,1,65,0,0
133912,-50,4,2,1,65,0,0
134236,-50,4,2,1,65,0,0
135209,-50,4,2,1,40,0,0
135533,-133.333333333333,4,2,1,40,0,0
135858,-133.333333333333,4,2,1,30,0,0
140723,-133.333333333333,4,2,1,40,0,0
142020,-100,4,2,1,40,0,0
143317,-100,4,2,1,50,0,0
144614,-100,4,2,1,55,0,0
145587,-100,4,2,1,60,0,0
145912,-100,4,2,1,70,0,0
147209,-100,4,2,1,80,0,0
148506,-100,4,2,1,50,0,0
149804,-100,4,1,1,70,0,0
153696,-66.6666666666667,4,1,1,70,0,0
154993,-100,4,1,1,70,0,0
160182,-66.6666666666667,4,1,1,70,0,0
169587,-50,4,1,1,70,0,0
169912,-40,4,1,1,70,0,0
170236,-33.3333333333333,4,1,1,70,0,0
170560,-50,4,1,1,80,0,0
180939,-66.6666666666667,4,1,1,80,0,0
182885,-66.6666666666667,4,1,1,60,0,0
183209,-66.6666666666667,4,1,1,50,0,0

[Colours]
Combo1 : 171,107,109
Combo2 : 72,126,130
Combo3 : 147,157,115
Combo4 : 176,89,143

[HitObjects]
104,48,615,6,0,L|88:152,1,90,0|0,1:0|0:0,0:0:0:0:
168,176,939,2,0,L|184:64,1,90,0|0,1:0|0:0,0:0:0:0:
264,112,1263,2,0,L|272:224,1,90,0|0,1:0|0:0,0:0:0:0:
256,224,1506,1,0,1:0:0:0:
240,240,1587,2,0,L|256:352,1,90,0|0,1:0|1:0,0:0:0:0:
272,320,1831,1,0,0:0:0:0:
296,312,1912,5,0,1:0:0:0:
376,360,2074,1,0,0:0:0:0:
368,272,2236,1,0,1:0:0:0:
448,312,2398,1,0,0:0:0:0:
440,224,2560,2,0,B|416:184|432:112,1,90,0|2,1:0|0:1,0:0:0:0:
272,32,2885,2,0,B|296:80|280:144,1,90,0|2,1:0|0:1,0:0:0:0:
192,320,3209,6,0,B|104:264|160:128,1,180,0|0,1:0|3:0,0:0:0:0:
232,136,3696,1,0,0:0:0:0:
296,200,3858,2,0,B|328:168|320:104,1,90,0|0,1:0|0:0,0:0:0:0:
272,40,4182,1,0,3:0:0:0:
184,64,4344,5,0,1:0:0:0:
184,64,4425,1,0,0:0:0:0:
184,64,4506,2,0,B|88:88,1,90,0|0,1:0|0:0,0:0:0:0:
16,48,4831,1,0,3:0:0:0:
24,136,4993,2,0,B|80:216|32:320,1,180,0|0,1:0|0:0,0:0:0:0:
37,307,5479,1,0,3:0:0:0:
120,280,5642,1,0,1:0:0:0:
208,248,5804,6,0,L|320:272,1,90,2|2,1:2|0:0,0:0:0:0:
304,136,6128,2,0,L|192:112,1,90,0|0,3:0|0:0,0:0:0:0:
360,192,6452,2,0,L|376:288,1,90,2|2,1:2|0:0,0:0:0:0:
152,192,6777,2,0,L|136:96,1,90,0|2,3:0|1:2,0:0:0:0:
256,192,7101,5,4,1:0:0:0:
256,192,7263,1,0,0:0:0:0:
256,192,7425,1,0,0:0:0:0:
256,192,7587,2,0,L|240:296,1,90,0|8,0:0|3:0,0:0:0:0:
184,336,7912,5,4,3:0:0:0:
320,320,8074,1,4,3:3:0:0:
184,336,8236,1,4,1:3:0:0:
320,320,8398,2,0,B|352:280|336:224,1,90,0|0,1:0|0:0,0:0:0:0:
320,152,8723,1,0,3:0:0:0:
192,64,8885,2,0,B|168:104|176:160,1,90,0|0,1:0|0:0,0:0:0:0:
232,304,9209,1,0,1:0:0:0:
232,304,9290,1,0,0:0:0:0:
232,304,9371,2,0,B|256:264|248:208,1,90,0|0,3:0|0:0,0:0:0:0:
320,64,9696,5,2,3:2:0:0:
256,128,9858,1,0,1:0:0:0:
320,192,10020,1,2,3:2:0:0:
328,280,10182,2,0,B|336:328|312:368,1,90,0|2,1:0|0:0,0:0:0:0:
232,344,10506,1,0,1:0:0:0:
144,320,10669,1,2,3:2:0:0:
48,336,10831,1,0,0:0:0:0:
80,256,10993,6,0,L|56:152,1,90,2|0,1:3|0:0,0:0:0:0:
152,192,11317,2,0,L|128:88,1,90,4|0,3:0|0:0,0:0:0:0:
200,48,11642,2,0,L|304:72,1,90,4|0,0:0|0:0,0:0:0:0:
224,136,11966,2,0,L|328:160,1,90,8|0,3:0|0:0,0:0:0:0:
400,176,12290,1,4,1:0:0:0:
488,152,12452,1,0,0:0:0:0:
464,64,12614,1,4,1:3:0:0:
376,88,12777,1,0,0:0:0:0:
400,176,12939,5,4,0:0:0:0:
184,336,13263,1,4,0:0:0:0:
104,88,13587,1,4,1:0:0:0:
56,320,18777,6,0,L|272:304,1,180,4|0,1:0|3:0,0:0:0:0:
320,344,19263,2,0,B|376:264|328:168,1,180,0|0,1:0|1:0,0:0:0:0:
256,128,19750,1,0,3:0:0:0:
256,216,19912,1,0,1:0:0:0:
176,168,20074,6,0,L|152:256,1,90,0|0,1:0|0:0,0:0:0:0:
152,254,20398,1,0,3:0:0:0:
80,208,20560,2,0,L|104:120,1,90,0|0,1:0|0:0,0:0:0:0:
168,56,20885,1,0,0:0:0:0:
256,64,21047,1,2,3:2:0:0:
344,72,21209,1,0,1:0:0:0:
400,136,21371,6,0,B|416:184|408:232,1,90,2|0,1:2|1:0,0:0:0:0:
328,264,21696,2,0,B|312:216|320:168,1,90,0|0,3:0|1:0,0:0:0:0:
272,328,22020,2,0,L|168:344,1,90,4|0,1:2|1:0,0:0:0:0:
128,272,22344,2,0,L|224:256,1,90,0|0,3:0|1:0,0:0:0:0:
184,168,22669,5,4,1:0:0:0:
96,184,22831,1,2,0:0:0:0:
80,96,22993,1,0,3:0:0:0:
168,80,23155,1,4,0:0:0:0:
184,168,23317,5,8,3:0:0:0:
272,152,23479,1,4,3:0:0:0:
360,136,23642,1,4,3:0:0:0:
448,120,23804,1,4,1:3:0:0:
360,136,23966,6,0,B|344:184|376:232,2,90,0|0|0,1:0|0:0|3:0,0:0:0:0:
448,120,24452,2,0,B|504:208|456:312,1,180,0|0,1:0|1:0,0:0:0:0:
384,328,24939,1,0,3:0:0:0:
296,312,25101,1,0,1:0:0:0:
240,240,25263,6,0,L|272:128,1,90,2|0,1:2|0:0,0:0:0:0:
192,112,25587,1,2,3:2:0:0:
192,112,25750,2,0,L|139:296,1,180,0|0,0:0|0:0,0:0:0:0:
56,312,26236,1,2,3:2:0:0:
72,224,26398,1,0,0:0:0:0:
142,284,26560,6,0,L|254:268,1,90,2|0,1:2|0:0,0:0:0:0:
320,256,26885,1,0,3:0:0:0:
408,240,27047,1,0,0:0:0:0:
480,304,27209,5,2,1:2:0:0:
448,168,27371,1,0,0:0:0:0:
480,304,27533,1,4,3:2:0:0:
448,168,27696,1,0,0:0:0:0:
368,120,27858,6,0,B|344:160|360:208,1,90,0|0,1:0|0:0,0:0:0:0:
376,224,28101,1,0,1:0:0:0:
392,240,28182,1,0,3:0:0:0:
336,312,28344,1,0,1:0:0:0:
280,240,28506,1,8,3:0:0:0:
256,328,28669,5,4,3:0:0:0:
120,304,28831,1,4,1:0:0:0:
144,168,28993,1,0,0:0:0:0:
280,192,29155,2,0,B|360:248|464:216,1,180,4|0,1:0|3:0,0:0:0:0:
464,136,29642,2,0,B|384:80|280:112,1,180,2|2,1:3|1:3,0:0:0:0:
292,108,30047,1,0,0:0:0:0:
292,108,30128,1,0,3:0:0:0:
208,136,30290,2,0,B|152:144|112:104,1,90,2|0,0:3|1:0,0:0:0:0:
72,48,30614,5,2,1:3:0:0:
40,128,30777,1,0,3:0:0:0:
88,200,30939,2,0,B|72:304,1,90,2|0,1:3|0:0,0:0:0:0:
144,352,31263,1,2,1:3:0:0:
224,304,31425,1,2,3:1:0:0:
240,320,31506,1,0,0:0:0:0:
264,320,31587,1,0,1:3:0:0:
280,336,31669,1,0,0:0:0:0:
304,336,31750,2,0,B|352:344|400:320,1,90,2|0,1:0|1:3,0:0:0:0:
440,248,32074,5,2,3:1:0:0:
424,160,32236,1,0,1:3:0:0:
352,216,32398,2,0,L|320:112,1,90,4|2,1:2|1:2,0:0:0:0:
325,129,32642,1,0,0:0:0:0:
325,129,32723,1,0,3:0:0:0:
256,192,32885,1,2,1:2:0:0:
168,176,33047,6,0,L|200:264,1,90,4|0,1:0|0:3,0:0:0:0:
256,192,33371,1,0,3:0:0:0:
280,280,33533,1,4,0:3:0:0:
208,336,33696,5,8,3:0:0:0:
256,192,33858,1,4,3:3:0:0:
392,136,34020,1,4,3:0:0:0:
512,224,34182,1,4,1:3:0:0:
480,304,34344,6,0,B|424:216|488:128,1,180,0|0,1:0|3:0,0:0:0:0:
368,264,34831,2,0,B|392:312|376:360,1,90,2|0,1:3|0:0,0:0:0:0:
296,320,35155,1,2,1:0:0:0:
296,320,35236,1,0,0:0:0:0:
296,320,35317,2,0,B|272:272|288:224,1,90,0|2,3:0|1:0,0:0:0:0:
328,160,35642,5,6,1:2:0:0:
216,64,35804,2,0,B|240:112|216:176,1,90,0|2,0:0|3:2,0:0:0:0:
112,296,36128,2,0,B|40:224|104:112,1,180,2|2,1:0|1:0,0:0:0:0:
160,192,36614,1,0,3:1:0:0:
200,272,36777,1,2,1:0:0:0:
288,264,36939,6,0,L|392:288,1,90,6|0,1:0|0:0,0:0:0:0:
328,160,37263,2,0,L|352:56,1,90,0|0,3:0|0:0,0:0:0:0:
224,120,37587,2,0,L|120:96,1,90,6|0,1:2|0:0,0:0:0:0:
184,224,37911,2,0,L|160:328,1,90,4|0,3:2|0:0,0:0:0:0:
256,192,38236,12,4,39209,1:0:0:0:
256,192,39371,5,2,0:0:0:0:
176,152,39533,2,0,B|104:184|112:128|24:160,1,135.000005149842,2|0,1:2|1:0,0:0:0:0:
168,48,40182,2,0,B|240:16|232:72|320:40,1,135.000005149842,2|0,1:2|1:0,0:0:0:0:
464,64,40831,5,4,1:2:0:0:
448,104,40993,1,0,1:2:0:0:
464,144,41155,1,2,1:2:0:0:
456,184,41317,1,0,0:0:0:0:
464,224,41479,1,2,1:2:0:0:
480,352,41804,1,0,1:0:0:0:
368,288,42128,6,0,B|336:360|216:344|208:264,1,202.500007724762,4|0,1:0|1:0,0:0:0:0:
216,192,42777,2,0,B|248:120|368:136|376:216,1,202.500007724762,0|0,1:0|1:0,0:0:0:0:
296,240,43425,1,4,1:0:0:0:
296,240,43750,1,0,3:0:0:0:
296,240,44074,1,0,3:0:0:0:
48,48,44560,5,0,3:0:0:0:
48,128,44723,2,0,B|24:200|48:288,1,135.000005149842,4|0,1:0|1:0,0:0:0:0:
200,344,45371,2,0,B|224:272|200:184,1,135.000005149842,2|0,1:2|1:0,0:0:0:0:
208,64,46020,5,4,1:2:0:0:
248,48,46182,1,2,0:0:0:0:
264,88,46344,1,0,1:0:0:0:
240,120,46506,1,0,1:0:0:0:
200,104,46669,1,4,1:2:0:0:
344,64,46993,1,4,1:2:0:0:
424,168,47317,6,0,B|424:216|416:272,1,90,4|0,1:0|1:0,0:0:0:0:
88,216,47642,2,0,B|88:168|96:112,1,90,0|0,3:0|1:0,0:0:0:0:
336,280,47966,6,0,B|288:280|232:272,1,90,4|0,1:2|1:0,0:0:0:0:
176,104,48290,2,0,B|224:104|280:112,1,90,0|0,3:0|1:0,0:0:0:0:
344,112,48614,6,0,B|344:160|336:216,1,90,4|0,1:0|1:0,0:0:0:0:
168,272,48939,2,0,B|168:224|176:168,1,90,0|0,3:0|1:0,0:0:0:0:
337,201,49263,5,6,1:2:0:0:
246,273,49425,1,0,1:0:0:0:
174,182,49587,1,0,3:0:0:0:
265,110,49750,1,0,1:0:0:0:
256,192,49912,6,0,L|234:327,1,135.000005149842,4|0,1:0|0:0,0:0:0:0:
184,152,50236,6,0,L|160:296,1,135.000005149842,4|0,1:0|1:0,0:0:0:0:
112,88,50560,6,0,L|88:232,1,135.000005149842,4|0,1:0|1:0,0:0:0:0:
40,40,50885,6,0,L|16:192,1,135.000005149842,4|0,1:0|1:0,0:0:0:0:
224,56,51209,6,0,B|328:32|392:120,1,180,4|8,1:0|0:0,0:0:0:0:
432,264,51696,1,0,0:0:0:0:
432,264,51777,1,0,0:0:0:0:
432,264,51858,2,0,B|328:288|264:200,1,180,0|8,0:0|0:0,0:0:0:0:
240,128,52344,1,0,0:0:0:0:
176,344,52506,6,0,B|224:248|152:152,2,180,0|8|0,0:0|0:0|0:0,0:0:0:0:
240,288,53317,1,2,0:2:0:0:
96,352,53479,2,0,L|72:224,1,90,8|0,0:0|0:0,0:0:0:0:
32,192,53804,6,0,B|8:80|96:24,1,180,4|8,0:2|0:0,0:0:0:0:
128,112,54290,1,0,0:0:0:0:
128,112,54452,2,0,L|232:88,1,90,0|2,0:0|0:2,0:0:0:0:
296,128,54777,1,8,0:0:0:0:
376,160,54939,1,0,0:0:0:0:
480,48,55101,6,0,L|336:80,1,135.000005149842,4|0,0:2|0:0,0:0:0:0:
456,160,55425,6,0,L|488:304,1,135.000005149842,8|0,0:0|0:0,0:0:0:0:
320,168,55750,6,0,L|176:192,1,135.000005149842,8|0,0:0|0:0,0:0:0:0:
368,240,56074,6,0,L|392:384,1,135.000005149842,8|8,0:0|0:0,0:0:0:0:
184,288,56398,6,0,B|80:248|16:336,1,180,4|8,0:0|0:0,0:0:0:0:
24,224,56885,1,0,0:0:0:0:
24,224,56966,1,2,0:0:0:0:
24,224,57047,2,0,B|104:160|56:48,1,180,2|8,0:0|0:0,0:0:0:0:
120,128,57533,1,2,0:0:0:0:
200,160,57696,2,0,B|256:168|296:120,1,90,2|0,0:0|0:0,0:0:0:0:
488,88,58020,2,0,B|384:72|344:192,1,180,10|2,0:0|0:0,0:0:0:0:
384,264,58506,1,0,0:0:0:0:
472,248,58669,2,0,B|512:216|496:144,1,90,10|2,0:0|0:0,0:0:0:0:
304,80,58993,6,0,B|232:0|120:40,1,180,4|2,0:2|0:2,0:0:0:0:
272,160,59479,1,2,0:2:0:0:
360,152,59642,2,0,B|392:120|384:56,2,90,4|2|4,0:2|0:2|0:2,0:0:0:0:
272,160,60128,1,0,0:0:0:0:
208,224,60290,2,0,B|176:256|184:320,1,90,8|0,0:0|0:0,0:0:0:0:
56,176,60614,2,0,B|112:184|152:144,1,90,8|0,0:0|0:0,0:0:0:0:
80,328,60939,2,0,B|64:280|8:264,1,90,8|0,0:0|0:0,0:0:0:0:
18,267,61263,1,4,0:0:0:0:
288,304,61587,6,0,B|400:304|504:296,1,202.500007724762,4|0,1:0|0:0,0:0:0:0:
490,297,62155,1,0,0:0:0:0:
490,297,62236,1,0,1:0:0:0:
504,48,62560,1,0,0:0:0:0:
504,48,62723,1,0,0:0:0:0:
424,72,62885,6,0,B|336:48|208:72,1,202.500007724762,4|0,1:0|0:0,0:0:0:0:
144,40,63533,1,0,1:0:0:0:
32,256,63858,5,4,0:0:0:0:
32,256,64182,2,0,B|8:216|16:160,1,90,4|0,1:2|0:0,0:0:0:0:
104,192,64506,2,0,L|200:208,1,90,4|0,1:0|0:0,0:0:0:0:
280,200,64831,2,0,B|336:184|368:96|296:40,1,180,0|8,1:0|1:0,0:0:0:0:
256,120,65317,1,8,1:0:0:0:
416,64,65479,6,0,L|512:80,1,90,4|0,1:0|1:0,0:0:0:0:
416,144,65804,2,0,L|520:168,1,90,12|8,1:0|0:1,0:0:0:0:
400,224,66128,2,0,L|504:272,1,90,4|0,1:0|0:0,0:0:0:0:
416,320,66452,1,4,0:0:0:0:
256,192,66777,1,0,1:0:0:0:
192,368,71642,6,0,B|256:328|256:256|256:256|256:328|320:368,1,270.000010299683,10|0,1:0|1:0,0:0:0:0:
400,344,72128,6,0,B|456:256|400:168,1,180,0|2,0:0|0:0,0:0:0:0:
336,120,72614,1,0,1:0:0:0:
248,88,72777,2,0,L|240:24,2,45,2|2|2,0:0|0:3|1:3,0:0:0:0:
176,136,73101,1,0,1:3:0:0:
88,152,73263,6,0,B|64:112|72:56,1,90,0|0,1:0|0:0,0:0:0:0:
256,168,73587,2,0,B|280:208|272:264,1,90,0|0,1:0|0:0,0:0:0:0:
232,336,73912,1,0,1:0:0:0:
144,312,74074,1,2,0:0:0:0:
56,336,74236,2,0,L|80:232,1,90,0|0,1:0|1:0,0:0:0:0:
48,160,74560,5,2,1:0:0:0:
112,96,74723,2,0,L|128:24,2,45,2|2|0,0:0|0:0|1:0,0:0:0:0:
160,176,75047,1,2,0:0:0:0:
160,176,75128,1,2,0:0:0:0:
160,176,75209,1,4,1:0:0:0:
240,224,75371,2,0,L|256:288,2,45,2|2|0,0:0|0:0|1:0,0:0:0:0:
312,160,75696,5,2,0:0:0:0:
312,160,75777,1,2,0:0:0:0:
312,160,75858,2,0,B|352:176|408:184,1,90,6|0,1:0|1:0,0:0:0:0:
288,248,76182,2,0,B|272:288|264:344,1,90,8|0,1:0|1:0,0:0:0:0:
200,224,76506,2,0,B|160:208|104:200,1,90,4|8,1:0|1:0,0:0:0:0:
224,136,76830,2,0,B|240:96|248:40,1,90,12|0,1:0|1:0,0:0:0:0:
336,72,77155,6,0,B|432:96|536:112,1,180,4|0,1:0|3:0,0:0:0:0:
504,200,77642,2,0,B|456:192|400:176,1,90,0|0,1:0|0:0,0:0:0:0:
328,160,77966,1,0,1:0:0:0:
304,248,78128,2,0,B|352:256|408:272,1,90,0|0,3:0|1:0,0:0:0:0:
480,288,78452,5,4,1:2:0:0:
416,352,78614,1,0,0:0:0:0:
328,368,78777,1,0,3:0:0:0:
240,360,78939,2,0,B|208:328|216:272,1,90,0|0,1:0|0:0,0:0:0:0:
288,224,79263,5,0,0:0:0:0:
240,144,79425,1,2,3:2:0:0:
168,200,79587,1,0,1:0:0:0:
215,276,79750,2,0,B|256:304|312:304,1,90,2|0,1:2|1:0,0:0:0:0:
368,248,80074,5,0,3:0:0:0:
456,224,80236,1,0,1:0:0:0:
432,136,80398,2,0,L|448:40,1,90,4|0,1:2|1:0,0:0:0:0:
344,152,80723,5,0,3:0:0:0:
256,128,80885,1,0,1:0:0:0:
168,104,81047,2,0,B|120:120|64:112,1,90,4|2,1:0|0:0,0:0:0:0:
8,56,81371,2,0,B|72:136|24:240,1,180,0|8,3:0|3:0,0:0:0:0:
128,336,81858,1,4,3:0:0:0:
112,192,82020,1,4,3:0:0:0:
200,304,82182,1,4,1:3:0:0:
184,160,82344,6,0,B|288:208|352:96,1,180,0|0,1:0|3:0,0:0:0:0:
408,48,82831,2,0,B|440:88|424:152,1,90,0|0,1:0|0:0,0:0:0:0:
384,208,83155,1,0,1:0:0:0:
440,280,83317,1,0,3:0:0:0:
384,208,83479,1,0,1:0:0:0:
296,224,83642,2,0,B|192:256|104:192,1,180,2|2,1:2|3:2,0:0:0:0:
16,48,84128,2,0,B|120:16|208:80,1,180,0|0,1:0|1:0,0:0:0:0:
208,80,84533,1,0,0:0:0:0:
224,96,84614,1,2,3:2:0:0:
304,56,84777,1,0,0:0:0:0:
392,40,84939,6,0,L|352:136,1,90,2|0,1:2|0:0,0:0:0:0:
400,296,85263,2,0,L|440:200,1,90,0|0,3:0|0:0,0:0:0:0:
472,136,85587,1,2,1:2:0:0:
472,136,85750,1,0,0:0:0:0:
264,96,85912,2,0,L|296:200,1,90,4|0,3:2|0:0,0:0:0:0:
272,272,86236,5,0,1:0:0:0:
144,184,86398,1,0,0:0:0:0:
144,184,86479,1,0,1:0:0:0:
144,184,86560,1,0,3:0:0:0:
136,336,86723,1,0,1:0:0:0:
216,216,86885,1,8,3:0:0:0:
136,264,87047,2,0,B|80:264|48:216,2,90,4|4|0,3:0|1:0|0:0,0:0:0:0:
192,104,87533,6,0,B|256:24|368:72,1,180,4|0,1:0|3:0,0:0:0:0:
320,152,88020,2,0,B|352:272|280:224|296:328,1,180,2|2,1:3|1:3,0:0:0:0:
304,344,88425,1,0,0:0:0:0:
320,360,88506,1,0,3:0:0:0:
408,336,88669,1,2,1:3:0:0:
448,256,88831,2,0,B|432:208|440:152,2,90,0|2|0,1:0|0:3|3:0,0:0:0:0:
360,248,89317,2,0,B|264:216|176:272,1,180,2|2,1:3|1:3,0:0:0:0:
120,328,89804,1,2,3:1:0:0:
120,328,89966,1,0,1:3:0:0:
48,280,90128,6,0,L|32:184,1,90,2|0,1:0|1:3,0:0:0:0:
32,104,90452,1,2,3:1:0:0:
120,128,90614,1,0,1:3:0:0:
152,40,90777,2,0,B|192:16|248:32,1,90,4|2,1:2|1:2,0:0:0:0:
256,40,91020,1,0,0:0:0:0:
272,56,91101,1,0,3:0:0:0:
360,40,91263,1,2,1:2:0:0:
336,128,91425,5,4,1:0:0:0:
432,208,91587,1,0,0:3:0:0:
352,304,91750,1,0,3:0:0:0:
256,224,91912,1,4,0:3:0:0:
168,136,92074,5,8,3:0:0:0:
80,224,92236,1,4,3:3:0:0:
168,312,92399,1,4,3:0:0:0:
256,224,92561,1,4,1:3:0:0:
336,128,92723,6,0,B|288:32|160:64,1,180,0|0,1:0|3:0,0:0:0:0:
96,40,93209,1,2,1:3:0:0:
120,128,93371,1,0,0:0:0:0:
208,160,93533,1,2,1:0:0:0:
152,232,93696,2,0,B|128:272|136:328,1,90,0|2,3:0|1:0,0:0:0:0:
296,288,94020,5,6,1:2:0:0:
376,248,94182,2,0,B|424:224|472:240,1,90,0|2,0:0|3:2,0:0:0:0:
504,88,94506,2,0,B|424:160|320:104,1,180,2|2,1:0|1:0,0:0:0:0:
320,96,94912,1,0,0:0:0:0:
312,80,94993,1,0,3:1:0:0:
280,160,95155,1,2,1:0:0:0:
240,32,95317,6,0,L|208:136,1,90,6|0,1:0|0:0,0:0:0:0:
136,168,95642,1,0,3:0:0:0:
184,248,95804,1,0,1:0:0:0:
112,304,95966,1,6,1:2:0:0:
168,368,96128,2,0,L|272:344,1,90,0|4,0:0|3:2,0:0:0:0:
320,280,96452,5,0,1:0:0:0:
320,280,96533,1,0,0:0:0:0:
320,280,96614,2,0,L|424:304,1,90,4|0,1:0|0:0,0:0:0:0:
480,248,96939,1,4,3:2:0:0:
504,112,97101,1,0,0:0:0:0:
384,40,97263,1,4,3:1:0:0:
104,176,97587,5,4,1:0:0:0:
144,192,97750,1,2,0:0:0:0:
184,184,97912,2,0,B|272:152|288:240|384:192,1,202.500007724762,2|0,1:2|1:0,0:0:0:0:
448,240,98560,2,0,B|472:168|432:96,1,135.000005149842,2|0,1:2|1:0,0:0:0:0:
288,40,99209,5,4,1:2:0:0:
232,48,99371,1,0,1:2:0:0:
240,104,99533,1,2,1:2:0:0:
296,96,99696,1,0,0:0:0:0:
288,40,99858,5,2,1:2:0:0:
112,64,100182,1,0,1:0:0:0:
152,240,100506,2,0,B|232:256|296:208,1,135.000005149842,4|0,1:0|3:0,0:0:0:0:
320,144,100993,1,0,1:0:0:0:
320,144,101155,2,0,B|240:128|176:176,1,135.000005149842,0|0,1:0|3:0,0:0:0:0:
56,120,101804,6,0,L|24:192,1,67.5000025749208,4|0,1:0|0:0,0:0:0:0:
72,176,102128,2,0,L|80:264,1,67.5000025749208,0|0,3:0|1:0,0:0:0:0:
112,208,102452,2,0,L|144:272,1,67.5000025749208,0|0,3:0|1:0,0:0:0:0:
216,312,102777,5,0,1:0:0:0:
216,312,102939,1,0,3:0:0:0:
216,312,103101,2,0,B|280:272|360:288,1,135.000005149842,4|0,1:0|1:0,0:0:0:0:
480,160,103750,2,0,B|416:200|336:184,1,135.000005149842,2|0,1:2|1:0,0:0:0:0:
256,64,104398,5,4,1:2:0:0:
224,96,104560,1,2,0:0:0:0:
208,56,104723,1,0,1:0:0:0:
168,80,104885,1,0,1:0:0:0:
136,48,105047,1,4,1:2:0:0:
40,192,105371,1,4,1:2:0:0:
104,336,105696,6,0,B|152:336|200:328,1,90,4|0,1:0|1:0,0:0:0:0:
144,256,106020,2,0,B|192:256|240:248,1,90,0|0,3:0|1:0,0:0:0:0:
400,328,106344,6,0,B|400:280|392:232,1,90,4|0,1:2|1:0,0:0:0:0:
320,288,106668,2,0,B|320:240|312:192,1,90,0|0,3:0|1:0,0:0:0:0:
408,40,106993,6,0,B|360:40|312:48,1,90,4|0,1:0|1:0,0:0:0:0:
368,120,107317,2,0,B|320:120|272:128,1,90,0|0,3:0|1:0,0:0:0:0:
112,48,107642,6,0,B|112:96|120:144,1,90,6|0,1:2|1:0,0:0:0:0:
192,88,107966,2,0,B|192:136|200:184,1,90,0|0,3:0|1:0,0:0:0:0:
120,304,108290,5,4,1:0:0:0:
376,336,108614,1,4,1:0:0:0:
400,80,108939,1,4,1:0:0:0:
144,48,109263,1,4,1:0:0:0:
304,272,109587,6,0,L|488:232,1,180,4|8,1:0|0:0,0:0:0:0:
304,168,110074,1,0,0:0:0:0:
304,168,110155,1,0,0:0:0:0:
304,168,110236,2,0,B|408:192|480:112,1,180,0|8,0:0|0:0,0:0:0:0:
384,80,110723,1,0,0:0:0:0:
176,144,110885,6,0,B|104:216|152:320,2,180,0|8|0,0:0|0:0|0:0,0:0:0:0:
216,224,111696,1,2,0:2:0:0:
368,208,111858,1,8,0:0:0:0:
216,224,112020,1,0,0:0:0:0:
368,208,112182,2,0,B|408:112|336:24,1,180,4|8,0:2|0:0,0:0:0:0:
304,112,112669,1,0,0:0:0:0:
248,40,112831,2,0,L|144:56,1,90,0|2,0:0|0:2,0:0:0:0:
200,120,113155,2,0,L|104:184,1,90,8|0,0:0|0:0,0:0:0:0:
224,216,113479,5,4,0:2:0:0:
144,336,113642,1,0,0:0:0:0:
224,216,113804,1,8,0:0:0:0:
232,352,113966,1,0,0:0:0:0:
224,216,114128,1,8,0:0:0:0:
312,328,114290,1,0,0:0:0:0:
224,216,114452,1,8,0:0:0:0:
360,256,114614,1,8,0:0:0:0:
328,176,114777,6,0,B|280:80|168:112,1,180,4|8,0:0|0:0,0:0:0:0:
384,112,115263,1,0,0:0:0:0:
384,112,115344,1,0,0:0:0:0:
384,112,115425,2,0,B|496:144|536:40,1,180,2|8,0:0|0:0,0:0:0:0:
416,208,115912,1,2,0:0:0:0:
416,208,116074,2,0,B|328:272|376:384,2,180,2|10|2,0:0|0:0|0:0,0:0:0:0:
440,296,116885,1,0,0:0:0:0:
304,232,117047,2,0,L|208:248,1,90,10|2,0:0|0:0,0:0:0:0:
264,112,117371,6,0,B|160:120|96:48,1,180,4|2,0:2|0:2,0:0:0:0:
336,160,117858,1,2,0:2:0:0:
424,136,118020,2,0,B|448:96|456:40,1,90,4|2,0:2|0:2,0:0:0:0:
448,264,118344,2,0,B|424:304|416:360,1,90,4|0,0:2|0:0,0:0:0:0:
352,288,118669,5,8,0:0:0:0:
232,328,118831,1,0,0:0:0:0:
264,224,118993,1,8,0:0:0:0:
296,120,119155,1,0,0:0:0:0:
176,160,119317,5,8,0:0:0:0:
352,200,119642,1,4,0:0:0:0:
232,328,119966,2,0,B|120:360|32:272,1,202.500007724762,4|0,1:0|0:0,0:0:0:0:
72,256,120614,2,0,B|96:184|40:128,1,135.000005149842,0|0,1:0|0:0,0:0:0:0:
160,40,121263,5,4,1:0:0:0:
360,96,121587,1,0,0:0:0:0:
392,296,121912,1,0,1:0:0:0:
192,240,122236,1,4,0:0:0:0:
448,216,122560,6,0,B|488:160|464:64,1,135,4|0,1:2|0:0,0:0:0:0:
440,112,122885,2,0,L|336:136,1,90,4|2,1:0|0:0,0:0:0:0:
208,224,123209,1,0,1:0:0:0:
304,120,123371,1,0,1:0:0:0:
208,144,123533,1,8,1:0:0:0:
288,248,123696,1,8,1:0:0:0:
376,232,123858,6,0,L|488:240,1,90,4|0,1:0|1:0,0:0:0:0:
136,152,124182,2,0,L|24:144,1,90,12|8,1:0|0:1,0:0:0:0:
256,192,124506,5,4,1:0:0:0:
256,192,124831,1,4,0:0:0:0:
256,192,125155,2,0,B|280:232|272:288,1,90,4|0,1:0|0:0,0:0:0:0:
192,248,125479,2,0,B|168:296|112:312,1,90,0|0,1:0|0:0,0:0:0:0:
273,278,125804,2,0,B|328:272|368:320,1,90,0|0,1:0|0:0,0:0:0:0:
368,320,126047,1,0,3:0:0:0:
384,336,126128,2,0,L|480:304,1,90,0|0,1:0|0:0,0:0:0:0:
456,296,126371,1,0,0:0:0:0:
440,280,126452,1,0,1:0:0:0:
472,200,126614,5,0,3:0:0:0:
432,120,126777,1,0,1:0:0:0:
480,48,126939,2,0,L|280:40,1,180,0|0,1:0|1:0,0:0:0:0:
224,88,127425,1,2,1:0:0:0:
136,72,127587,1,0,0:0:0:0:
56,112,127750,6,0,B|24:200|48:296,1,180,2|0,1:0|1:0,0:0:0:0:
136,296,128236,2,0,L|128:184,1,90,0|0,1:0|0:0,0:0:0:0:
216,208,128560,1,0,1:0:0:0:
208,296,128723,2,0,L|320:288,1,90,0|0,1:0|1:0,0:0:0:0:
376,336,129047,5,6,1:0:0:0:
344,192,129209,1,0,1:0:0:0:
376,336,129371,1,0,1:0:0:0:
480,56,129696,5,0,1:0:0:0:
352,88,129858,1,8,1:0:0:0:
216,64,130020,1,8,1:0:0:0:
80,80,130182,1,0,1:0:0:0:
200,144,130344,5,0,1:0:0:0:
432,120,130669,1,0,1:0:0:0:
152,280,130993,6,0,B|128:304|24:256|136:80|224:240|24:296,1,270.000010299683,0|0,1:0|1:0,0:0:0:0:
56,112,131479,5,0,1:0:0:0:
56,112,131560,1,0,0:0:0:0:
56,112,131642,2,0,B|96:88|160:104,1,90,4|0,1:0|0:0,0:0:0:0:
216,48,131966,2,0,B|264:64|320:40,1,90,0|0,1:0|0:0,0:0:0:0:
304,224,132290,6,0,B|256:240|208:208|256:136|280:184,1,135.000005149842,6|0,1:0|0:0,0:0:0:0:
368,168,132614,1,0,1:0:0:0:
392,248,132777,1,0,1:0:0:0:
216,344,132939,6,0,B|152:232|144:376,1,135.000005149842,6|0,1:0|0:0,0:0:0:0:
16,240,133263,6,0,B|80:128|88:272,1,135.000005149842,2|0,1:0|0:0,0:0:0:0:
232,176,133587,6,0,B|168:64|160:208,1,135.000005149842,2|0,1:0|0:0,0:0:0:0:
32,112,133912,6,0,B|96:64|48:0|-16:64|112:120|152:48,1,180,2|0,1:0|0:0,0:0:0:0:
232,48,134236,6,0,B|344:8|440:80|457:175|240:320|192:304|72:208|160:24|248:40|400:104|440:176|423:263|408:288,1,720,6|0,1:0|1:0,0:0:0:0:
480,360,135209,1,0,1:0:0:0:
152,352,135533,6,0,L|128:208,1,135.000005149842,4|2,0:1|0:0,0:0:0:0:
112,136,136020,1,0,0:0:0:0:
129,218,136182,2,0,L|280:224,1,135.000005149842,0|2,3:0|0:0,0:0:0:0:
336,264,136669,1,0,0:0:0:0:
408,224,136831,6,0,B|448:232|480:200,1,67.5000025749208,0|0,3:0|0:0,0:0:0:0:
376,152,137155,2,0,B|408:128|408:72,1,67.5000025749208,2|0,0:0|0:0,0:0:0:0:
296,160,137479,2,0,B|328:80|256:24,1,135.000005149842,0|2,3:0|0:0,0:0:0:0:
270,36,137966,1,0,0:0:0:0:
192,208,138128,6,0,B|160:288|232:344,1,135.000005149842,0|2,3:0|0:0,0:0:0:0:
304,320,138614,1,0,0:0:0:0:
304,320,138777,2,0,L|384:336,1,67.5000025749208,0|2,3:0|0:0,0:0:0:0:
352,248,139101,2,0,L|424:248,1,67.5000025749208,2|0,0:0|0:0,0:0:0:0:
344,168,139425,2,0,B|424:176|480:112,1,135.000005149842,4|2,0:0|3:2,0:0:0:0:
467,125,139912,1,0,0:0:0:0:
392,80,140074,1,0,3:0:0:0:
184,152,140398,5,2,3:2:0:0:
112,176,140560,1,0,0:0:0:0:
40,160,140723,2,0,B|40:208|24:248,1,67.5000025749208,4|0,3:1|1:0,0:0:0:0:
80,288,141047,1,8,0:0:0:0:
296,360,141371,5,0,1:0:0:0:
280,208,141533,1,8,0:0:0:0:
208,344,141696,1,8,0:0:0:0:
472,320,142020,6,0,B|512:232|464:136,1,180,4|0,3:1|1:0,0:0:0:0:
400,96,142506,1,0,0:0:0:0:
392,184,142669,2,0,L|280:152,1,90,0|0,1:0|0:0,0:0:0:0:
192,48,142993,5,0,1:0:0:0:
272,88,143155,1,0,0:0:0:0:
216,160,143317,2,0,B|184:200|200:264,1,90,4|2,1:0|0:0,0:0:0:0:
264,336,143642,1,0,1:0:0:0:
304,240,143804,1,0,1:0:0:0:
168,328,143966,6,0,B|120:336|64:304,1,90,4|2,1:2|0:0,0:0:0:0:
32,216,144290,1,0,1:0:0:0:
112,136,144452,1,0,1:0:0:0:
200,256,144614,5,4,1:0:0:0:
324,243,144777,1,2,0:0:0:0:
308,123,144939,1,0,1:0:0:0:
184,136,145102,1,0,1:0:0:0:
240,88,145263,5,4,1:2:0:0:
360,176,145425,1,2,0:0:0:0:
264,288,145587,1,0,1:0:0:0:
144,200,145750,1,2,1:2:0:0:
472,192,145912,5,6,1:0:0:0:
40,192,146236,1,8,1:0:0:0:
472,192,146560,1,4,1:2:0:0:
40,192,146884,1,8,1:0:0:0:
472,192,147533,5,12,1:0:0:0:
40,192,147857,1,8,1:0:0:0:
472,192,148182,1,12,1:0:0:0:
256,192,148506,12,4,149804,0:0:0:0:
184,264,150128,6,0,B|152:232|168:176,1,90,8|0,0:0|0:0,0:0:0:0:
328,120,150452,2,0,B|360:152|344:208,1,90,0|2,0:0|0:2,0:0:0:0:
288,296,150777,1,8,0:0:0:0:
256,192,150939,1,0,0:0:0:0:
392,320,151101,6,0,L|488:296,1,90,0|2,0:0|0:2,0:0:0:0:
464,112,151425,2,0,L|440:224,1,90,8|0,0:0|0:0,0:0:0:0:
376,48,151750,2,0,L|336:240,1,180,0|8,0:0|0:0,0:0:0:0:
320,312,152236,5,0,0:0:0:0:
320,312,152317,1,0,0:0:0:0:
320,312,152398,2,0,L|200:336,1,90,4|2,0:2|0:2,0:0:0:0:
112,352,152723,1,8,0:0:0:0:
200,264,152885,1,0,0:0:0:0:
80,280,153047,2,0,B|64:232|72:184,1,90,0|2,0:0|0:2,0:0:0:0:
80,168,153290,1,0,0:0:0:0:
88,144,153371,1,8,0:0:0:0:
120,64,153533,1,0,0:0:0:0:
184,144,153696,6,0,B|256:160|312:80,3,135.000005149842,6|0|8|0,0:0|0:0|0:0|0:0,0:0:0:0:
384,136,154344,6,0,B|328:184|352:264,3,135.000005149842,10|0|10|8,0:0|0:0|0:0|0:0,0:0:0:0:
280,304,154993,6,0,B|240:208|104:248,1,180,4|8,0:0|0:0,0:0:0:0:
64,304,155479,1,2,0:0:0:0:
64,304,155560,1,0,0:0:0:0:
64,304,155642,1,2,0:0:0:0:
16,208,155804,1,0,0:0:0:0:
64,112,155966,1,10,0:0:0:0:
168,112,156128,1,2,0:0:0:0:
232,200,156290,2,0,B|336:240|392:120,1,180,2|10,0:0|0:0,0:0:0:0:
400,56,156777,1,0,0:0:0:0:
424,224,156939,2,0,B|448:272|512:280,1,90,2|0,0:0|0:0,0:0:0:0:
448,352,157263,5,8,0:0:0:0:
344,312,157425,1,0,0:0:0:0:
240,336,157587,2,0,L|136:312,1,90,4|0,0:2|0:0,0:0:0:0:
72,344,157912,2,0,L|56:240,1,90,2|2,0:2|0:2,0:0:0:0:
40,152,158236,1,4,0:2:0:0:
136,200,158398,1,2,0:2:0:0:
144,96,158560,1,4,0:2:0:0:
240,152,158723,1,0,0:0:0:0:
256,48,158885,2,0,B|304:32|368:40,1,90,8|0,0:0|0:0,0:0:0:0:
504,88,159209,2,0,B|456:72|392:80,1,90,8|0,0:0|0:0,0:0:0:0:
288,136,159533,5,8,0:0:0:0:
288,136,159858,1,4,0:0:0:0:
288,136,160182,2,0,B|328:200|280:288|168:280|144:200,1,270.000010299683,4|8,1:0|0:0,0:0:0:0:
160,96,160669,1,0,0:0:0:0:
64,40,160831,2,0,B|32:112|72:176,1,135.000005149842,0|2,0:0|0:2,0:0:0:0:
148,331,161155,2,0,B|180:259|140:195,1,135.000005149842,8|0,0:0|0:0,0:0:0:0:
248,32,161479,2,0,B|184:168|288:288,2,270.000010299683,0|8|0,0:0|0:0|0:0,0:0:0:0:
312,112,162290,5,2,0:2:0:0:
448,88,162452,1,8,0:0:0:0:
472,224,162614,1,0,0:0:0:0:
336,248,162777,2,0,B|256:264|208:208,1,135.000005149842,4|2,0:2|0:2,0:0:0:0:
64,40,163101,2,0,B|136:72|128:168,1,135.000005149842,8|0,0:0|0:0,0:0:0:0:
64,336,163425,5,0,0:0:0:0:
176,320,163587,1,2,0:2:0:0:
288,336,163750,1,8,0:0:0:0:
400,320,163912,1,0,0:0:0:0:
488,232,164074,6,0,L|352:248,1,135.000005149842,6|0,0:0|0:0,0:0:0:0:
24,152,164398,6,0,L|160:136,1,135.000005149842,8|0,0:0|0:0,0:0:0:0:
424,40,164723,6,0,L|320:144,1,135.000005149842,10|0,0:0|0:0,0:0:0:0:
88,344,165047,6,0,L|192:240,1,135.000005149842,10|8,0:0|0:0,0:0:0:0:
448,216,165371,6,0,B|392:184|296:200|248:288|280:360,1,270.000010299683,4|8,0:0|0:0,0:0:0:0:
376,304,165858,1,0,0:0:0:0:
183,248,166020,6,0,B|215:192|198:96|111:48|39:80,1,270.000010299683,2|8,0:0|0:0,0:0:0:0:
88,184,166506,1,2,0:0:0:0:
304,64,166669,6,0,B|368:72|384:48|464:48,2,135.000005149842,2|0|10,0:0|0:0|0:0,0:0:0:0:
240,144,167155,1,0,0:0:0:0:
240,144,167236,1,0,0:0:0:0:
240,144,167317,2,0,B|232:208|256:224|256:304,2,135.000005149842,2|0|8,0:0|0:0|0:0,0:0:0:0:
232,48,167804,1,0,0:0:0:0:
328,176,167966,6,0,B|408:200|464:152,1,135.000005149842,4|0,0:2|0:0,0:0:0:0:
168,336,168290,2,0,B|88:344|56:272,1,135.000005149842,2|2,0:2|0:2,0:0:0:0:
336,264,168614,5,4,0:2:0:0:
336,264,168777,1,2,0:2:0:0:
248,280,168939,1,4,0:2:0:0:
248,280,169101,1,0,0:0:0:0:
384,168,169263,6,0,L|240:176,1,135.000005149842,10|0,0:0|0:0,0:0:0:0:
368,96,169587,6,0,L|184:104,1,180,8|0,0:0|0:0,0:0:0:0:
352,24,169912,6,0,L|128:32,1,225,10|0,0:0|0:0,0:0:0:0:
98,108,170236,6,0,L|377:95,1,270.000010299683,6|0,0:0|0:0,0:0:0:0:
432,184,170560,6,0,B|224:296|296:144|72:248,1,360,4|8,1:0|0:0,0:0:0:0:
312,96,171047,1,0,0:0:0:0:
312,96,171128,1,0,0:0:0:0:
312,96,171209,2,0,B|244:322|187:163|102:395,1,360,0|8,0:0|0:0,0:0:0:0:
176,40,171696,1,0,0:0:0:0:
176,40,171858,2,0,B|287:247|134:175|238:399,2,360,0|8|0,0:0|0:0|0:0,0:0:0:0:
128,128,172669,1,2,0:2:0:0:
272,32,172831,1,8,0:0:0:0:
96,56,172993,1,0,0:0:0:0:
320,160,173155,6,0,B|432:192|480:80,1,180,4|2,0:2|0:2,0:0:0:0:
360,256,173479,6,0,B|472:288|520:176,1,180,8|0,0:0|0:0,0:0:0:0:
200,336,173804,6,0,B|88:368|40:256,1,180,0|2,0:0|0:2,0:0:0:0:
240,240,174128,6,0,B|128:272|80:160,1,180,8|0,0:0|0:0,0:0:0:0:
32,104,174452,5,6,0:0:0:0:
144,88,174614,1,0,0:0:0:0:
256,72,174777,1,10,0:0:0:0:
368,56,174939,1,0,0:0:0:0:
472,168,175101,5,10,0:0:0:0:
360,184,175263,1,0,0:0:0:0:
248,200,175426,1,10,0:0:0:0:
136,216,175588,1,8,0:0:0:0:
64,352,175750,6,0,L|456:296,1,360,4|8,0:0|0:0,0:0:0:0:
88,264,176236,1,0,0:0:0:0:
88,264,176317,1,0,0:0:0:0:
88,264,176398,2,0,B|448:216,1,360,2|8,0:0|0:0,0:0:0:0:
444,216,176885,1,2,0:0:0:0:
400,32,177047,6,0,B|320:104|376:216,1,180,2|0,0:0|0:0,0:0:0:0:
200,360,177371,6,0,B|280:288|224:176,1,180,10|0,0:0|0:0,0:0:0:0:
96,48,177696,6,0,B|16:120|72:232,1,180,2|0,0:0|0:0,0:0:0:0:
336,288,178020,5,8,0:0:0:0:
408,216,178182,1,0,0:0:0:0:
328,152,178344,5,4,0:2:0:0:
216,336,178669,1,0,0:0:0:0:
488,224,178993,5,4,0:2:0:0:
40,168,179317,1,4,0:2:0:0:
256,32,179642,5,10,0:0:0:0:
328,112,179804,1,0,0:0:0:0:
256,192,179966,1,8,0:0:0:0:
184,272,180128,1,0,0:0:0:0:
256,352,180290,1,10,0:0:0:0:
256,192,180614,1,6,0:0:0:0:
256,192,180777,1,0,0:0:0:0:
256,32,180939,6,0,B|104:16|-16:80,1,270.000010299683,4|8,1:0|0:0,0:0:0:0:
336,216,181587,2,0,B|360:288|456:304,1,135.000005149842,6|0,0:0|0:0,0:0:0:0:
176,168,181912,2,0,B|152:96|56:80,1,135.000005149842,14|0,0:0|0:0,0:0:0:0:
232,336,182236,5,12,0:0:0:0:
272,152,182398,1,8,0:0:0:0:
160,264,182560,5,10,0:0:0:0:
336,208,182723,1,8,0:0:0:0:
184,176,182885,5,6,0:0:0:0:
320,304,183209,5,4,0:2:0:0:
