osu file format v14

[General]
AudioFilename: audio.mp3
AudioLeadIn: 0
PreviewTime: 51128
Countdown: 0
SampleSet: Normal
StackLeniency: 0.7
Mode: 0
LetterboxInBreaks: 0
EpilepsyWarning: 1
WidescreenStoryboard: 1

[Editor]
Bookmarks: 18777,39533,51209,66777,77155,87533,97912,109587,119966,135533,149804,160182,170560
DistanceSpacing: 0.7
BeatDivisor: 4
GridSize: 8
TimelineZoom: 1.9

[Metadata]
Title:Kigurumi Sungeki
TitleUnicode:きぐるみ寸劇
Artist:Chikamori Kayako
ArtistUnicode:浮森かや子
Creator:Mirash
Version:Collab Special
Source:
Tags:-MikanMyMommy kogumax koguma cross kaine raja jounzan evilelvis natteke desu djulus delis shirohamymommy pop jpop j-pop japanese 幼蚕文庫 オッカ 99 Yousan Bunko
BeatmapID:2755564
BeatmapSetID:1312079

[Difficulty]
HPDrainRate:6
CircleSize:4
OverallDifficulty:8
ApproachRate:9
SliderMultiplier:1.85
SliderTickRate:1

[Events]
//Background and Video events
0,0,"notkigurumiXD.jpg",0,0
//Break Periods
2,135733,138825
//Storyboard Layer 0 (Background)
Sprite,Background,Centre,"nn1.jpg",320,240 S,0,148182,,1.238546 M,0,148182,149804,320,240
Sprite,Background,Centre,"nnn.jpg",320,240 M,0,145912,148182,320,240
Sprite,Background,Centre,"nnn.jpg",320,240 M,0,174452,175750,320,240
//Storyboard Layer 1 (Fail)
//Storyboard Layer 2 (Pass)
//Storyboard Layer 3 (Foreground)
Sprite,Foreground,Centre,"elvispxl.png",320,240 M,0,18452,,500.3636,277.2364 R,0,18452,,0.1512726 S,0,18452,18533,0.1,0.2785452 S,0,18533,18614,0.2785452,0.5694544 S,0,18614,18696,0.5694544,0.6916364 S,0,18696,18777,0.6916364,0.8021817 S,0,18777,39209,0.8021817 F,0,38885,39533,1,0
Sprite,Foreground,Centre,"mirashpxl.png",320,240 R,0,290,,-0.2327273 S,0,290,371,0.1,0.4356363 S,0,371,452,0.4356363,0.7730908 S,0,452,533,0.7730908,0.9767273 S,0,533,615,0.9767273 S,0,615,18128,0.9767273 S,0,615,18128,0.9767273 M,0,997,,183.8545,180.0727 S,0,18128,,0.9767273 F,0,18128,18777,1,0 F,0,18777,,0
Sprite,Foreground,Centre,"mirashpxl.png",320,240 S,0,39209,39533,0.1,0.9436364 M,0,39533,50560,112.8727,179.4909 R,0,39533,50560,0.3956363 M,0,50560,51209,112.8727,179.4909,-439.8545,255.7091 R,0,50560,51209,0.3956363,-6.365091
Sprite,Foreground,Centre,"elvispxl.png",320,240 S,0,50560,,0.802182 M,0,50560,51209,960.5819,259.2,432.8728,250.4727 R,0,50560,51209,-14.10327,-6.109091 M,0,51209,65317,432.8728,250.4727,434.4106,250.4982 R,0,51209,66452,-6.109091 M,0,65317,65479,434.4106,250.4982,109.1919,125.9893 M,0,65479,65642,109.1919,125.9893,283.7374,249.9166 M,0,65642,65804,283.7374,249.9166,554.8646,270.2803 M,0,65804,65966,554.8646,270.2803,375.0828,401.7712 M,0,65966,66128,375.0828,401.7712,583.9556,403.5166 M,0,66128,66452,583.9556,403.5166,63.81011,70.71663 M,0,66452,66777,63.81011,70.71663,-397.5717,220.8257 R,0,66452,66777,-6.109091,-14.30109
Sprite,Foreground,Centre,"mirashpxl.png",320,240 M,0,66452,66777,244.3636,-252.8,478.2545,257.4546 R,0,66452,66777,0,-0.1396362 M,0,66777,76506,478.2545,257.4546 F,0,76506,76831,1,0
Sprite,Foreground,Centre,"elvispxl.png",320,240 F,0,76831,77155,0,1 S,0,77155,,0.8312727 R,0,77155,,0.3723633 M,0,77155,86885,155.3455,194.6182 F,0,77155,86885,1 F,0,86885,87209,1,0
Sprite,Foreground,Centre,"mirashpxl.png",320,240 S,0,87209,87533,0.1,0.9610909 F,0,87533,,1 M,0,87533,97263,493.9636,166.6909 S,0,87533,97263,0.9610909 R,0,87533,97263,-0.1745453 S,0,97263,97587,0.9610909,0.1 R,0,97263,97587,-0.1745453,5.480727
Sprite,Foreground,Centre,"elvispxl.png",320,240 S,0,97587,97912,0.1,0.802182 R,0,97587,97912,-0.3956366,-6.597818 M,0,97912,108939,146.0364,277.8182 R,0,97912,108939,-6.597818 R,0,108939,109020,-6.597818,-15.16218 M,0,108939,109263,146.0364,277.8182,835.4909,-299.3455 R,0,109020,109263,-15.16218,-6.597818
Sprite,Foreground,Centre,"mirashpxl.png",320,240 M,0,109263,109587,-415.4182,-274.3273,320,240 R,0,109263,109587,0,-12.68364 M,0,109587,119966,320,240 F,0,118669,119642,1,0
Sprite,Foreground,Centre,"elvispxl.png",320,240 M,0,119642,119966,1049.6,-10.76364,484.0728,189.9636 S,0,119642,119966,1.273455,0.9767272 R,0,119642,129696,0.2210909 R,0,119966,,0.5818185 M,0,119966,129696,484.0728,189.9636,487.4879,188.7515 F,0,119966,134804,1 M,0,129696,129858,487.4879,188.7515,89.81589,151.503 R,0,129696,129858,0.2210909,3.127975 R,0,129858,,3.127975 M,0,129858,130020,89.81589,151.503,324.9907,364.8457 R,0,129858,130020,3.127975,13.56278 M,0,130020,130182,324.9907,364.8457,406.6805,88.41493 R,0,130020,130191,13.56278,2.14109 M,0,130182,130344,406.6805,88.41493,136.0722,314.6852 R,0,130191,130344,2.14109,6.527999 M,0,130344,134885,136.0722,314.6852 F,0,134804,134885,1,0
Sprite,Foreground,Centre,"115910795_195458178586250_6257148553869174020_n.jpg",320,240 F,0,135493,135533,0,1 S,0,135533,,0.6450909 F,0,135533,139385,1 F,0,139385,139425,1,0 M,0,139425,,320,240
Sprite,Foreground,Centre,"mirashpxl.png",320,240 F,0,139385,139425,0,1 R,0,139425,,0.1629089 M,0,139425,145871,501.5273,342.4 F,0,139425,145871,1 M,0,145871,,501.5273,342.4 F,0,145871,145912,1,0
Sprite,Foreground,Centre,"mirashpxl.png",320,240 R,0,145912,,-0.197818 C,0,145912,,0,0,255 M,0,145912,146196,143.7091,168.4364 F,0,145912,146196,1 F,0,146196,146236,1,0
Sprite,Foreground,Centre,"mirashpxl.png",320,240 R,0,146236,,0.4770914 C,0,146236,,255,0,0 M,0,146236,146520,474.7636,146.9091 F,0,146236,146520,1 M,0,146520,146560,474.7636,146.9091 F,0,146520,146560,1,0
Sprite,Foreground,Centre,"mirashpxl.png",320,240 R,0,146560,,0.2327271 C,0,146560,,0,255,0 M,0,146560,146844,244.9454,347.6364 F,0,146560,146844,1 F,0,146844,146885,1,0
Sprite,Foreground,Centre,"mirashpxl.png",320,240 S,0,146885,,1.314182 C,0,146885,,0,128,192 F,0,146885,147493,1 M,0,146885,147533,268.8,170.1818 R,0,147152,,-0.7447274 F,0,147493,147533,1,0
Sprite,Foreground,Centre,"mirashpxl.png",320,240 S,0,147533,,1.698182 R,0,147533,,-0.2676367 C,0,147533,,128,0,64 M,0,147533,147817,176.8727,315.6364 F,0,147533,147817,1 F,0,147817,147858,1,0
Sprite,Foreground,Centre,"mirashpxl.png",320,240 S,0,147858,,2.058909 R,0,147858,,0.2443634 C,0,147858,,255,128,0 M,0,147858,148142,416,214.4 F,0,147858,148142,1 F,0,148142,148182,1,0
Sprite,Foreground,Centre,"elvispxl.png",320,240 F,0,149479,149804,0,1 S,0,149804,,0.8778183 M,0,149804,159858,485.2364,283.6364
Sprite,Foreground,Centre,"elvispxlNOISE.png",320,240 S,0,159858,,0.9010909 R,0,159858,,-0.02327271 M,0,159858,160182,485.8182,278.9818
Sprite,Foreground,Centre,"mirashpxl.png",320,240 F,0,148182,,1 S,0,148182,,2.588364 R,0,148182,,-0.1978186 C,0,148182,,0,0,0 M,0,148182,149804,308.9454,191.709,308.9454,191.1272
Sprite,Foreground,Centre,"mirashpxl.png",320,240 M,0,160182,170236,128.5818,181.8182 M,0,170236,170398,128.5818,181.8182,-485.8181,85.23637 R,0,170236,170398,0,-7.086545
Sprite,Foreground,Centre,"elvispxl.png",320,240 M,0,170236,170398,1017.018,-290.0364,451.4909,291.2 R,0,170236,170398,-8.029091,0 M,0,170398,174452,451.4909,291.2
Sprite,Foreground,Centre,"elvispxlNOISE.png",320,240 M,0,174452,174777,139.0545,152.1454 R,0,174696,,0.2792731
Sprite,Foreground,Centre,"elvispxlNOISEblueeyes.png",320,240 R,0,174777,,-0.2094543 M,0,174777,175101,544.5818,106.7636
Sprite,Foreground,Centre,"elvispxlNOISEredeyes.png",320,240 R,0,175101,,0.3607272 M,0,175267,,132.0727,343.5637 S,0,175267,,1.052364 M,0,175267,175425,132.0727,343.5637
Sprite,Foreground,Centre,"elvispxlNOISEbig.png",320,240 S,0,175425,,1.366545 R,0,175425,,-0.2676361 M,0,175425,175750,364.2181,202.7636
Sprite,Foreground,Centre,"elvispxl.png",320,240 S,0,175750,,0.7730908 R,0,175750,,0.3956366 M,0,175750,183209,92.50909,320.291
Sprite,Foreground,Centre,"jounzann.png",320,240 S,0,149804,,0.5752728 R,0,149804,,0.1512726 M,0,149804,159858,474.1818,408.7273
Sprite,Foreground,Centre,"mirashn.png",320,240 S,0,290,533,0.1,0.4781817 R,0,615,,0.1512726 M,0,615,18128,188.5091,317.9637 F,0,18128,18777,1,0
Sprite,Foreground,Centre,"jounzann.png",320,240 S,0,18452,18777,0.1,0.4705455 R,0,18777,,-0.1163635 M,0,18777,38885,481.7455,384.2909 F,0,18777,38885,1 F,0,38885,39533,1,0
Sprite,Foreground,Centre,"jounzann.png",320,240 M,0,50560,51209,-360.1454,606.5454,424.7273,352.8727 R,0,50560,51209,12.46255,-0.05818176 S,0,51209,,0.5345456 R,0,51209,,-0.05818176 M,0,51209,65317,424.7273,352.8727,423.5316,353.2592 F,0,65236,65317,1,0
Sprite,Foreground,Centre,"mirashn.png",320,240 S,0,39209,39533,0.1,0.5578182 M,0,39533,50560,112.8727,294.1091 R,0,39533,50560,-0.1396362 M,0,50560,51209,112.8727,294.1091,-422.4,73.01817 R,0,50560,51209,-0.1396362,6.609455
Sprite,Foreground,Centre,"mirashn.png",320,240 R,0,66452,,0.3141815 M,0,66452,66777,-16.29088,626.3273,457.3091,380.2182 S,0,66777,,0.4938183 M,0,66777,76506,457.3091,380.2182 F,0,76506,76831,1,0
Sprite,Foreground,Centre,"jounzann.png",320,240 S,0,76831,,0.5287273 R,0,76831,,-0.197818 F,0,76831,77155,0,1 M,0,77155,86885,134.4,306.9091 F,0,77155,86885,1 F,0,86885,87209,1,0
Sprite,Foreground,Centre,"mirashn.png",320,240 S,0,87209,87533,0.1,0.4356363 F,0,87533,,1 M,0,87533,97263,478.2545,277.2364 S,0,87533,97263,0.4356363 R,0,87533,97263,0.1629089 M,0,97263,97587,478.2545,277.2364,495.1274,206.8364 S,0,97263,97587,0.4356363,0.1 R,0,97263,97587,0.1629089,-5.003637
Sprite,Foreground,Centre,"jounzann.png",320,240 S,0,97587,97912,0.1,0.4414545 R,0,97587,97912,10.56582,0.1279999 F,0,97912,,1 M,0,97912,108939,134.4,405.8182 R,0,97912,108939,0.1279999 M,0,108939,109263,134.4,405.8182,733.6727,-279.5636 R,0,108939,109263,0.1279999,10.43782
Sprite,Foreground,Centre,"mirashn.png",320,240 M,0,109263,109587,1015.855,482.0364,290.3273,372.6546 R,0,109263,109587,8.866909,0.1512726 S,0,109587,,0.4880002 F,0,118669,119642,1,0.03709091
Sprite,Foreground,Centre,"jounzann.png",320,240 M,0,119642,119966,272.2909,617.6,445.0909,327.8545 S,0,119966,,0.5520001 R,0,119966,,-0.1047272 M,0,119966,129696,445.0909,327.8545,444.0243,329.6431 F,0,129614,129696,1,0 F,0,129696,130263,0 M,0,129696,130344,444.0243,329.6431,99.58788,397.134 F,0,130263,130344,0,1 F,0,130344,134804,1 M,0,130344,134885,99.58788,397.134 F,0,134804,134885,1,0
Sprite,Foreground,Centre,"mirashn.png",320,240 F,0,139344,139425,0,1 S,0,139425,,0.5112729 R,0,139425,,-0.1396362 M,0,139425,145912,468.3636,396.5091
Sprite,Foreground,Centre,"mirashn.png",320,240 S,0,160182,,0.4996366 M,0,160182,170236,127.4182,281.3091 R,0,160182,170236,-0.1163641 M,0,170236,170398,127.4182,281.3091,-439.2727,471.5636 R,0,170236,170398,-0.1163641,12.22982
Sprite,Foreground,Centre,"jounzann.png",320,240 M,0,170236,170398,1065.309,585.0182,432.2909,363.9273 S,0,170398,,0.5869092 R,0,170398,,-0.08145447 M,0,170398,174452,432.2909,363.9273
Sprite,Foreground,Centre,"jounzann.png",320,240 M,0,175750,183209,106.4727,374.4 S,0,176074,,0.4298183 R,0,176074,,-0.1861816
//Storyboard Layer 4 (Overlay)
//Storyboard Sound Samples

[TimingPoints]
615,324.324324324324,4,2,1,50,1,0
13587,-100,4,2,1,60,0,0
17479,-100,4,2,1,70,0,0
18128,-100,4,2,1,80,0,0
18777,-100,4,2,1,50,0,0
29155,-100,4,2,2,60,0,0
38560,-100,4,2,1,60,0,0
38885,-100,4,2,1,70,0,0
39533,-100,4,2,1,60,0,0
41804,-200,4,2,1,60,0,0
42128,-83.3333333333333,4,2,1,60,0,0
46669,-100,4,2,1,60,0,0
46993,-200,4,2,1,60,0,0
47317,-200,4,2,1,65,0,0
49101,-83.3333333333333,4,2,1,65,0,0
51209,-83.3333333333333,4,1,1,70,0,0
59642,-83.3333333333333,4,1,1,65,0,0
60939,-83.3333333333333,4,1,1,60,0,0
61263,-1000,4,2,1,50,0,0
61587,-133.333333333333,4,2,1,40,0,0
64182,-100,4,2,1,50,0,0
65479,-100,4,2,1,60,0,0
66452,-100,4,2,1,50,0,0
66777,-100,4,2,1,55,0,0
70669,-100,4,2,1,65,0,0
71966,-100,4,2,1,55,0,0
75858,-100,4,2,1,70,0,0
77155,-100,4,2,1,50,0,0
77966,-125,4,2,1,50,0,0
86236,-100,4,2,1,50,0,0
87209,-333.333333333333,4,2,1,50,0,0
87533,-66.6666666666667,4,2,2,60,0,0
87858,-100,4,2,2,60,0,0
97912,-100,4,2,1,60,0,0
100182,-200,4,2,1,60,0,0
100506,-83.3333333333333,4,2,1,60,0,0
103101,-100,4,2,1,60,0,0
105371,-83.3333333333333,4,2,1,60,0,0
106993,-83.3333333333333,4,2,1,65,0,0
108290,-83.3333333333333,4,2,1,70,0,0
109587,-83.3333333333333,4,1,1,70,0,0
117371,-100,4,1,1,70,0,0
118669,-100,4,1,1,65,0,0
118993,-100,4,1,1,60,0,0
119317,-100,4,1,1,50,0,0
119642,-1000,4,1,1,50,0,0
119966,-133.333333333333,4,2,1,40,0,0
122560,-133.333333333333,4,2,1,50,0,0
122885,-76.9230769230769,4,2,1,50,0,0
123209,-76.9230769230769,4,2,1,60,0,0
123858,-76.9230769230769,4,2,1,65,0,0
124831,-1000,4,2,1,50,0,0
125155,-100,4,2,1,65,0,0
130993,-66.6666666666667,4,2,1,65,0,0
131642,-100,4,2,1,65,0,0
132290,-58.8235294117647,4,2,1,65,0,0
134885,-58.8235294117647,4,2,1,50,0,0
135209,-1000,4,2,1,40,0,0
139425,-100,4,2,1,40,0,0
142993,-200,4,2,1,40,0,0
143317,-100,4,2,1,50,0,0
144614,-100,4,2,1,55,0,0
145587,-100,4,2,1,60,0,0
145912,-66.6666666666667,4,2,1,70,0,0
147209,-66.6666666666667,4,2,1,80,0,0
147533,-57.1428571428571,4,2,1,80,0,0
147858,-50,4,2,1,80,0,0
148182,-44.4444444444445,4,2,1,80,0,0
148425,-44.4444444444445,4,2,1,80,0,0
148506,-133.333333333333,4,2,1,50,0,0
149804,-76.9230769230769,4,1,1,70,0,0
159858,-1000,4,1,1,70,0,0
160182,-76.9230769230769,4,1,1,70,0,0
170560,-58.8235294117647,4,1,1,80,0,0
174777,-55.5555555555556,4,1,1,80,0,0
175101,-52.6315789473684,4,1,1,80,0,0
175425,-50,4,1,1,80,0,0
175749,-40,4,1,1,80,0,0
176074,-52.6315789473684,4,1,1,80,0,0
178993,-40,4,1,1,80,0,0
180614,-1000,4,1,1,80,0,0
180939,-40,4,1,1,80,0,0
182885,-40,4,1,1,60,0,0
183209,-40,4,1,1,50,0,0

[Colours]
Combo1 : 171,107,109
Combo2 : 72,126,130
Combo3 : 147,157,115
Combo4 : 176,89,143

[HitObjects]
41,85,615,6,0,P|94:72|151:53,1,92.5,0|0,1:0|0:0,0:0:0:0:
193,137,939,1,0,1:0:0:0:
122,175,1101,1,0,0:0:0:0:
215,53,1263,1,0,1:0:0:0:
261,193,1425,1,0,0:0:0:0:
244,220,1506,1,0,1:0:0:0:
250,251,1587,1,0,1:0:0:0:
393,184,1750,5,0,1:0:0:0:
374,185,1831,1,0,0:0:0:0:
361,171,1912,2,0,P|347:126|336:81,1,92.5,0|0,1:0|0:0,0:0:0:0:
421,22,2236,1,0,1:0:0:0:
466,85,2398,1,0,0:0:0:0:
332,7,2560,2,0,P|274:17|236:22,1,92.5,0|2,1:0|0:1,0:0:0:0:
131,125,2885,1,0,1:0:0:0:
148,120,2966,1,0,0:0:0:0:
165,115,3047,1,2,0:1:0:0:
260,227,3209,6,0,P|255:293|247:377,1,138.75,0|0,1:0|0:0,0:0:0:0:
230,362,3533,1,0,3:0:0:0:
174,262,3696,1,0,0:0:0:0:
343,268,3858,2,0,P|388:287|435:302,1,92.5,0|0,1:0|0:0,0:0:0:0:
429,300,4101,1,0,1:0:0:0:
429,300,4182,1,0,3:0:0:0:
396,189,4344,1,0,1:0:0:0:
346,354,4506,5,0,1:0:0:0:
470,230,4669,1,0,0:0:0:0:
302,194,4831,1,0,3:0:0:0:
343,268,4993,2,0,P|388:287|435:302,1,92.5,0|0,1:0|0:0,0:0:0:0:
261,276,5317,5,0,0:0:0:0:
213,181,5479,1,0,3:0:0:0:
158,254,5642,1,0,1:0:0:0:
96,207,5804,5,2,1:2:0:0:
123,190,5966,1,2,0:0:0:0:
158,254,6128,1,0,3:0:0:0:
213,181,6290,1,0,0:0:0:0:
261,276,6452,1,2,1:2:0:0:
334,159,6614,1,2,0:0:0:0:
334,159,6696,1,2,1:2:0:0:
334,159,6777,1,0,3:0:0:0:
236,66,6939,1,2,1:2:0:0:
306,222,7101,5,4,1:0:0:0:
408,197,7263,1,0,0:0:0:0:
302,82,7425,1,0,0:0:0:0:
200,107,7587,1,0,0:0:0:0:
268,161,7750,5,8,3:0:0:0:
384,47,7912,1,4,3:0:0:0:
201,0,8074,1,4,3:3:0:0:
278,66,8236,1,4,1:3:0:0:
444,101,8398,6,0,P|436:165|431:243,1,138.75,0|0,1:0|0:0,0:0:0:0:
440,255,8723,1,0,3:0:0:0:
220,352,8885,2,0,P|215:282|210:242,1,92.5,0|0,1:0|0:0,0:0:0:0:
321,222,9209,1,0,1:0:0:0:
322,240,9290,1,0,0:0:0:0:
324,258,9371,1,0,3:0:0:0:
116,266,9533,1,0,0:0:0:0:
118,248,9614,1,0,1:0:0:0:
119,230,9695,1,2,3:2:0:0:
172,177,9858,1,0,1:0:0:0:
84,128,10020,1,2,3:2:0:0:
123,64,10182,1,0,1:0:0:0:
393,230,10344,1,2,0:0:0:0:
340,177,10507,1,0,1:0:0:0:
428,128,10669,1,2,3:2:0:0:
389,64,10831,1,0,0:0:0:0:
167,32,10993,5,2,1:3:0:0:
260,41,11155,1,0,0:0:0:0:
167,32,11317,1,4,3:0:0:0:
260,41,11479,1,0,0:0:0:0:
328,4,11642,5,4,0:0:0:0:
235,13,11804,1,0,0:0:0:0:
328,4,11966,1,8,3:0:0:0:
235,13,12128,1,0,0:0:0:0:
256,199,12290,5,4,1:0:0:0:
261,103,12452,1,0,0:0:0:0:
266,148,12533,1,0,0:0:0:0:
271,193,12614,1,4,1:3:0:0:
178,117,12777,1,0,0:0:0:0:
395,191,12939,1,4,0:0:0:0:
117,191,13263,1,4,0:0:0:0:
391,66,13587,5,4,1:0:0:0:
477,110,13750,1,0,0:0:0:0:
477,110,13831,1,0,0:0:0:0:
477,110,13912,1,0,0:0:0:0:
441,12,14074,1,2,1:0:0:0:
314,47,14236,2,0,P|256:60|111:83,1,185,2|2,1:0|1:0,0:0:0:0:
43,19,14723,1,2,1:0:0:0:
142,261,14885,6,0,P|182:304|209:339,1,92.5,6|0,1:0|0:0,0:0:0:0:
325,306,15209,2,0,P|368:266|403:239,1,92.5,4|0,0:0|0:0,0:0:0:0:
137,141,15533,2,0,P|177:184|204:219,1,92.5,2|0,1:2|0:0,0:0:0:0:
342,184,15858,2,0,P|385:144|420:117,1,92.5,0|0,1:0|1:0,0:0:0:0:
248,3,16182,5,4,1:2:0:0:
272,81,16344,1,2,0:0:0:0:
269,122,16425,1,2,0:0:0:0:
266,168,16506,1,2,1:2:0:0:
263,214,16587,1,2,0:0:0:0:
259,260,16669,1,2,0:0:0:0:
257,306,16750,1,2,0:0:0:0:
252,351,16831,1,2,1:2:0:0:
261,341,16912,1,2,0:0:0:0:
267,334,16993,1,2,0:0:0:0:
273,327,17074,1,2,0:0:0:0:
279,320,17155,1,2,1:2:0:0:
285,313,17236,1,2,0:0:0:0:
291,306,17317,1,2,0:0:0:0:
297,299,17398,1,2,0:0:0:0:
303,292,17479,5,4,1:0:0:0:
203,286,17642,1,4,3:0:0:0:
103,280,17804,1,4,3:0:0:0:
103,280,17966,1,4,3:0:0:0:
338,47,18128,5,4,1:2:0:0:
438,53,18291,1,8,1:3:0:0:
167,137,18452,5,4,1:2:0:0:
67,143,18615,1,4,1:3:0:0:
253,197,18777,5,4,1:0:0:0:
339,251,19101,1,0,3:0:0:0:
253,197,19425,1,0,0:0:0:0:
219,308,19750,1,0,3:0:0:0:
253,197,20074,1,0,1:0:0:0:
100,245,20398,1,0,3:0:0:0:
253,197,20723,1,0,0:0:0:0:
51,180,20885,6,0,P|35:126|29:86,1,92.5,0|2,0:0|3:2,0:0:0:0:
78,31,21209,1,0,1:0:0:0:
178,156,21371,5,2,1:2:0:0:
138,225,21533,1,0,1:0:0:0:
209,248,21696,1,0,3:0:0:0:
253,191,21858,1,0,1:0:0:0:
421,276,22020,6,0,P|434:329|449:365,1,92.5,4|0,1:2|1:0,0:0:0:0:
336,232,22344,1,0,3:0:0:0:
436,170,22506,1,0,1:0:0:0:
329,79,22669,5,4,1:0:0:0:
285,12,22831,1,2,0:0:0:0:
184,103,22993,1,0,3:0:0:0:
228,170,23155,1,4,0:0:0:0:
28,296,23317,5,8,3:0:0:0:
192,252,23479,1,4,3:0:0:0:
325,312,23642,1,4,3:0:0:0:
439,347,23804,1,4,1:3:0:0:
386,252,23966,6,0,B|355:216|355:216|368:146,1,92.5,0|0,1:0|0:0,0:0:0:0:
367,374,24290,1,0,3:0:0:0:
496,273,24452,2,0,B|409:225|402:325|311:313,1,185,0|0,1:0|1:0,0:0:0:0:
222,265,24939,1,0,3:0:0:0:
162,322,25101,1,0,1:0:0:0:
220,231,25263,2,0,P|256:190|246:157,1,92.5,2|0,1:2|0:0,0:0:0:0:
256,140,25506,1,0,0:0:0:0:
237,145,25587,1,2,3:2:0:0:
135,178,25750,2,0,P|122:131|19:83,1,138.75,0|0,0:0|0:0,0:0:0:0:
16,73,26074,5,0,0:0:0:0:
98,244,26236,1,2,3:2:0:0:
56,346,26398,1,0,0:0:0:0:
154,307,26560,5,2,1:2:0:0:
154,307,26723,1,0,0:0:0:0:
21,281,26885,1,0,3:0:0:0:
21,281,27047,1,0,0:0:0:0:
235,231,27209,5,2,1:2:0:0:
235,231,27372,1,0,0:0:0:0:
368,257,27534,1,4,3:2:0:0:
234,265,27696,1,0,0:0:0:0:
372,357,27858,5,0,1:0:0:0:
294,163,28020,1,0,0:0:0:0:
292,172,28101,1,0,1:0:0:0:
289,181,28182,1,0,3:0:0:0:
362,193,28344,1,0,1:0:0:0:
164,332,28506,1,8,3:0:0:0:
164,332,28669,1,4,3:0:0:0:
73,88,28831,5,4,1:0:0:0:
73,88,29155,2,0,P|59:144|70:204,1,92.5,4|2,1:0|0:3,0:0:0:0:
68,18,29479,1,0,3:0:0:0:
157,153,29642,2,0,P|155:220|229:357,1,185,2|2,1:3|1:3,0:0:0:0:
206,320,30047,1,0,0:0:0:0:
212,326,30128,1,0,3:0:0:0:
336,361,30290,1,2,0:3:0:0:
333,352,30371,1,0,1:0:0:0:
344,363,30452,6,0,P|408:359|453:323,1,92.5,0|2,1:0|1:3,0:0:0:0:
303,259,30777,1,0,3:0:0:0:
478,157,30939,2,0,P|402:178|372:245,1,138.75,2|0,1:3|0:0,0:0:0:0:
387,261,31263,5,2,1:3:0:0:
195,151,31425,1,2,3:1:0:0:
87,242,31587,1,0,1:3:0:0:
18,168,31750,5,2,1:0:0:0:
18,168,31912,1,0,1:3:0:0:
122,67,32074,1,2,3:1:0:0:
58,39,32236,1,0,1:3:0:0:
169,210,32398,2,0,P|192:154|231:131,1,92.5,4|2,1:2|1:2,0:0:0:0:
324,88,32723,1,0,3:0:0:0:
235,11,32885,1,2,1:2:0:0:
284,217,33047,6,0,P|323:260|370:273,1,92.5,4|0,1:0|0:3,0:0:0:0:
474,200,33371,2,0,P|435:157|388:144,1,92.5,0|4,3:0|0:3,0:0:0:0:
304,24,33696,5,8,3:0:0:0:
232,90,33858,1,4,3:3:0:0:
173,261,34020,5,4,3:0:0:0:
47,185,34182,1,4,1:3:0:0:
148,280,34344,6,0,P|114:334|89:350,1,92.5,0|2,1:0|0:3,0:0:0:0:
227,311,34669,1,0,3:0:0:0:
47,185,34831,2,0,P|75:121|174:43,1,185,2|2,1:3|1:0,0:0:0:0:
176,47,35236,1,0,0:0:0:0:
167,35,35317,1,0,3:0:0:0:
253,111,35479,1,2,1:0:0:0:
189,226,35642,5,6,1:2:0:0:
328,308,35804,1,0,0:0:0:0:
215,332,35966,1,2,3:2:0:0:
328,166,36128,2,0,P|287:217|256:267,1,92.5,2|0,1:0|0:0,0:0:0:0:
380,93,36452,1,2,1:0:0:0:
272,239,36614,1,0,3:1:0:0:
394,70,36777,1,2,1:0:0:0:
458,208,36939,5,6,1:0:0:0:
470,221,37020,1,0,0:0:0:0:
478,237,37101,1,0,0:0:0:0:
481,255,37182,1,0,0:0:0:0:
480,273,37263,1,0,3:0:0:0:
432,331,37425,1,0,0:0:0:0:
263,266,37587,5,6,1:2:0:0:
248,241,37669,1,0,0:0:0:0:
246,213,37750,1,0,0:0:0:0:
254,186,37831,1,0,0:0:0:0:
274,166,37912,1,4,3:2:0:0:
342,141,38074,1,0,0:0:0:0:
336,309,38236,5,4,1:0:0:0:
205,354,38398,1,0,0:0:0:0:
424,351,38560,5,4,3:2:0:0:
424,351,38723,1,0,0:0:0:0:
134,185,38885,5,4,3:1:0:0:
427,38,39209,1,4,1:0:0:0:
23,21,39533,5,2,1:2:0:0:
114,101,39777,1,0,0:0:0:0:
114,101,39858,1,0,1:0:0:0:
178,57,40020,1,0,1:0:0:0:
223,122,40182,1,2,1:2:0:0:
324,207,40425,1,0,0:0:0:0:
324,207,40506,1,0,1:0:0:0:
388,163,40668,1,0,1:0:0:0:
433,228,40830,1,4,1:2:0:0:
367,275,40993,1,0,1:2:0:0:
325,200,41155,1,2,1:2:0:0:
394,164,41317,1,0,0:0:0:0:
431,234,41479,1,2,1:2:0:0:
360,273,41642,1,0,0:0:0:0:
352,278,41723,1,0,0:0:0:0:
358,289,41804,2,0,P|367:343|375:378,1,46.25,0|0,1:0|0:0,0:0:0:0:
245,181,42128,6,0,B|212:102|212:102|291:46,1,166.499994918823,4|0,1:0|1:0,0:0:0:0:
289,40,42452,2,0,L|293:98,1,55.4999983062745,0|0,3:0|0:0,0:0:0:0:
358,153,42614,1,0,1:0:0:0:
358,153,42696,1,0,0:0:0:0:
358,153,42777,1,0,1:0:0:0:
401,89,42939,1,0,1:0:0:0:
364,22,43101,1,0,3:0:0:0:
364,52,43263,1,0,1:0:0:0:
496,201,43425,6,0,P|498:122|495:74,1,110.999996612549,4|0,1:0|0:0,0:0:0:0:
468,138,43669,1,0,1:0:0:0:
468,138,43750,1,0,3:0:0:0:
475,272,43912,1,0,1:0:0:0:
508,338,44074,1,0,3:0:0:0:
367,281,44236,1,0,1:0:0:0:
417,201,44398,1,0,1:0:0:0:
385,213,44560,1,0,3:0:0:0:
354,359,44723,5,4,1:0:0:0:
256,280,44966,1,0,0:0:0:0:
256,280,45047,1,0,1:0:0:0:
196,228,45209,1,0,1:0:0:0:
166,295,45371,1,2,1:2:0:0:
232,161,45614,1,0,0:0:0:0:
232,161,45696,1,0,1:0:0:0:
266,92,45858,1,0,1:0:0:0:
318,151,46020,1,4,1:2:0:0:
176,97,46182,1,2,0:0:0:0:
294,17,46344,1,0,1:0:0:0:
342,77,46506,1,0,1:0:0:0:
197,17,46669,2,0,P|125:6|95:-2,1,92.5,4|0,1:2|0:0,0:0:0:0:
106,1,46912,1,0,1:0:0:0:
106,1,46993,2,0,L|92:63,1,46.25,4|0,1:2|0:0,0:0:0:0:
39,94,47317,5,4,1:0:0:0:
71,161,47479,1,0,1:0:0:0:
92,232,47642,1,0,3:0:0:0:
254,184,47804,5,0,1:0:0:0:
473,94,47966,5,4,1:2:0:0:
441,161,48128,1,0,1:0:0:0:
420,232,48291,1,0,3:0:0:0:
254,91,48452,5,0,1:0:0:0:
257,55,48614,1,4,1:0:0:0:
249,25,48777,1,0,1:0:0:0:
263,7,48939,1,0,3:0:0:0:
293,110,49101,1,0,1:0:0:0:
162,101,49263,2,0,P|148:154|118:205,1,110.999996612549,6|0,1:2|1:0,0:0:0:0:
257,362,49587,5,0,3:0:0:0:
257,362,49750,1,0,1:0:0:0:
165,273,49912,5,4,1:0:0:0:
326,209,50074,1,0,0:0:0:0:
320,176,50155,1,0,1:0:0:0:
349,160,50236,1,4,1:0:0:0:
314,307,50398,5,0,1:0:0:0:
211,114,50560,1,4,1:0:0:0:
418,232,50723,1,0,1:0:0:0:
196,246,50885,1,4,1:0:0:0:
356,83,51047,1,0,1:0:0:0:
503,273,51209,6,0,P|418:261|323:387,1,221.999993225098,4|8,1:0|0:0,0:0:0:0:
443,343,51696,1,0,0:0:0:0:
307,239,51858,2,0,P|284:191|282:112,1,110.999996612549,0|2,0:0|0:2,0:0:0:0:
345,24,52182,1,8,0:0:0:0:
376,14,52263,1,0,0:0:0:0:
395,23,52344,1,0,0:0:0:0:
403,37,52425,1,0,0:0:0:0:
406,47,52506,5,0,0:0:0:0:
270,31,52669,1,2,0:2:0:0:
369,167,52831,5,8,0:0:0:0:
264,42,52993,1,0,0:0:0:0:
210,198,53155,6,0,P|212:249|229:330,1,110.999996612549,0|2,0:0|0:2,0:0:0:0:
93,353,53479,1,8,0:0:0:0:
46,225,53642,1,0,0:0:0:0:
61,229,53723,1,0,0:0:0:0:
52,238,53804,6,0,P|36:136|13:7,1,221.999993225098,4|8,0:2|0:0,0:0:0:0:
142,92,54290,1,0,0:0:0:0:
244,43,54452,1,0,0:0:0:0:
246,76,54533,1,0,0:0:0:0:
251,108,54614,1,2,0:2:0:0:
257,198,54777,1,8,0:0:0:0:
233,277,54939,1,0,0:0:0:0:
429,350,55101,5,4,0:2:0:0:
476,178,55263,1,0,0:0:0:0:
304,26,55425,5,8,0:0:0:0:
257,198,55587,1,0,0:0:0:0:
447,183,55750,5,8,0:0:0:0:
400,355,55912,1,0,0:0:0:0:
228,203,56074,5,8,0:0:0:0:
275,31,56236,1,8,0:0:0:0:
368,212,56398,6,0,B|256:176|278:305|171:320,1,221.999993225098,4|8,0:0|0:0,0:0:0:0:
339,294,56885,1,0,0:0:0:0:
162,230,57047,1,2,0:0:0:0:
133,212,57128,1,0,0:0:0:0:
105,211,57209,1,0,0:0:0:0:
85,222,57290,1,0,0:0:0:0:
78,237,57371,1,8,0:0:0:0:
46,305,57533,1,2,0:0:0:0:
131,135,57696,6,0,P|157:77|153:12,1,110.999996612549,2|0,0:0|0:0,0:0:0:0:
19,192,58020,1,10,0:0:0:0:
163,271,58182,1,0,0:0:0:0:
276,194,58344,1,2,0:0:0:0:
366,232,58506,1,0,0:0:0:0:
442,208,58669,1,10,0:0:0:0:
456,199,58750,1,0,0:0:0:0:
459,188,58831,1,2,0:0:0:0:
453,178,58912,1,0,0:0:0:0:
409,156,58993,5,4,0:2:0:0:
305,189,59155,1,0,0:0:0:0:
296,291,59317,1,2,0:2:0:0:
299,310,59642,5,4,0:2:0:0:
290,208,59804,1,2,0:2:0:0:
186,175,59966,1,4,0:2:0:0:
83,205,60128,1,0,0:0:0:0:
75,212,60209,1,0,0:0:0:0:
66,204,60290,6,0,L|30:83,1,110.999996612549,8|0,0:0|0:0,0:0:0:0:
191,46,60614,1,8,0:0:0:0:
102,19,60777,1,0,0:0:0:0:
299,268,60939,2,0,L|263:147,1,110.999996612549,8|0,0:0|0:0,0:0:0:0:
492,20,61263,6,0,P|484:21|479:23,1,13.875,4|0,0:0|0:0,0:0:0:0:
315,91,61587,6,0,P|384:71|459:53,1,138.750005292893,4|0,1:0|0:0,0:0:0:0:
170,142,62236,1,0,1:0:0:0:
315,91,62398,1,0,0:0:0:0:
247,130,62560,5,0,0:0:0:0:
94,176,62723,1,0,0:0:0:0:
246,356,62885,6,0,P|222:306|189:209,1,138.750005292893,4|0,1:0|0:0,0:0:0:0:
246,356,63371,1,0,0:0:0:0:
304,309,63533,1,0,1:0:0:0:
463,279,63696,5,0,0:0:0:0:
324,221,63858,1,4,0:0:0:0:
442,313,64020,1,0,0:0:0:0:
426,45,64182,6,0,P|411:115|386:208,1,138.75,4|0,1:2|0:0,0:0:0:0:
282,348,64506,1,4,1:0:0:0:
356,321,64669,1,0,0:0:0:0:
122,264,64831,5,0,1:0:0:0:
192,335,64993,1,0,1:0:0:0:
189,51,65155,5,8,1:0:0:0:
105,175,65317,1,8,1:0:0:0:
55,43,65479,5,4,1:0:0:0:
235,182,65642,1,0,1:0:0:0:
503,214,65804,5,12,1:0:0:0:
323,353,65967,1,8,0:1:0:0:
493,357,66128,5,4,1:0:0:0:
15,19,66452,1,4,0:0:0:0:
54,129,66777,5,0,1:0:0:0:
117,62,66939,1,0,1:0:0:0:
139,56,67020,1,2,0:0:0:0:
149,76,67101,1,0,1:0:0:0:
304,267,67263,5,0,1:0:0:0:
404,234,67425,2,0,L|376:104,1,92.5,0|2,1:0|0:0,0:0:0:0:
386,338,67750,5,2,1:0:0:0:
286,373,67912,1,0,1:0:0:0:
276,351,67993,1,0,0:0:0:0:
257,364,68074,1,0,1:0:0:0:
195,313,68236,1,2,0:0:0:0:
180,238,68398,1,0,1:0:0:0:
106,258,68560,1,2,0:0:0:0:
77,188,68723,1,0,1:0:0:0:
8,221,68885,1,2,0:0:0:0:
66,273,69047,1,0,1:0:0:0:
96,261,69128,1,0,0:0:0:0:
126,249,69209,1,2,0:0:0:0:
193,169,69371,5,0,1:0:0:0:
224,174,69452,1,2,0:0:0:0:
255,179,69533,1,2,0:0:0:0:
286,184,69614,1,2,0:0:0:0:
318,189,69696,2,0,P|315:155|317:137,3,46.25,0|2|2|2,1:0|0:0|0:0|0:0,0:0:0:0:
319,169,70020,5,4,1:2:0:0:
288,174,70101,1,2,0:0:0:0:
257,179,70182,1,2,0:0:0:0:
226,184,70263,1,2,0:0:0:0:
194,189,70345,2,0,P|197:155|195:137,3,46.25,0|2|2|2,1:0|0:0|0:0|0:0,0:0:0:0:
256,89,70669,5,4,1:0:0:0:
273,255,70831,1,2,1:2:0:0:
390,149,70993,1,8,1:0:0:0:
122,171,71155,1,2,1:3:0:0:
253,14,71317,5,4,1:2:0:0:
253,14,71479,1,2,1:3:0:0:
253,14,71642,1,10,1:0:0:0:
253,14,71804,1,0,1:0:0:0:
150,87,71966,5,0,1:0:0:0:
98,33,72128,2,0,P|66:36|41:41,2,46.25,0|0|0,0:0|0:0|1:0,0:0:0:0:
166,0,72452,1,2,0:0:0:0:
74,116,72614,2,0,P|84:167|92:237,1,92.5,0|2,1:0|0:0,0:0:0:0:
80,223,72858,1,2,0:3:0:0:
71,239,72939,1,2,1:3:0:0:
156,280,73101,1,0,1:3:0:0:
246,176,73263,6,0,P|332:190|436:200,1,185,0|0,1:0|1:0,0:0:0:0:
255,262,73750,1,0,0:0:0:0:
266,176,73912,2,0,P|180:190|76:200,1,185,0|0,1:0|1:0,0:0:0:0:
275,94,74398,1,0,1:0:0:0:
160,21,74560,5,2,1:0:0:0:
100,93,74723,1,2,0:0:0:0:
82,87,74804,1,2,0:0:0:0:
64,81,74885,1,0,1:0:0:0:
41,110,74966,1,2,0:0:0:0:
31,145,75047,1,2,0:0:0:0:
29,181,75128,1,2,0:0:0:0:
36,217,75209,1,4,1:0:0:0:
39,253,75290,1,2,0:0:0:0:
34,289,75371,1,2,0:0:0:0:
21,323,75452,1,2,0:0:0:0:
2,355,75533,2,0,P|34:368|54:380,2,46.25,0|2|2,1:0|0:0|0:0,0:0:0:0:
119,326,75858,5,6,1:0:0:0:
181,255,76020,1,0,1:0:0:0:
121,183,76182,1,8,1:0:0:0:
121,183,76344,1,0,1:0:0:0:
380,133,76506,5,4,1:0:0:0:
288,295,76669,1,8,1:0:0:0:
250,161,76831,1,12,1:0:0:0:
423,267,76993,1,0,1:0:0:0:
502,193,77155,5,4,1:0:0:0:
380,117,77479,1,0,3:0:0:0:
279,214,77804,1,0,0:0:0:0:
357,229,77966,2,0,P|386:214|429:199,2,74,0|0|0,1:0|3:0|1:0,0:0:0:0:
260,366,78452,5,4,1:2:0:0:
160,294,78614,1,0,0:0:0:0:
189,170,78777,1,0,3:0:0:0:
340,110,78939,2,0,P|291:92|198:38,1,148,0|0,1:0|0:0,0:0:0:0:
87,92,79425,2,0,P|82:157|71:186,1,74,2|0,3:2|1:0,0:0:0:0:
175,275,79750,5,2,1:2:0:0:
279,228,79912,1,0,1:0:0:0:
375,285,80074,2,0,L|453:259,1,74,0|0,3:0|1:0,0:0:0:0:
292,368,80398,5,4,1:2:0:0:
292,368,80560,1,0,1:0:0:0:
94,309,80722,2,0,L|16:283,1,74,0|0,3:0|1:0,0:0:0:0:
132,377,81047,5,4,1:0:0:0:
260,290,81209,1,2,0:0:0:0:
129,230,81371,5,0,3:0:0:0:
71,137,81533,1,4,0:0:0:0:
227,24,81696,5,8,3:0:0:0:
301,268,81858,1,4,3:0:0:0:
256,116,82020,1,4,3:0:0:0:
278,197,82182,1,4,1:3:0:0:
301,268,82344,6,0,P|292:236|268:175,1,74,0|0,1:0|0:0,0:0:0:0:
262,344,82669,1,0,3:0:0:0:
493,301,82831,2,0,P|414:319|335:362,1,148,0|0,1:0|1:0,0:0:0:0:
269,348,83317,1,0,3:0:0:0:
363,259,83479,1,0,1:0:0:0:
380,253,83560,1,0,0:0:0:0:
368,238,83642,2,0,P|349:200|333:145,1,74,2|0,1:2|0:0,0:0:0:0:
444,115,83966,1,2,3:2:0:0:
342,43,84128,2,0,P|272:56|249:125,1,148,0|0,1:0|1:0,0:0:0:0:
262,222,84614,1,2,3:2:0:0:
262,222,84777,1,0,0:0:0:0:
140,357,84939,5,2,1:2:0:0:
37,288,85101,1,0,0:0:0:0:
97,178,85263,1,0,3:0:0:0:
97,178,85425,1,0,0:0:0:0:
37,288,85587,5,2,1:2:0:0:
97,178,85750,1,0,0:0:0:0:
226,234,85912,1,4,3:2:0:0:
310,154,86074,1,0,0:0:0:0:
297,140,86155,1,0,0:0:0:0:
284,125,86236,2,0,L|320:12,1,92.5,0|0,1:0|0:0,0:0:0:0:
312,36,86479,1,0,1:0:0:0:
312,36,86560,1,0,3:0:0:0:
482,189,86723,1,0,1:0:0:0:
256,360,86885,5,8,3:0:0:0:
162,266,87047,1,4,3:0:0:0:
416,97,87209,6,0,P|425:78|427:57,1,41.6249987297059,4|0,1:0|0:0,0:0:0:0:
412,34,87533,6,0,P|420:113|425:200,1,138.750005292893,4|2,1:0|0:3,0:0:0:0:
430,246,87858,1,0,3:0:0:0:
330,335,88020,2,0,P|407:329|412:265,1,138.75,2|0,1:3|0:0,0:0:0:0:
358,238,88344,2,0,P|310:229|262:258,2,92.5,2|0|2,1:3|3:0|1:3,0:0:0:0:
239,329,88831,5,0,1:0:0:0:
164,259,88993,1,2,0:3:0:0:
224,183,89155,1,0,3:0:0:0:
174,261,89317,2,0,P|278:250|365:236,1,185,2|2,1:3|1:3,0:0:0:0:
144,188,89804,2,0,P|79:180|45:171,1,92.5,2|0,3:1|1:3,0:0:0:0:
181,78,90128,5,2,1:0:0:0:
264,121,90290,1,0,1:3:0:0:
175,113,90452,1,2,3:1:0:0:
266,88,90614,1,0,1:3:0:0:
351,150,90777,5,4,1:2:0:0:
240,163,90939,1,2,1:2:0:0:
240,163,91020,1,0,0:0:0:0:
240,163,91101,1,0,3:0:0:0:
339,67,91263,1,2,1:2:0:0:
180,37,91425,5,4,1:0:0:0:
272,27,91587,1,0,0:3:0:0:
106,100,91750,5,0,3:0:0:0:
206,71,91912,1,4,0:3:0:0:
11,31,92074,5,8,3:0:0:0:
123,67,92236,1,4,3:3:0:0:
253,115,92398,1,4,3:0:0:0:
365,151,92560,1,4,1:3:0:0:
385,251,92723,6,0,P|336:255|312:211,1,92.5,0|2,1:0|0:3,0:0:0:0:
435,186,93047,1,0,3:0:0:0:
464,265,93209,2,0,P|459:187|451:94,1,138.75,2|0,1:3|0:0,0:0:0:0:
442,106,93533,1,2,1:0:0:0:
498,35,93696,1,0,3:0:0:0:
408,15,93858,1,2,1:0:0:0:
390,29,93939,1,0,1:0:0:0:
372,43,94020,1,6,1:2:0:0:
278,8,94182,5,0,0:0:0:0:
250,98,94344,1,2,3:2:0:0:
86,59,94506,2,0,P|149:62|293:59,1,185,2|2,1:0|1:0,0:0:0:0:
95,152,94993,2,0,P|36:130|18:101,1,92.5,0|2,3:1|1:0,0:0:0:0:
187,163,95317,5,6,1:0:0:0:
155,247,95479,1,0,0:0:0:0:
173,175,95642,1,0,3:0:0:0:
234,244,95804,1,0,1:0:0:0:
363,159,95966,5,6,1:2:0:0:
311,244,96128,1,0,0:0:0:0:
311,244,96209,1,0,0:0:0:0:
311,244,96290,1,4,3:2:0:0:
281,156,96452,1,0,1:0:0:0:
410,263,96614,5,4,1:0:0:0:
431,173,96777,1,0,0:0:0:0:
504,270,96939,1,4,3:2:0:0:
512,180,97101,1,0,0:0:0:0:
250,364,97263,6,0,P|298:359|368:348,1,92.5,4|0,3:1|0:0,0:0:0:0:
262,20,97587,2,0,P|214:25|144:36,1,92.5,4|2,1:0|0:0,0:0:0:0:
347,47,97912,5,2,1:2:0:0:
170,31,98155,1,0,0:0:0:0:
170,31,98236,1,0,1:0:0:0:
258,98,98398,1,0,1:0:0:0:
347,47,98560,1,2,1:2:0:0:
477,236,98804,1,0,0:0:0:0:
477,236,98885,1,0,1:0:0:0:
393,170,99047,1,0,1:0:0:0:
300,220,99209,5,4,1:2:0:0:
421,348,99371,1,0,1:2:0:0:
343,364,99533,1,2,1:2:0:0:
375,201,99696,1,0,0:0:0:0:
183,333,99858,2,0,L|281:295,1,92.5,2|0,1:2|0:0,0:0:0:0:
276,290,100101,1,0,0:0:0:0:
261,288,100182,2,0,L|205:267,1,46.25,0|0,1:0|1:0,0:0:0:0:
362,228,100506,6,0,P|339:162|244:181,1,166.499994918823,4|0,1:0|0:0,0:0:0:0:
240,193,100831,2,0,P|249:142|228:88,1,110.999996612549,0|0,3:0|1:0,0:0:0:0:
104,55,101155,1,0,1:0:0:0:
33,161,101317,1,0,1:0:0:0:
109,142,101479,1,0,3:0:0:0:
162,190,101642,1,0,1:0:0:0:
68,360,101804,5,4,1:0:0:0:
73,338,101885,1,0,0:0:0:0:
78,316,101966,1,0,0:0:0:0:
83,294,102047,1,0,0:0:0:0:
87,272,102128,1,0,3:0:0:0:
104,163,102290,1,0,1:0:0:0:
91,70,102452,1,0,3:0:0:0:
91,70,102777,1,0,1:0:0:0:
100,1,102939,1,0,3:0:0:0:
256,63,103101,5,4,1:0:0:0:
256,63,103344,1,0,0:0:0:0:
256,63,103425,1,0,1:0:0:0:
280,159,103587,1,0,1:0:0:0:
273,239,103750,1,2,1:2:0:0:
461,384,103993,1,0,0:0:0:0:
461,384,104074,1,0,1:0:0:0:
437,288,104236,1,0,1:0:0:0:
444,208,104399,5,4,1:2:0:0:
356,88,104560,1,2,0:0:0:0:
497,132,104723,1,0,1:0:0:0:
351,182,104885,1,0,1:0:0:0:
438,55,105047,1,4,1:2:0:0:
372,15,105209,1,0,0:0:0:0:
372,15,105290,1,0,0:0:0:0:
372,15,105371,2,0,B|381:68|352:64|329:77|336:136,1,110.999996612549,4|0,1:2|0:0,0:0:0:0:
377,259,105696,5,4,1:0:0:0:
441,220,105858,1,0,1:0:0:0:
298,348,106020,5,0,3:0:0:0:
172,246,106182,1,0,1:0:0:0:
107,128,106344,5,4,1:2:0:0:
72,102,106506,1,0,1:0:0:0:
238,205,106668,5,0,3:0:0:0:
326,141,106830,1,0,1:0:0:0:
377,55,106993,5,4,1:0:0:0:
455,6,107155,1,0,1:0:0:0:
238,137,107317,5,0,3:0:0:0:
90,33,107479,1,0,1:0:0:0:
107,157,107642,5,6,1:2:0:0:
202,25,107804,1,0,1:0:0:0:
108,132,107966,5,0,3:0:0:0:
195,49,108128,1,0,1:0:0:0:
243,320,108290,5,4,1:0:0:0:
190,379,108452,1,0,0:0:0:0:
239,200,108614,5,4,1:0:0:0:
102,174,108777,1,0,1:0:0:0:
190,379,108939,5,4,1:0:0:0:
90,259,109101,1,0,1:0:0:0:
244,203,109263,5,4,1:0:0:0:
230,1,109425,1,0,1:0:0:0:
370,146,109587,6,0,B|403:236|328:284|463:326|492:261,1,221.999993225098,4|8,1:0|0:0,0:0:0:0:
508,183,110074,1,0,0:0:0:0:
436,103,110236,2,0,P|358:114|341:146,1,110.999996612549,0|2,0:0|0:2,0:0:0:0:
215,191,110560,5,8,0:0:0:0:
227,209,110642,1,0,0:0:0:0:
239,227,110723,1,0,0:0:0:0:
251,245,110804,1,0,0:0:0:0:
262,263,110885,1,0,0:0:0:0:
316,202,111047,1,2,0:2:0:0:
337,284,111209,1,8,0:0:0:0:
237,189,111371,1,0,0:0:0:0:
371,148,111533,2,0,P|436:181|479:197,1,110.999996612549,0|2,0:0|0:2,0:0:0:0:
470,216,111777,1,0,0:0:0:0:
448,219,111858,1,8,0:0:0:0:
296,114,112020,1,0,0:0:0:0:
512,95,112182,6,0,P|460:74|351:14,1,166.499994918823,4|0,0:2|0:0,0:0:0:0:
341,28,112506,1,8,0:0:0:0:
209,113,112669,1,0,0:0:0:0:
230,23,112831,1,0,0:0:0:0:
307,106,112993,1,2,0:2:0:0:
112,112,113155,2,0,P|129:46|137:-8,1,110.999996612549,8|0,0:0|0:0,0:0:0:0:
26,104,113479,5,4,0:2:0:0:
177,201,113642,1,0,0:0:0:0:
71,199,113804,5,8,0:0:0:0:
281,195,113966,1,0,0:0:0:0:
235,280,114128,5,8,0:0:0:0:
331,112,114290,1,0,0:0:0:0:
34,261,114452,5,8,0:0:0:0:
125,95,114614,1,8,0:0:0:0:
257,182,114777,5,4,0:0:0:0:
278,185,114858,1,0,0:0:0:0:
299,188,114939,1,0,0:0:0:0:
320,191,115020,1,0,0:0:0:0:
341,194,115101,1,8,0:0:0:0:
423,294,115263,1,0,0:0:0:0:
506,167,115425,2,0,P|495:101|480:42,1,110.999996612549,2|0,0:0|0:0,0:0:0:0:
462,59,115669,1,0,0:0:0:0:
466,80,115750,1,8,0:0:0:0:
497,248,115912,1,2,0:0:0:0:
378,144,116074,5,2,0:0:0:0:
358,133,116155,1,0,0:0:0:0:
338,122,116236,1,0,0:0:0:0:
316,115,116317,1,0,0:0:0:0:
294,110,116398,1,10,0:0:0:0:
193,46,116560,1,0,0:0:0:0:
294,6,116723,1,2,0:0:0:0:
315,8,116804,1,0,0:0:0:0:
336,14,116885,1,0,0:0:0:0:
199,154,117047,5,10,0:0:0:0:
94,104,117209,1,2,0:0:0:0:
193,46,117371,2,0,P|193:89|185:213,1,138.75,4|0,0:2|0:0,0:0:0:0:
186,203,117696,1,2,0:2:0:0:
250,289,117858,1,2,0:2:0:0:
287,221,118020,1,4,0:2:0:0:
164,294,118182,1,2,0:2:0:0:
102,245,118344,1,4,0:2:0:0:
58,282,118506,1,0,0:0:0:0:
21,253,118669,5,8,0:0:0:0:
13,236,118831,1,0,0:0:0:0:
25,228,118993,1,8,0:0:0:0:
18,223,119155,1,0,0:0:0:0:
21,217,119317,1,8,0:0:0:0:
496,218,119642,6,0,P|489:214|484:208,1,13.875,4|0,0:0|2:0,0:0:0:0:
340,106,119966,6,0,P|389:141|460:215,1,138.750005292893,4|0,1:0|0:0,0:0:0:0:
285,235,120614,1,0,1:0:0:0:
140,201,120939,1,0,0:0:0:0:
72,232,121101,1,0,0:0:0:0:
24,167,121263,2,0,P|46:139|59:98,1,69.3750026464463,4|0,1:0|0:0,0:0:0:0:
23,48,121587,1,0,0:0:0:0:
23,48,121750,1,0,0:0:0:0:
173,126,121912,1,0,1:0:0:0:
241,157,122074,1,0,0:0:0:0:
290,327,122236,5,4,0:0:0:0:
222,296,122398,1,0,0:0:0:0:
367,309,122560,6,0,B|404:279|364:245|423:203,1,104.06250396967,4|0,1:2|0:0,0:0:0:0:
498,85,122885,6,0,B|394:105|448:-20|315:15,1,180.374991743088,4|2,1:0|0:0,0:0:0:0:
215,91,123209,1,0,1:0:0:0:
247,18,123371,1,0,1:0:0:0:
281,251,123533,5,8,1:0:0:0:
178,165,123696,1,8,1:0:0:0:
412,210,123858,5,4,1:0:0:0:
232,310,124020,1,0,1:0:0:0:
445,183,124182,5,12,1:0:0:0:
201,328,124344,1,8,0:1:0:0:
205,54,124506,5,4,1:0:0:0:
37,350,124831,6,0,P|42:346|52:345,1,13.875,4|0,0:0|0:0,0:0:0:0:
78,343,125155,6,0,P|103:297|106:244,1,92.5,4|0,1:0|0:0,0:0:0:0:
223,177,125479,2,0,P|184:124|171:1,2,185,0|0|0,1:0|1:0|1:0,0:0:0:0:
366,226,126290,1,0,0:0:0:0:
382,217,126371,1,0,0:0:0:0:
400,218,126452,1,0,1:0:0:0:
298,278,126614,1,0,3:0:0:0:
506,343,126777,5,0,1:0:0:0:
467,246,126939,2,0,B|364:251|406:348|302:352,1,185,0|0,1:0|1:0,0:0:0:0:
172,292,127425,1,2,1:0:0:0:
155,282,127506,1,0,0:0:0:0:
136,283,127587,1,0,0:0:0:0:
183,366,127750,6,0,P|236:348|241:301,1,92.5,2|0,1:0|0:0,0:0:0:0:
256,212,128074,1,0,1:0:0:0:
97,118,128236,2,0,P|37:165|96:262,1,185,0|0,1:0|1:0,0:0:0:0:
87,263,128642,1,0,0:0:0:0:
101,251,128723,1,0,1:0:0:0:
168,183,128885,1,0,1:0:0:0:
269,129,129047,5,6,1:0:0:0:
382,209,129209,1,0,1:0:0:0:
475,176,129371,1,0,1:0:0:0:
498,106,129533,1,0,0:0:0:0:
467,60,129696,5,0,1:0:0:0:
467,60,129858,1,8,1:0:0:0:
494,158,130020,1,8,1:0:0:0:
416,265,130182,1,0,1:0:0:0:
244,303,130344,6,0,P|281:276|292:223,1,92.5,0|0,1:0|0:0,0:0:0:0:
129,73,130669,2,0,P|92:100|81:153,1,92.5,0|0,1:0|0:0,0:0:0:0:
252,68,130993,6,0,B|220:50|220:50|267:11|267:11|323:26|323:26|349:5|349:5|327:32|327:32|349:71|349:71|324:39|324:39|302:73|302:73|296:74|296:74|246:154,1,416.250015878678,0|0,1:0|1:0,0:0:0:0:
244,303,131642,6,0,P|281:276|292:223,1,92.5,4|0,1:0|0:0,0:0:0:0:
129,73,131966,2,0,P|92:100|81:153,1,92.5,0|0,1:0|0:0,0:0:0:0:
258,145,132290,6,0,B|278:4|278:4|251:69|251:69|311:82|311:82|317:107|317:107|323:100|323:100|346:117,1,314.500005998612,6|0,1:0|1:0,0:0:0:0:
463,64,132777,1,0,1:0:0:0:
242,217,132939,6,0,B|220:275|220:275|326:260,1,157.250002999306,6|0,1:0|0:0,0:0:0:0:
461,319,133263,2,0,B|483:377|483:377|377:362,1,157.250002999306,2|0,1:0|0:0,0:0:0:0:
400,211,133587,1,2,1:0:0:0:
403,197,133669,1,0,0:0:0:0:
401,185,133750,1,0,0:0:0:0:
254,68,133912,1,2,1:0:0:0:
251,82,133994,1,0,0:0:0:0:
253,94,134075,1,0,0:0:0:0:
90,290,134236,6,0,B|106:348|140:357|140:357|107:347|120:261,1,157.250002999306,6|2,1:0|1:0,0:0:0:0:
236,349,134560,5,2,1:0:0:0:
347,205,134723,5,0,1:0:0:0:
210,55,134885,5,0,1:0:0:0:
11,181,135209,6,0,P|18:191|22:192,1,13.875,0|0,1:0|0:0,0:0:0:0:
17,219,135533,1,4,0:1:0:0:
262,45,139425,6,0,P|266:109|271:251,1,185,4|0,0:0|3:0,0:0:0:0:
266,304,140074,1,0,3:0:0:0:
270,380,140398,1,0,3:0:0:0:
69,198,140723,5,4,3:1:0:0:
140,124,141047,1,8,0:0:0:0:
191,184,141209,1,0,1:0:0:0:
262,114,141371,1,0,1:0:0:0:
339,9,141696,1,8,0:0:0:0:
383,106,141858,1,0,1:0:0:0:
486,5,142020,1,4,3:1:0:0:
486,5,142182,1,0,0:0:0:0:
411,23,142344,2,0,P|414:81|421:128,1,92.5,0|0,1:0|0:0,0:0:0:0:
473,172,142669,2,0,P|469:242|463:336,1,138.75,0|0,1:0|1:0,0:0:0:0:
450,323,142993,2,0,P|463:340|471:315,1,46.25,0|0,1:0|0:0,0:0:0:0:
359,337,143317,6,0,P|337:339|355:359,1,46.25,4|0,1:0|0:0,0:0:0:0:
393,262,143479,2,0,P|401:242|375:247,1,46.25,2|0,0:0|0:0,0:0:0:0:
262,268,143642,6,0,B|282:265|323:268,1,46.25,0|0,1:0|0:0,0:0:0:0:
241,200,143804,2,0,B|244:220|241:261,1,46.25,0|0,1:0|0:0,0:0:0:0:
306,173,143966,2,0,B|286:176|245:173,1,46.25,4|0,1:2|0:0,0:0:0:0:
121,224,144128,2,0,B|147:226|167:223,1,46.25,2|0,0:0|0:0,0:0:0:0:
308,267,144290,6,0,B|288:264|247:267,1,46.25,0|0,1:0|0:0,0:0:0:0:
329,199,144452,2,0,B|326:219|329:260,1,46.25,0|0,1:0|0:0,0:0:0:0:
259,173,144614,2,0,B|279:176|320:173,1,46.25,4|0,1:0|0:0,0:0:0:0:
204,312,144777,5,2,0:0:0:0:
406,231,144939,1,0,1:0:0:0:
242,88,145101,1,0,1:0:0:0:
174,143,145263,1,4,1:2:0:0:
113,80,145425,1,2,0:0:0:0:
44,109,145587,2,0,P|47:49|45:8,1,92.5,0|2,1:0|1:2,0:0:0:0:
304,148,145912,6,0,P|329:96|466:118,1,208.125007939339,6|0,1:0|0:0,0:0:0:0:
365,202,146236,2,0,B|345:246|376:278|360:345,2,138.750005292893,8|0|4,1:0|0:0|1:2,0:0:0:0:
282,286,146723,1,0,0:0:0:0:
509,307,146885,2,0,P|497:218|329:228,1,277.500010585785,8|0,1:0|0:0,0:0:0:0:
338,213,147533,6,0,P|261:211|149:191,1,161.87500154376,12|0,1:0|0:0,0:0:0:0:
27,106,147858,6,0,P|106:118|235:119,1,185,8|0,1:0|0:0,0:0:0:0:
497,55,148182,6,0,P|393:50|173:16,1,312.187511909008,12|0,1:0|0:0,0:0:0:0:
165,5,148506,2,0,P|149:8|134:6,28,17.3437506616116,0|0|0|0|0|0|0|0|0|0|0|0|0|0|0|0|0|0|0|0|0|0|0|0|0|0|0|0|0,0:0|2:0|2:0|2:0|0:0|2:0|0:0|2:0|0:0|2:0|0:0|2:0|0:0|2:0|0:0|2:0|0:0|2:0|0:0|2:0|0:0|2:0|0:0|2:0|0:0|2:0|0:0|2:0|0:0,0:0:0:0:
81,73,149804,6,0,P|57:170|16:312,1,240.499988990784,0|8,0:0|0:0,0:0:0:0:
207,192,150290,1,0,0:0:0:0:
208,178,150371,1,0,0:0:0:0:
212,163,150452,2,0,P|232:87|239:31,1,120.249994495392,0|2,0:0|0:2,0:0:0:0:
370,248,150777,1,8,0:0:0:0:
237,45,150939,1,0,0:0:0:0:
248,53,151020,1,0,0:0:0:0:
255,60,151101,2,0,P|308:117|352:152,1,120.249994495392,0|2,0:0|0:2,0:0:0:0:
222,166,151425,2,0,P|304:147|360:142,1,120.249994495392,8|0,0:0|0:0,0:0:0:0:
0,51,151750,2,0,P|94:67|185:95,1,180.374991743088,0|0,0:0|0:0,0:0:0:0:
201,99,152074,1,8,0:0:0:0:
136,42,152236,1,0,0:0:0:0:
201,99,152398,5,4,0:2:0:0:
124,207,152560,1,2,0:2:0:0:
14,156,152723,1,8,0:0:0:0:
25,241,152885,1,0,0:0:0:0:
31,230,152966,1,0,0:0:0:0:
46,225,153047,5,0,0:0:0:0:
123,117,153209,1,2,0:2:0:0:
233,168,153372,1,8,0:0:0:0:
123,117,153533,1,0,0:0:0:0:
106,324,153696,5,6,0:0:0:0:
238,272,153858,1,0,0:0:0:0:
512,149,154020,5,8,0:0:0:0:
380,97,154182,1,0,0:0:0:0:
511,178,154344,5,10,0:0:0:0:
363,111,154506,1,0,0:0:0:0:
75,309,154669,5,10,0:0:0:0:
223,242,154831,1,8,0:0:0:0:
90,326,154993,6,0,P|109:249|142:73,1,240.499988990784,4|8,0:0|0:0,0:0:0:0:
264,91,155479,1,2,0:0:0:0:
275,63,155560,1,0,0:0:0:0:
302,50,155642,1,2,0:0:0:0:
331,47,155723,1,0,0:0:0:0:
358,58,155804,1,0,0:0:0:0:
464,121,155966,1,10,0:0:0:0:
399,242,156128,1,2,0:0:0:0:
263,198,156290,6,0,B|215:206|190:166|132:178,1,120.249994495392,2|0,0:0|0:0,0:0:0:0:
36,47,156614,1,10,0:0:0:0:
108,19,156777,1,0,0:0:0:0:
147,176,156939,2,0,B|67:133|140:52|25:13,1,180.374991743088,2|0,0:0|0:0,0:0:0:0:
19,10,157263,1,8,0:0:0:0:
19,10,157425,1,0,0:0:0:0:
147,176,157587,5,4,0:2:0:0:
95,248,157750,1,0,0:0:0:0:
45,303,157912,1,2,0:2:0:0:
378,132,158236,5,4,0:2:0:0:
430,60,158399,1,2,0:2:0:0:
480,5,158561,1,4,0:2:0:0:
480,5,158723,1,0,0:0:0:0:
344,42,158885,5,8,0:0:0:0:
441,175,159047,1,0,0:0:0:0:
266,135,159209,5,8,0:0:0:0:
271,223,159371,1,0,0:0:0:0:
104,157,159533,5,8,0:0:0:0:
125,222,159858,2,0,P|119:218|112:216,1,13.875,4|0,0:0|2:0,0:0:0:0:
75,272,160182,6,0,B|84:235|84:235|171:201|238:255|238:255|231:314,1,240.499988990784,4|8,1:0|0:0,0:0:0:0:
147,346,160669,1,0,0:0:0:0:
147,346,160831,1,0,0:0:0:0:
151,218,160993,1,2,0:2:0:0:
130,196,161074,1,0,0:0:0:0:
153,177,161155,2,0,P|149:107|140:41,1,120.249994495392,8|0,0:0|0:0,0:0:0:0:
282,137,161479,6,0,P|369:129|424:32,1,180.374991743088,0|0,0:0|0:0,0:0:0:0:
420,25,161804,2,0,P|431:88|438:172,1,120.249994495392,8|0,0:0|0:0,0:0:0:0:
273,279,162128,2,0,P|206:258|150:88,1,240.499988990784,0|8,0:0|0:0,0:0:0:0:
40,29,162614,1,0,0:0:0:0:
142,22,162777,5,4,0:2:0:0:
49,128,162939,1,2,0:2:0:0:
184,146,163101,1,8,0:0:0:0:
40,29,163263,1,0,0:0:0:0:
217,58,163425,5,0,0:0:0:0:
268,191,163587,1,2,0:2:0:0:
114,199,163750,1,8,0:0:0:0:
184,146,163912,1,0,0:0:0:0:
219,301,164074,5,6,0:0:0:0:
396,212,164236,1,0,0:0:0:0:
184,146,164398,1,8,0:0:0:0:
392,338,164560,1,0,0:0:0:0:
263,98,164723,6,0,P|186:112|110:119,1,120.249994495392,10|0,0:0|0:0,0:0:0:0:
318,380,165047,2,0,P|395:366|471:359,1,120.249994495392,10|8,0:0|0:0,0:0:0:0:
274,220,165371,5,4,0:0:0:0:
250,225,165452,1,0,0:0:0:0:
226,230,165533,1,0,0:0:0:0:
202,235,165614,1,0,0:0:0:0:
178,240,165696,1,8,0:0:0:0:
76,175,165858,1,0,0:0:0:0:
303,98,166020,2,0,P|345:151|352:225,1,120.249994495392,2|0,0:0|0:0,0:0:0:0:
231,332,166344,5,8,0:0:0:0:
134,119,166506,1,2,0:0:0:0:
118,100,166587,1,0,0:0:0:0:
139,89,166669,2,0,P|192:47|266:40,1,120.249994495392,2|0,0:0|0:0,0:0:0:0:
197,177,166993,1,10,0:0:0:0:
47,74,167155,1,0,0:0:0:0:
123,217,167317,2,0,P|139:284|153:366,1,120.249994495392,2|0,0:0|0:0,0:0:0:0:
226,325,167642,5,8,0:0:0:0:
243,248,167804,1,0,0:0:0:0:
401,312,167966,5,4,0:2:0:0:
388,236,168128,1,0,0:0:0:0:
161,122,168290,5,2,0:2:0:0:
184,194,168452,1,2,0:2:0:0:
206,120,168614,1,4,0:2:0:0:
149,173,168777,1,2,0:2:0:0:
421,26,168939,5,4,0:2:0:0:
446,99,169101,1,0,0:0:0:0:
298,166,169263,5,10,0:0:0:0:
327,39,169425,1,0,0:0:0:0:
130,77,169587,5,8,0:0:0:0:
173,251,169750,1,0,0:0:0:0:
318,193,169912,5,10,0:0:0:0:
310,17,170074,1,0,0:0:0:0:
240,274,170236,5,6,0:0:0:0:
60,69,170398,1,0,0:0:0:0:
28,312,170560,6,0,B|48:300|48:300|80:304|80:304|98:270|98:270|120:240|120:240|99:242|100:223|100:223|99:242|80:240|80:240|98:270|98:270|117:305|117:305|148:300|148:300|171:316,1,314.500005998612,4|8,1:0|0:0,0:0:0:0:
248,227,171047,2,0,B|261:225|259:193|259:193|239:213|251:244,1,78.6250014996529,0|0,0:0|0:0,0:0:0:0:
252,300,171209,2,0,B|276:308|276:308|252:320|252:320|268:316|268:316|272:332|272:332|276:308|276:308|328:284|328:284|336:268|336:268|340:252|340:252|332:260|332:260|320:256|320:256|336:268|336:268|360:244,1,235.875004498959,0|0,0:0|0:0,0:0:0:0:
408,320,171533,2,0,B|395:322|397:354|397:354|417:334|405:303,1,78.6250014996529,8|0,0:0|0:0,0:0:0:0:
452,252,171696,2,0,B|440:240|448:212|448:212|440:240|404:256,1,78.6250014996529,0|0,0:0|0:0,0:0:0:0:
504,132,171858,6,0,B|524:92|496:36|496:36|472:12|448:32|448:32|404:80|424:156,1,235.875004498959,0|0,0:0|0:0,0:0:0:0:
424,40,172182,2,0,B|404:80|432:136|432:136|456:160|480:140|480:140|524:92|504:16,1,235.875004498959,8|0,0:0|0:0,0:0:0:0:
504,132,172506,2,0,B|524:92|496:36|496:36|472:12|448:32|448:32|404:80|424:156,1,235.875004498959,0|0,0:0|0:0,0:0:0:0:
316,180,172831,2,0,B|332:208|356:208|356:208|344:196|344:176,1,78.6250014996529,8|0,0:0|0:0,0:0:0:0:
268,108,172993,2,0,B|280:60|244:72|248:12,1,78.6250014996529,0|0,0:0|0:0,0:0:0:0:
236,188,173155,6,0,B|208:256|208:256|216:236|216:236|152:216|152:216|152:220|152:220|124:212|124:212|120:196|120:196|112:208|112:208|64:192,1,235.875004498959,4|0,0:2|0:0,0:0:0:0:
72,140,173479,2,0,B|80:109|80:109|76:112|76:112|80:109|80:109|100:39,1,78.6250014996529,8|0,0:0|0:0,0:0:0:0:
90,75,173642,2,0,B|81:105|81:105|85:102|85:102|81:105|81:105|61:175,1,78.6250014996529,0|0,0:0|0:0,0:0:0:0:
8,44,173804,6,0,B|-8:24|-8:24|68:16,1,78.6250014996529,0|0,0:0|0:0,0:0:0:0:
139,179,173966,2,0,B|155:199|155:199|79:207,1,78.6250014996529,2|0,0:2|0:0,0:0:0:0:
174,73,174128,6,0,B|196:60|196:60|128:25,1,78.6250014996529,8|0,0:0|0:0,0:0:0:0:
0,158,174290,2,0,B|-22:170|-22:170|45:205,1,78.6250014996529,0|0,0:0|0:0,0:0:0:0:
204,292,174452,6,0,B|225:301|225:301|300:142|300:142|284:134|284:134|264:175,1,235.875004498959,6|0,0:0|0:0,0:0:0:0:
275,151,174777,6,0,B|254:142|254:142|232:193|232:193|206:212|206:212|206:246|206:246|179:301|179:301|195:309|195:309|215:268,1,249.749992378235,10|0,0:0|0:0,0:0:0:0:
206,285,175101,6,0,B|227:294|227:294|249:243|249:243|285:228|285:228|274:189|274:189|302:135|302:135|286:127|286:127|266:168,1,263.624992960453,10|0,0:0|0:0,0:0:0:0:
273,151,175425,6,0,B|252:142|252:142|230:193|230:193|186:205|186:205|204:246|204:246|177:301|177:301|193:309|193:309|213:268,1,277.5,10|0,0:0|0:0,0:0:0:0:
370,127,175750,6,0,B|365:146|365:146|388:129|450:102|500:124|500:124|452:102|434:43|443:8|443:8|409:43,1,346.875,4|0,0:0|0:0,0:0:0:0:
328,51,176074,5,8,0:0:0:0:
254,25,176236,2,0,B|240:8|214:18|214:18|234:15|269:54,1,87.8749976534844,0|0,0:0|0:0,0:0:0:0:
281,106,176398,2,0,B|313:145|310:208|209:230|197:113|134:79|66:126|89:198,1,263.624992960453,2|0,0:0|0:0,0:0:0:0:
45,211,176723,2,0,B|28:207|28:207|2:226|14:253|14:253|82:280,1,87.8749976534844,8|0,0:0|0:0,0:0:0:0:
88,350,176885,2,0,B|105:354|105:354|131:335|119:308|119:308|51:281,1,87.8749976534844,2|0,0:0|0:0,0:0:0:0:
45,211,177047,6,0,B|28:207|28:207|2:226|14:253|14:253|266:315,1,263.624992960453,2|0,0:0|0:0,0:0:0:0:
208,299,177371,2,0,B|225:303|225:303|251:284|239:257|239:257|-13:195,1,263.624992960453,10|0,0:0|0:0,0:0:0:0:
45,211,177696,2,0,B|28:207|28:207|2:226|14:253|14:253|266:315,1,263.624992960453,2|0,0:0|0:0,0:0:0:0:
270,184,178020,5,8,0:0:0:0:
296,110,178182,1,0,0:0:0:0:
13,96,178344,1,4,0:2:0:0:
353,160,178993,2,0,L|-58:82,1,346.875,4|0,0:2|0:0,0:0:0:0:
12,84,179317,2,0,L|352:148,1,346.875,4|0,0:2|0:0,0:0:0:0:
505,186,179642,5,10,0:0:0:0:
434,169,179804,1,0,0:0:0:0:
7,198,179966,5,8,0:0:0:0:
75,213,180128,1,0,0:0:0:0:
212,364,180290,6,0,L|281:12,1,346.875,10|0,0:0|0:0,0:0:0:0:
282,34,180614,2,0,L|284:44,1,9.25,6|0,0:0|0:0,0:0:0:0:
212,364,180939,6,0,L|281:12,1,346.875,4|2,1:0|0:0,0:0:0:0:
372,39,181263,2,0,B|423:46|423:46|444:71|444:71|441:74|441:74|461:100|461:100|411:96|411:96|408:101|408:101|407:94|407:94|329:80,1,231.25,8|0,0:0|0:0,0:0:0:0:
134,234,181587,6,0,B|101:201|36:212|36:212|134:181|176:284,1,231.25,6|0,0:0|0:0,0:0:0:0:
341,333,181912,2,0,B|374:366|439:355|439:355|341:386|299:283,1,231.25,14|0,0:0|0:0,0:0:0:0:
149,345,182236,5,12,0:0:0:0:
263,187,182398,5,8,0:0:0:0:
424,153,182560,5,10,0:0:0:0:
494,231,182723,5,8,0:0:0:0:
212,364,182885,6,0,L|281:12,1,346.875,6|0,0:0|0:0,0:0:0:0:
494,231,183209,5,4,0:2:0:0:
