osu file format v14

[General]
AudioFilename: audio.mp3
AudioLeadIn: 0
PreviewTime: 57060
Countdown: 0
SampleSet: Normal
StackLeniency: 0.2
Mode: 0
LetterboxInBreaks: 0
WidescreenStoryboard: 0

[Editor]
DistanceSpacing: 1.5
BeatDivisor: 4
GridSize: 16
TimelineZoom: 1

[Metadata]
Title:Chikatto Chika Chika<3
TitleUnicode:チカっとチカ千花っ♡
Artist:Chika Fujiwara(CV. Konomi Kohara)
ArtistUnicode:藤原 千花(CV. 好美小原)
Creator:P4ndemonium
Version:Extra
Source:かぐや様は告らせたい~天才たちの恋愛頭脳戦~
Tags:Kaguya-sama: Love is War Kaguya Wants to be Confessed To: The Geniuses' War of Love and Brains ending ed 2 two
BeatmapID:1916735
BeatmapSetID:917879

[Difficulty]
HPDrainRate:5
CircleSize:4
OverallDifficulty:9.2
ApproachRate:9.4
SliderMultiplier:2
SliderTickRate:1

[Events]
//Background and Video events
0,0,"yehh.jpg",0,0
Video,0,"kaguyaa.mp4"
//Break Periods
2,87091,88512
//Storyboard Layer 0 (Background)
//Storyboard Layer 1 (Fail)
//Storyboard Layer 2 (Pass)
//Storyboard Layer 3 (Foreground)
//Storyboard Sound Samples

[TimingPoints]
768,337.078651685393,4,1,0,50,1,0
11554,-400,4,1,0,50,0,0
11891,-100,4,1,0,50,0,0
12228,-400,4,1,0,50,0,0
12565,-100,4,1,0,50,0,0
12902,-133.333333333333,4,1,0,50,0,0
13576,-100,4,1,0,50,0,0
15262,-66.6666666666667,4,1,0,50,0,0
15599,-100,4,1,0,50,0,0
16105,-133.333333333333,4,1,0,50,0,0
18296,-100,4,1,0,50,0,0
18801,-133.333333333333,4,1,0,50,0,0
20992,-133.333333333333,4,1,0,50,0,0
28239,-100,4,1,0,50,0,0
29082,-133.333333333333,4,1,0,50,0,0
49307,-400,4,1,0,50,0,0
52003,-133.333333333333,4,1,0,50,0,0
57228,-200,4,1,0,50,0,0
57397,-100,4,1,0,50,0,1
68183,-133.333333333333,4,1,0,50,0,0
75936,-66.6666666666667,4,1,0,50,0,0
76273,-100,4,1,0,50,0,0
76779,-133.333333333333,4,1,0,50,0,0
78970,-100,4,1,0,50,0,0
79475,-133.333333333333,4,1,0,50,0,0

[Colours]
Combo1 : 0,128,192
Combo2 : 255,0,0
Combo3 : 255,128,0
Combo4 : 255,128,255

[HitObjects]
375,95,11554,6,0,L|368:131,1,37.5
366,147,11891,2,0,L|383:48,1,100
137,95,12228,6,0,L|143:131,1,37.5
146,147,12565,2,0,L|128:48,1,100
0,226,12902,6,0,P|69:207|125:253,1,150.000005722046
125,253,13408,1,0,0:0:0:0:
253,384,13576,6,0,B|203:319|235:229|273:267|310:170|258:105,1,300
259,105,14419,5,0,0:0:0:0:
431,68,14588,1,0,0:0:0:0:
326,0,14756,5,0,0:0:0:0:
363,172,14925,1,0,0:0:0:0:
363,172,15262,6,0,P|352:266|271:217,1,225.000008583069
271,217,15599,6,0,P|211:176|139:190,1,150
125,203,15936,1,0,0:0:0:0:
139,340,16105,2,0,P|127:304|99:281,1,75.0000028610231
99,281,16442,1,0,0:0:0:0:
0,152,16610,2,0,P|37:153|69:134,1,75.0000028610231
69,134,16947,5,0,0:0:0:0:
110,45,17116,1,0,0:0:0:0:
110,45,17284,1,0,0:0:0:0:
181,113,17453,2,0,P|218:114|250:95,1,75.0000028610231
319,78,17790,2,0,P|281:76|249:95,2,75.0000028610231
382,295,18296,6,0,P|341:235|355:163,1,150
368,149,18633,1,0,0:0:0:0:
505,163,18801,2,0,P|469:151|446:123,1,75.0000028610231
446,123,19138,1,0,0:0:0:0:
336,8,19307,2,0,P|337:45|319:78,1,75.0000028610231
319,78,19812,5,0,0:0:0:0:
147,109,19980,1,0,0:0:0:0:
217,7,20149,5,0,0:0:0:0:
248,179,20317,1,0,0:0:0:0:
248,179,20992,6,0,P|296:233|365:216,1,150.000005722046
365,216,21498,2,0,P|433:235|447:305,1,150.000005722046
447,306,22003,2,0,P|424:334|419:371,1,75.0000028610231
419,371,22341,1,0,0:0:0:0:
288,280,22509,6,0,P|320:298|336:331,2,75.0000028610231
288,280,23183,1,0,0:0:0:0:
221,326,23352,1,0,0:0:0:0:
220,326,23689,6,0,P|150:339|101:287,1,150.000005722046
101,287,24194,1,0,0:0:0:0:
60,168,24363,2,0,P|95:175|117:205,1,75.0000028610231
117,205,24700,1,0,0:0:0:0:
197,187,24869,1,0,0:0:0:0:
272,40,25206,6,0,P|236:47|214:77,2,75.0000028610231
272,40,25880,1,0,0:0:0:0:
325,103,26048,2,0,P|336:107|348:109,5,25.0000009536744
368,109,26385,6,0,P|402:152|406:207,1,112.500004291535
399,224,26723,5,0,0:0:0:0:
352,329,26891,1,0,0:0:0:0:
230,243,27060,1,0,0:0:0:0:
272,314,27228,1,0,0:0:0:0:
161,349,27397,1,0,0:0:0:0:
204,358,27565,1,0,0:0:0:0:
121,277,27734,6,0,P|51:258|0:307,1,150.000005722046
164,119,28239,6,0,P|164:201|234:158,1,200
127,46,28745,1,0,0:0:0:0:
444,56,29082,6,0,P|441:92|419:122,1,75.0000028610231
377,187,29419,2,0,P|379:150|401:120,1,75.0000028610231
286,246,29756,6,0,P|311:272|347:281,1,75.0000028610231
421,303,30093,2,0,P|395:276|359:267,1,75.0000028610231
487,351,30430,1,0,0:0:0:0:
181,365,30599,5,0,0:0:0:0:
282,228,30767,1,0,0:0:0:0:
351,384,30936,1,0,0:0:0:0:
112,209,31105,1,0,0:0:0:0:
112,209,31779,6,0,P|64:265|69:338,1,150.000005722046
69,338,32284,2,0,P|142:333|198:380,1,150.000005722046
198,380,32790,2,0,P|227:358|240:323,1,75.0000028610231
240,323,33127,1,0,0:0:0:0:
376,263,33296,6,0,P|340:252|316:224,2,75.0000028610231
376,263,33970,1,0,0:0:0:0:
427,199,34139,1,0,0:0:0:0:
427,199,34475,5,0,0:0:0:0:
400,74,34644,1,0,0:0:0:0:
300,25,34812,1,0,0:0:0:0:
207,46,34981,1,0,0:0:0:0:
163,115,35150,1,0,0:0:0:0:
163,115,35487,5,0,0:0:0:0:
119,184,35656,1,0,0:0:0:0:
228,289,35824,1,0,0:0:0:0:
201,188,35992,1,0,0:0:0:0:
343,132,36161,1,0,0:0:0:0:
311,311,36329,2,0,L|297:384,1,75.0000028610231
270,98,36666,5,0,0:0:0:0:
382,204,36835,1,0,0:0:0:0:
381,203,37172,6,0,P|333:257|262:244,1,150.000005722046
263,244,37678,2,0,P|231:224|194:224,1,75.0000028610231
195,224,38015,2,0,P|162:241|143:273,1,75.0000028610231
143,273,38352,1,0,0:0:0:0:
75,350,38520,6,0,P|68:313|43:286,1,75.0000028610231
43,286,38857,1,0,0:0:0:0:
25,116,39026,6,0,P|44:148|77:166,1,75.0000028610231
145,145,39363,2,0,P|114:165|77:166,2,75.0000028610231
187,42,39869,6,0,L|193:78,1,37.5000014305115
325,342,40206,6,0,L|320:317,17,25.0000009536744
395,384,41217,5,0,0:0:0:0:
57,209,41891,5,0,0:0:0:0:
512,0,42565,5,0,0:0:0:0:
256,192,42650,12,0,43745,0:0:0:0:
256,192,43914,5,0,0:0:0:0:
256,192,44082,1,0,0:0:0:0:
256,192,45262,5,0,0:0:0:0:
256,192,45430,1,0,0:0:0:0:
256,192,46610,5,0,0:0:0:0:
256,192,46778,1,0,0:0:0:0:
256,192,47958,5,0,0:0:0:0:
256,192,48126,1,0,0:0:0:0:
256,192,49307,5,0,0:0:0:0:
256,192,49475,1,0,0:0:0:0:
364,86,49981,2,0,L|372:135,1,50
256,192,50655,5,0,0:0:0:0:
256,192,50823,1,0,0:0:0:0:
148,86,51329,2,0,L|139:135,1,50
256,192,52003,5,0,0:0:0:0:
256,192,52341,5,0,0:0:0:0:
382,272,52509,2,0,P|352:249|315:249,1,75.0000028610231
231,362,52846,2,0,P|267:354|292:327,2,75.0000028610231
138,254,53352,2,0,P|160:283|160:320,1,75.0000028610231
0,260,53689,1,0,0:0:0:0:
156,174,53857,1,0,0:0:0:0:
80,384,54026,6,0,P|82:371|86:360,11,25.0000009536744
161,321,54700,5,0,0:0:0:0:
446,155,55374,5,0,0:0:0:0:
0,0,56048,5,0,0:0:0:0:
135,211,57228,6,0,P|151:229|162:251,1,50
163,252,57565,5,0,0:0:0:0:
208,90,57734,1,0,0:0:0:0:
392,200,57902,1,0,0:0:0:0:
245,163,58071,1,0,0:0:0:0:
383,34,58239,1,0,0:0:0:0:
329,250,58408,1,0,0:0:0:0:
171,17,58576,1,0,0:0:0:0:
453,76,58745,5,0,0:0:0:0:
107,152,58914,1,0,0:0:0:0:
392,200,59082,2,0,P|429:232|439:280,1,100
298,352,59419,2,0,P|260:319|250:271,1,100
345,106,59756,1,0,0:0:0:0:
96,199,59925,6,0,P|139:223|188:217,1,100
188,217,60262,5,0,0:0:0:0:
155,0,60430,1,0,0:0:0:0:
0,93,60599,1,0,0:0:0:0:
213,58,60767,1,0,0:0:0:0:
31,17,60936,1,0,0:0:0:0:
61,205,61105,1,0,0:0:0:0:
226,139,61273,1,0,0:0:0:0:
94,306,61442,5,0,0:0:0:0:
149,109,61610,1,0,0:0:0:0:
368,333,61779,5,0,0:0:0:0:
290,88,61947,1,0,0:0:0:0:
155,360,62116,6,0,P|197:384|246:377,1,100
413,265,62453,1,0,0:0:0:0:
180,185,62621,6,0,P|228:178|271:202,1,100
271,202,62959,5,0,0:0:0:0:
246,378,63127,1,0,0:0:0:0:
88,210,63296,1,0,0:0:0:0:
331,256,63464,1,0,0:0:0:0:
100,384,63633,1,0,0:0:0:0:
153,107,63801,1,0,0:0:0:0:
362,363,63970,1,0,0:0:0:0:
42,304,64138,6,0,P|0:245|14:174,2,150
220,228,64812,2,0,P|183:195|134:196,1,100
135,355,65150,1,0,0:0:0:0:
135,355,65487,6,0,L|184:346,1,50
276,329,65655,2,0,L|325:320,1,50
418,304,65824,1,0,0:0:0:0:
440,224,66161,6,0,L|380:213,1,50
270,192,66329,2,0,L|210:181,1,50
100,162,66498,1,0,0:0:0:0:
256,0,66666,1,0,0:0:0:0:
178,255,66835,5,0,0:0:0:0:
133,87,67003,1,0,0:0:0:0:
316,272,67172,5,0,0:0:0:0:
376,75,67341,1,0,0:0:0:0:
92,305,67509,6,0,P|54:272|44:224,1,100
467,224,67846,2,0,P|457:272|420:305,1,100
133,87,68183,6,0,L|280:113,1,150.000005722046
347,263,68689,2,0,P|275:257|246:192,1,150.000005722046
380,93,69194,2,0,P|376:129|352:157,1,75.0000028610231
62,245,69532,5,0,0:0:0:0:
106,10,69700,1,0,0:0:0:0:
133,87,69869,1,0,0:0:0:0:
52,72,70037,1,0,0:0:0:0:
206,22,70206,5,0,0:0:0:0:
261,320,70374,1,0,0:0:0:0:
293,227,70543,1,0,0:0:0:0:
196,245,70711,1,0,0:0:0:0:
389,311,70880,5,0,0:0:0:0:
449,0,71048,1,0,0:0:0:0:
487,111,71217,1,0,0:0:0:0:
370,90,71385,1,0,0:0:0:0:
468,278,71554,5,0,0:0:0:0:
68,215,71723,1,0,0:0:0:0:
308,36,71891,1,0,0:0:0:0:
142,305,72228,5,0,0:0:0:0:
112,65,72397,1,0,0:0:0:0:
144,324,72734,5,0,0:0:0:0:
407,55,72902,5,0,0:0:0:0:
371,343,73071,1,0,0:0:0:0:
409,32,73408,5,0,0:0:0:0:
20,155,73576,5,0,0:0:0:0:
492,229,73745,1,0,0:0:0:0:
1,151,73914,5,0,0:0:0:0:
511,233,74083,1,0,0:0:0:0:
253,105,75093,5,0,0:0:0:0:
81,68,75262,1,0,0:0:0:0:
186,0,75430,5,0,0:0:0:0:
149,172,75599,1,0,0:0:0:0:
149,172,75936,6,0,P|160:266|241:217,1,225.000008583069
241,217,76273,6,0,P|301:176|373:190,1,150
387,203,76610,1,0,0:0:0:0:
373,340,76779,2,0,P|385:304|413:281,1,75.0000028610231
413,281,77116,1,0,0:0:0:0:
512,152,77284,2,0,P|475:153|443:134,1,75.0000028610231
443,134,77621,5,0,0:0:0:0:
402,45,77790,1,0,0:0:0:0:
402,45,77958,1,0,0:0:0:0:
331,113,78127,2,0,P|294:114|262:95,1,75.0000028610231
193,78,78464,2,0,P|231:76|263:95,2,75.0000028610231
130,295,78970,6,0,P|171:235|157:163,1,150
144,149,79307,1,0,0:0:0:0:
7,163,79475,2,0,P|43:151|66:123,1,75.0000028610231
66,123,79812,1,0,0:0:0:0:
176,8,79981,2,0,P|175:45|193:78,1,75.0000028610231
192,77,80318,5,0,0:0:0:0:
269,135,80487,1,0,0:0:0:0:
269,135,80655,1,0,0:0:0:0:
299,40,80824,2,0,P|330:20|367:22,1,75.0000028610231
436,3,81161,2,0,P|403:22|365:21,2,75.0000028610231
444,254,81666,5,0,0:0:0:0:
296,99,81835,1,0,0:0:0:0:
237,311,82003,5,0,0:0:0:0:
448,156,82172,1,0,0:0:0:0:
215,85,82341,5,0,0:0:0:0:
289,375,82509,1,0,0:0:0:0:
466,173,82678,5,0,0:0:0:0:
144,126,82846,1,0,0:0:0:0:
409,328,83015,5,0,0:0:0:0:
325,66,83183,1,0,0:0:0:0:
216,315,83352,5,0,0:0:0:0:
375,131,83520,1,0,0:0:0:0:
237,311,83689,5,0,0:0:0:0:
165,20,83857,1,0,0:0:0:0:
44,298,84026,5,0,0:0:0:0:
215,85,84194,1,0,0:0:0:0:
317,339,84363,5,0,0:0:0:0:
46,213,84532,1,0,0:0:0:0:
320,55,84700,5,0,0:0:0:0:
234,362,84869,1,0,0:0:0:0:
119,50,85037,5,0,0:0:0:0:
436,234,85206,1,0,0:0:0:0:
58,314,85374,5,0,0:0:0:0:
470,160,85543,1,0,0:0:0:0:
108,22,85711,5,0,0:0:0:0:
220,377,85880,1,0,0:0:0:0:
356,0,86048,5,0,0:0:0:0:
302,379,86217,1,0,0:0:0:0:
16,159,86385,5,0,0:0:0:0:
477,62,86554,1,0,0:0:0:0:
0,239,86723,5,0,0:0:0:0:
512,280,86891,1,0,0:0:0:0:
256,192,89082,12,0,93127,0:0:0:0:
