osu file format v14

[General]
AudioFilename: audio.mp3
AudioLeadIn: 0
PreviewTime: 51609
Countdown: 1
SampleSet: None
StackLeniency: 0.7
Mode: 0
LetterboxInBreaks: 0
WidescreenStoryboard: 0

[Editor]
Bookmarks: 15373,20766,32901,34165,39643,40907
DistanceSpacing: 1.7
BeatDivisor: 4
GridSize: 4
TimelineZoom: 2.1

[Metadata]
Title:Chikatto Chika Chika [Metal Cover]
TitleUnicode:Chikatto Chika Chika [Metal Cover]
Artist:Chika Fujiwara
ArtistUnicode:Chika Fujiwara
Creator:Bunnz
Version:Chika Dimensions
Source:Kaguya sama
Tags:
BeatmapID:2149495
BeatmapSetID:1027978

[Difficulty]
HPDrainRate:5
CircleSize:4
OverallDifficulty:8.5
ApproachRate:9.2
SliderMultiplier:2
SliderTickRate:1

[Events]
//Background and Video events
0,0,"Chika.jpg",0,0
//Break Periods
//Storyboard Layer 0 (Background)
//Storyboard Layer 1 (Fail)
//Storyboard Layer 2 (Pass)
//Storyboard Layer 3 (Foreground)
//Storyboard Layer 4 (Overlay)
//Storyboard Sound Samples

[TimingPoints]
542,337.078651685393,4,3,0,50,1,0
28856,-100,4,3,0,50,0,1
30879,-100,4,3,0,50,0,0
43856,-133.333333333333,4,3,0,50,0,0
51777,-83.3333333333333,4,3,0,70,0,1
53126,-90.9090909090909,4,3,0,50,0,0
55822,-83.3333333333333,4,3,0,70,0,1
57002,-90.9090909090909,4,3,0,60,0,1
69306,-100,4,3,0,60,0,0

[HitObjects]
146,155,542,5,2,0:0:0:0:
146,155,1216,1,2,0:0:0:0:
146,152,1553,2,0,L|146:250,2,50
161,133,1890,2,0,L|166:333,2,200,2|0|2,0:0|0:0|0:0,0:0:0:0:
161,133,3575,6,0,L|361:129,1,200
512,127,4081,1,0,0:0:0:0:
508,127,4418,5,0,0:0:0:0:
267,42,4586,5,2,0:0:0:0:
272,42,5261,1,2,0:0:0:0:
267,42,5598,2,0,L|266:149,2,100,0|0|2,0:0|0:0|0:0,0:0:0:0:
266,214,6272,1,0,0:0:0:0:
266,210,6609,1,2,0:0:0:0:
266,210,7620,5,0,0:0:0:0:
263,210,7957,2,0,L|163:210,1,100
159,210,8463,1,0,0:0:0:0:
31,103,8631,6,0,L|30:311,2,200
481,103,9980,6,0,L|482:311,2,200
352,362,11328,5,0,0:0:0:0:
349,22,12002,1,0,0:0:0:0:
11,192,12676,1,0,0:0:0:0:
256,192,14025,12,0,15036,0:0:0:0:
360,286,15373,6,0,P|380:234|385:181,1,100
384,41,15710,1,0,0:0:0:0:
183,56,15879,2,0,P|173:114|185:165,1,100
246,305,16216,1,0,0:0:0:0:
315,123,16384,1,0,0:0:0:0:
84,128,16553,1,0,0:0:0:0:
102,272,16721,6,0,P|162:267|214:230,1,100
315,123,17058,1,0,0:0:0:0:
116,97,17227,2,0,P|103:152|119:197,1,100
222,298,17564,1,0,0:0:0:0:
224,129,17733,1,0,0:0:0:0:
65,192,17901,6,0,L|115:192,1,50
273,191,18070,2,0,P|347:185|375:162,1,100
454,24,18407,1,0,0:0:0:0:
261,38,18575,2,0,B|221:83|224:136,1,100
264,306,18912,1,0,0:0:0:0:
366,171,19081,1,0,0:0:0:0:
156,174,19249,2,0,L|53:173,1,100
264,306,19586,5,0,0:0:0:0:
465,77,19755,1,0,0:0:0:0:
178,30,19924,1,0,0:0:0:0:
463,301,20092,2,0,L|259:306,1,200,0|2,0:0|0:0,0:0:0:0:
411,142,20766,6,0,B|331:178|329:121|257:163,1,150
177,200,21103,2,0,P|143:140|117:113,1,100
0,44,21440,1,0,0:0:0:0:
42,223,21609,1,0,0:0:0:0:
46,248,21693,1,0,0:0:0:0:
50,270,21777,1,0,0:0:0:0:
122,117,21946,1,0,0:0:0:0:
171,251,22115,5,0,0:0:0:0:
176,274,22199,2,0,L|278:271,1,100
371,270,22452,2,0,L|475:268,1,100
472,168,22704,2,0,L|364:171,1,100
269,172,22957,2,0,L|169:173,1,100
132,172,23210,5,0,0:0:0:0:
85,161,23294,1,0,0:0:0:0:
74,115,23378,1,0,0:0:0:0:
115,87,23463,6,0,B|183:72|172:158|249:146|249:146,1,150
362,146,23800,2,0,P|406:174|425:220,1,100
234,308,24137,1,0,0:0:0:0:
132,172,24306,1,0,0:0:0:0:
124,127,24390,1,0,0:0:0:0:
115,87,24474,1,0,0:0:0:0:
105,305,24643,1,0,0:0:0:0:
11,205,24811,1,0,0:0:0:0:
4,183,24895,6,0,L|0:101,1,50
0,52,25064,1,0,0:0:0:0:
21,33,25148,2,0,L|73:32|73:32,1,50
167,60,25317,1,0,0:0:0:0:
189,62,25401,2,0,L|238:62,1,50
305,128,25570,1,0,0:0:0:0:
329,130,25654,2,0,L|382:130|382:130,1,50
429,132,25822,5,0,0:0:0:0:
476,121,25906,1,0,0:0:0:0:
496,77,25990,1,0,0:0:0:0:
474,34,26074,1,0,0:0:0:0:
431,26,26159,6,0,B|392:108|361:57|328:131,1,150
301,230,26497,2,0,P|302:283|355:318,1,100
471,195,26834,1,0,0:0:0:0:
210,194,27002,1,0,0:0:0:0:
184,194,27086,1,0,0:0:0:0:
161,194,27171,1,0,0:0:0:0:
334,313,27339,1,0,0:0:0:0:
134,312,27508,2,0,L|28:309,1,100
189,98,27845,1,0,0:0:0:0:
180,382,28013,6,0,B|222:367|222:367|293:367,1,100
477,366,28350,1,0,0:0:0:0:
210,194,28519,1,0,0:0:0:0:
259,193,28603,1,0,0:0:0:0:
309,193,28687,1,0,0:0:0:0:
359,193,28771,1,0,0:0:0:0:
404,211,28856,5,0,0:0:0:0:
132,66,29025,1,0,0:0:0:0:
237,340,29193,5,0,0:0:0:0:
382,68,29362,1,0,0:0:0:0:
108,173,29530,5,0,0:0:0:0:
380,318,29699,1,0,0:0:0:0:
275,44,29867,5,0,0:0:0:0:
130,316,30036,1,0,0:0:0:0:
105,24,30204,5,0,0:0:0:0:
250,296,30373,1,0,0:0:0:0:
451,94,30541,5,0,0:0:0:0:
306,366,30710,1,0,0:0:0:0:
275,44,30879,2,0,P|301:103|192:39,1,350
230,99,31553,6,0,B|261:168|188:188|248:261,1,150
300,338,31890,2,0,P|248:315|185:325,1,100
38,370,32227,1,0,0:0:0:0:
129,228,32395,1,0,0:0:0:0:
127,204,32480,1,0,0:0:0:0:
124,180,32564,1,0,0:0:0:0:
236,384,32733,1,0,0:0:0:0:
272,230,32901,5,0,0:0:0:0:
272,230,32985,2,0,L|262:130,1,100
252,30,33238,2,0,L|364:16,1,100
452,8,33491,2,0,L|472:111,1,100
385,147,33744,2,0,L|406:250,1,100
377,231,33997,1,0,0:0:0:0:
345,192,34081,1,0,0:0:0:0:
314,153,34165,1,0,0:0:0:0:
283,117,34249,6,0,B|286:56|241:77|262:-4,1,100
19,25,34586,2,0,B|17:86|61:65|40:146,1,100
244,204,34924,2,0,P|304:217|346:206,1,100
365,200,35176,1,0,0:0:0:0:
390,186,35261,5,0,0:0:0:0:
176,39,35429,1,0,0:0:0:0:
243,287,35598,1,0,0:0:0:0:
289,289,35682,1,0,0:0:0:0:
336,290,35766,1,0,0:0:0:0:
383,291,35850,1,0,0:0:0:0:
428,294,35935,6,0,L|481:294,1,50
460,48,36103,1,0,0:0:0:0:
414,46,36187,1,0,0:0:0:0:
367,45,36271,1,0,0:0:0:0:
320,44,36355,1,0,0:0:0:0:
271,41,36440,1,0,0:0:0:0:
222,43,36524,1,0,0:0:0:0:
188,78,36608,1,0,0:0:0:0:
187,126,36692,1,0,0:0:0:0:
219,163,36777,1,0,0:0:0:0:
268,167,36861,1,0,0:0:0:0:
316,168,36946,6,0,B|385:171|380:224|469:211,1,150
326,264,37283,2,0,P|311:215|318:158,1,100
372,13,37620,1,0,0:0:0:0:
465,187,37789,1,0,0:0:0:0:
441,189,37873,1,0,0:0:0:0:
419,190,37957,1,0,0:0:0:0:
512,15,38126,1,0,0:0:0:0:
264,19,38294,5,0,0:0:0:0:
264,19,38379,2,0,L|209:17,1,50
135,41,38547,1,0,0:0:0:0:
135,41,38631,2,0,L|79:41,1,50
0,119,38800,1,0,0:0:0:0:
0,119,38885,2,0,L|55:117,1,50
129,141,39053,1,0,0:0:0:0:
129,141,39137,2,0,L|185:141,1,50
282,142,39306,5,0,0:0:0:0:
330,151,39390,1,0,0:0:0:0:
350,195,39474,1,0,0:0:0:0:
326,236,39558,1,0,0:0:0:0:
281,244,39643,6,0,L|96:244,1,150
29,243,39980,2,0,P|91:235|121:202,1,100
224,31,40317,1,0,0:0:0:0:
0,131,40485,1,0,0:0:0:0:
22,132,40570,1,0,0:0:0:0:
42,133,40654,1,0,0:0:0:0:
0,322,40822,1,0,0:0:0:0:
253,196,40991,6,0,L|122:196,1,100
253,208,41665,6,0,L|122:208,1,100
253,220,42339,5,0,0:0:0:0:
256,192,42424,12,0,43688,0:0:0:0:
146,235,44362,5,0,0:0:0:0:
146,215,45036,1,0,0:0:0:0:
146,195,45710,1,0,0:0:0:0:
347,274,46216,5,0,0:0:0:0:
347,274,46384,1,0,0:0:0:0:
347,261,47058,1,0,0:0:0:0:
347,248,47733,1,0,0:0:0:0:
347,234,48407,1,0,0:0:0:0:
226,56,48912,5,0,0:0:0:0:
226,56,49081,1,0,0:0:0:0:
243,56,49755,1,0,0:0:0:0:
261,56,50429,1,0,0:0:0:0:
281,56,51103,1,0,0:0:0:0:
201,330,51609,5,0,0:0:0:0:
201,330,51777,1,0,0:0:0:0:
259,340,51861,1,0,0:0:0:0:
318,328,51945,1,0,0:0:0:0:
368,296,52029,1,0,0:0:0:0:
403,248,52114,1,0,0:0:0:0:
419,190,52198,1,0,0:0:0:0:
413,131,52282,1,0,0:0:0:0:
385,78,52366,1,0,0:0:0:0:
341,38,52451,1,0,0:0:0:0:
285,18,52535,1,0,0:0:0:0:
225,18,52619,1,0,0:0:0:0:
170,41,52703,1,0,0:0:0:0:
126,81,52788,1,0,0:0:0:0:
101,135,52872,1,0,0:0:0:0:
96,195,52956,1,0,0:0:0:0:
113,252,53041,1,0,0:0:0:0:
142,305,53126,6,0,L|250:305,1,100
448,303,53463,1,0,0:0:0:0:
255,75,53631,1,0,0:0:0:0:
252,292,53800,2,0,P|268:196|251:62,1,220.000006713867
11,174,54474,5,0,0:0:0:0:
501,174,55148,1,0,0:0:0:0:
107,318,55822,6,0,B|250:241|422:324|422:324|324:248|254:84|254:84|254:225|254:225,1,719.999978027344
254,367,57002,2,0,P|254:297|205:242,1,110.000003356934
59,52,57339,1,0,0:0:0:0:
24,321,57508,2,0,P|80:348|136:329,1,110.000003356934
326,168,57845,1,0,0:0:0:0:
59,52,58013,1,0,0:0:0:0:
124,337,58182,2,0,P|180:364|236:345,1,110.000003356934
512,256,58519,1,0,0:0:0:0:
118,144,58688,1,0,0:0:0:0:
512,148,58856,1,0,0:0:0:0:
234,45,59025,6,0,L|234:134,1,55.0000016784668
234,200,59193,2,0,B|245:253|209:267|243:328,1,110.000003356934
9,133,59530,1,0,0:0:0:0:
128,304,59699,2,0,P|182:320|241:304,1,110.000003356934
512,247,60036,1,0,0:0:0:0:
342,45,60204,2,0,P|277:36|229:46,1,110.000003356934
424,175,60541,1,0,0:0:0:0:
121,174,60710,1,0,0:0:0:0:
342,45,60879,1,0,0:0:0:0:
341,348,61048,1,0,0:0:0:0:
233,44,61216,1,0,0:0:0:0:
232,347,61385,1,0,0:0:0:0:
119,42,61553,1,0,0:0:0:0:
122,346,61721,6,0,P|187:351|242:344,1,110.000003356934
411,310,62058,1,0,0:0:0:0:
261,117,62227,1,0,0:0:0:0:
468,110,62395,6,0,P|407:100|358:102,1,110.000003356934
76,146,62733,1,0,0:0:0:0:
264,313,62901,2,0,P|308:277|334:220,1,110.000003356934
351,0,63238,1,0,0:0:0:0:
76,146,63407,1,0,0:0:0:0:
472,217,63575,2,0,P|481:148|464:104,1,110.000003356934
169,3,63912,5,0,0:0:0:0:
468,216,64081,1,0,0:0:0:0:
96,294,64249,1,0,0:0:0:0:
383,44,64418,2,0,L|386:167,1,110.000003356934
391,376,64755,1,0,0:0:0:0:
256,169,64924,1,0,0:0:0:0:
257,383,65092,1,0,0:0:0:0:
445,376,65261,6,0,L|379:375,1,55.0000016784668
312,383,65429,2,0,L|256:383,1,55.0000016784668
121,384,65598,1,0,0:0:0:0:
121,355,65935,6,0,L|122:298,1,55.0000016784668
38,252,66103,2,0,L|40:194,1,55.0000016784668
40,80,66272,1,0,0:0:0:0:
53,67,66609,6,0,L|88:122,1,55.0000016784668
137,183,66777,2,0,L|171:225,1,55.0000016784668
256,313,66946,1,0,0:0:0:0:
317,75,67115,2,0,L|317:138,1,55.0000016784668
323,267,67283,1,0,0:0:0:0:
206,125,67452,1,0,0:0:0:0:
426,123,67620,1,0,0:0:0:0:
434,129,67957,6,0,P|455:180|387:131,1,220.000006713867
78,129,68631,2,0,P|57:180|125:131,1,220.000006713867
256,106,69306,5,0,0:0:0:0:
451,226,69474,1,0,0:0:0:0:
295,222,69643,1,0,0:0:0:0:
383,145,69811,1,0,0:0:0:0:
159,173,69980,5,0,0:0:0:0:
329,46,70148,1,0,0:0:0:0:
205,54,70317,1,0,0:0:0:0:
309,153,70485,1,0,0:0:0:0:
73,97,70654,5,0,0:0:0:0:
253,262,70822,1,0,0:0:0:0:
34,258,70991,2,0,L|145:261,1,100
379,264,71328,5,0,0:0:0:0:
329,46,71497,1,0,0:0:0:0:
169,306,72002,5,0,0:0:0:0:
430,140,72171,1,0,0:0:0:0:
78,82,72508,5,0,0:0:0:0:
339,248,72677,1,0,0:0:0:0:
78,82,72845,1,0,0:0:0:0:
46,194,73182,5,0,0:0:0:0:
355,165,73351,1,0,0:0:0:0:
46,194,73519,1,0,0:0:0:0:
355,165,73688,1,0,0:0:0:0:
46,194,73856,1,0,0:0:0:0:
256,192,73940,12,0,76047,0:0:0:0:
