osu file format v14

[General]
AudioFilename: audio.mp3
AudioLeadIn: 0
PreviewTime: 2
Countdown: 0
SampleSet: Soft
StackLeniency: 0.9
Mode: 0
LetterboxInBreaks: 0
WidescreenStoryboard: 1

[Editor]
DistanceSpacing: 2.5
BeatDivisor: 4
GridSize: 4
TimelineZoom: 1

[Metadata]
Title:Chika tto Chika Chika
TitleUnicode:Chika tto Chika Chika♡
Artist:Chika Fujiwara
ArtistUnicode:Chika Fujiwara
Creator:Kotoburd76
Version:Chika Chika
Source:Kaguya-sama: Love is War
Tags:Anime Ending Kaguya sama Chika Fujiwari ED
BeatmapID:1916396
BeatmapSetID:917706

[Difficulty]
HPDrainRate:9
CircleSize:4.5
OverallDifficulty:8
ApproachRate:9.8
SliderMultiplier:2
SliderTickRate:1

[Events]
//Background and Video events
0,0,"ed2snap.png",0,0
Video,0,"chika.mp4"
//Break Periods
//Storyboard Layer 0 (Background)
//Storyboard Layer 1 (Fail)
//Storyboard Layer 2 (Pass)
//Storyboard Layer 3 (Foreground)
//Storyboard Sound Samples

[TimingPoints]
14060,337.078651685393,4,2,0,60,1,0
19438,-200,4,2,0,60,0,0
20786,-100,4,2,0,60,0,0
42696,-370.37037037037,4,2,0,60,0,0
43707,-100,4,2,0,60,0,0
54494,-200,4,2,0,60,0,0
59719,-200,4,2,0,60,0,1
62078,-100,4,2,0,60,0,1
71685,-100,4,2,0,60,0,0
76910,-100,4,2,0,5,0,0
77415,-100,4,2,0,60,0,0

[Colours]
Combo1 : 254,80,132
Combo2 : 255,128,255
Combo3 : 255,0,255
Combo4 : 255,0,128
Combo5 : 255,128,192
Combo6 : 255,128,128

[HitObjects]
288,132,3932,5,0,2:0:0:0:
216,248,4606,1,0,2:0:0:0:
148,120,5280,1,0,2:0:0:0:
340,264,5955,1,0,2:0:0:0:
167,112,7977,5,0,0:0:0:0:
210,267,8651,1,0,0:0:0:0:
368,136,9325,1,0,0:0:0:0:
105,193,10000,1,0,0:0:0:0:
389,303,11348,5,0,0:0:0:0:
361,250,12696,5,0,0:0:0:0:
364,160,13370,1,0,0:0:0:0:
320,316,14044,2,0,P|240:264|220:152,1,200
436,64,14734,2,0,P|332:72|228:24,1,200
64,152,15408,2,0,B|104:140|104:140|92:276|204:288,1,200
332,316,15913,1,0,0:0:0:0:
280,168,16082,1,0,0:0:0:0:
388,100,16925,6,0,L|336:128,1,50
304,180,17093,2,0,L|356:152,1,50
388,180,17262,2,0,L|336:208,1,50
308,256,17430,2,0,L|360:228,1,50
420,56,17767,1,4,0:0:0:0:
80,120,18104,6,0,P|136:136|192:136,1,100
296,124,18442,1,0,0:0:0:0:
232,216,18610,2,0,P|168:236|124:296,1,100
96,348,18947,1,0,0:0:0:0:
108,248,19116,2,0,P|132:196|152:136,1,100
128,52,19453,2,0,P|184:40|224:72,1,100
236,212,19958,2,0,P|240:168|296:152,1,100
440,188,20633,1,0,0:0:0:0:
324,312,20801,6,0,B|340:240|344:200|344:200|304:236|244:224,1,200
88,232,21307,2,0,P|160:200|184:80,1,200
180,56,21981,1,0,0:0:0:0:
256,328,22318,5,0,0:0:0:0:
284,52,22486,1,0,0:0:0:0:
144,184,22655,1,0,0:0:0:0:
420,196,22824,1,0,0:0:0:0:
320,304,23498,6,0,P|280:272|200:256,1,100
104,240,23835,1,0,0:0:0:0:
44,80,24003,2,0,P|112:88|160:80,1,100
240,56,24340,1,0,0:0:0:0:
156,152,24509,2,0,L|212:248,1,100
296,352,24846,2,0,P|296:292|364:360,1,200
404,284,25352,2,0,P|328:252|408:236,1,200
420,240,25857,1,0,0:0:0:0:
436,136,26026,1,0,0:0:0:0:
336,180,26194,6,0,P|288:188|224:184,1,100
216,184,26531,1,0,0:0:0:0:
64,160,26700,2,0,L|168:144,1,100
236,64,27037,2,0,L|136:80,1,100
104,240,27374,2,0,B|120:348|120:348|128:284|192:272,1,200
180,275,27880,1,0,0:0:0:0:
189,274,28048,1,0,0:0:0:0:
201,275,28217,1,0,0:0:0:0:
213,278,28385,1,0,0:0:0:0:
373,344,28554,2,0,P|300:299|283:283,1,100
197,178,28891,6,0,P|259:200|405:159,1,200
481,84,29397,1,0,0:0:0:0:
398,260,29565,1,0,0:0:0:0:
343,68,29734,1,0,0:0:0:0:
512,207,29902,1,0,0:0:0:0:
299,182,30071,1,0,0:0:0:0:
53,70,30239,6,0,L|259:109,1,200
427,345,30745,2,0,B|439:222|439:222|381:281|334:257,1,200
360,271,31251,1,0,0:0:0:0:
360,271,31419,1,0,0:0:0:0:
324,161,31588,6,0,L|207:132,1,100,2|0,0:0|0:0,0:0:0:0:
117,99,31925,2,0,L|144:208,1,100,2|0,0:0|0:0,0:0:0:0:
172,311,32262,2,0,L|256:240,1,100,2|0,0:0|0:0,0:0:0:0:
366,288,32599,1,2,0:0:0:0:
207,158,32767,1,0,0:0:0:0:
366,129,32936,1,2,0:0:0:0:
213,314,33104,1,0,0:0:0:0:
117,95,33273,1,2,0:0:0:0:
117,95,33442,1,0,0:0:0:0:
330,315,33610,2,0,B|277:232|277:232|315:249|388:230,1,200,2|0,0:0|0:0,0:0:0:0:
416,32,34284,5,0,0:0:0:0:
404,40,34621,2,0,L|309:111,1,100
272,212,34958,2,0,P|232:172|176:172,1,100
80,192,35295,1,0,0:0:0:0:
296,88,35464,1,0,0:0:0:0:
272,328,35633,1,0,0:0:0:0:
364,212,36981,5,0,0:0:0:0:
308,324,37149,1,0,0:0:0:0:
308,124,37318,1,0,0:0:0:0:
256,288,37486,1,0,0:0:0:0:
240,60,37655,1,0,0:0:0:0:
52,208,37992,2,0,P|112:216|168:212,1,100
284,148,38329,2,0,P|236:200|232:252,1,100
256,352,38666,1,0,0:0:0:0:
137,75,38835,2,0,P|144:8|270:33,1,200
255,3,39340,1,0,0:0:0:0:
255,3,39509,1,0,0:0:0:0:
464,104,39677,6,0,P|416:168|392:216,1,100
352,336,40015,1,0,0:0:0:0:
464,300,40183,2,0,L|264:192,1,200
32,136,40857,1,0,0:0:0:0:
264,132,41026,1,0,0:0:0:0:
20,188,41363,1,0,0:0:0:0:
216,16,41531,1,0,0:0:0:0:
20,176,41868,1,0,0:0:0:0:
256,56,42037,1,0,0:0:0:0:
48,72,42206,1,0,0:0:0:0:
312,152,42374,1,0,0:0:0:0:
32,148,42711,2,0,P|84:216|136:232,1,135.000003295898
372,316,43722,5,0,0:0:0:0:
372,316,43807,1,0,0:0:0:0:
376,320,43891,1,0,0:0:0:0:
424,144,44059,2,0,L|368:148,1,50
72,76,44397,1,0,0:0:0:0:
72,76,44481,1,0,0:0:0:0:
72,76,44565,1,0,0:0:0:0:
100,320,44734,2,0,L|144:288,1,50
256,192,45071,12,0,46082,0:0:0:0:
376,288,46419,5,0,0:0:0:0:
392,268,46588,1,0,0:0:0:0:
264,64,46756,1,0,0:0:0:0:
248,92,46925,1,0,0:0:0:0:
172,312,47093,1,0,0:0:0:0:
152,288,47262,1,0,0:0:0:0:
20,68,47430,1,0,0:0:0:0:
48,56,47599,1,0,0:0:0:0:
416,196,47767,6,0,P|368:180|300:192,1,100
92,324,48104,2,0,P|136:288|160:240,1,100
208,48,48442,1,0,0:0:0:0:
48,252,48610,1,0,0:0:0:0:
328,288,48779,1,0,0:0:0:0:
388,60,49116,5,0,0:0:0:0:
352,160,49284,1,0,0:0:0:0:
224,88,49453,1,0,0:0:0:0:
232,200,49621,1,0,0:0:0:0:
76,176,49790,2,0,B|124:264|124:264|96:156,1,200
64,72,50464,5,0,0:0:0:0:
264,212,50633,1,0,0:0:0:0:
248,8,50801,1,0,0:0:0:0:
104,216,50970,1,0,0:0:0:0:
312,276,51138,1,0,0:0:0:0:
176,344,51307,1,0,0:0:0:0:
248,132,51475,1,0,0:0:0:0:
445,249,51812,6,0,P|390:208|258:214,1,200
112,306,52318,2,0,P|156:263|183:226,1,100
247,83,52655,1,0,0:0:0:0:
352,289,52824,2,0,P|371:214|374:165,1,100
351,33,53161,5,0,0:0:0:0:
457,250,53329,1,0,0:0:0:0:
203,195,53498,1,0,0:0:0:0:
436,95,53666,1,0,0:0:0:0:
326,274,53835,1,0,0:0:0:0:
202,53,54003,1,0,0:0:0:0:
97,283,54172,1,0,0:0:0:0:
328,180,54340,1,0,0:0:0:0:
112,64,54509,6,0,P|164:110|211:128,1,100
454,205,55015,2,0,P|389:235|365:277,1,100
339,374,55520,1,0,0:0:0:0:
255,164,55689,1,0,0:0:0:0:
99,288,55857,2,0,P|150:262|178:226,1,100
405,84,56363,2,0,L|343:84,1,50
187,91,56700,1,0,0:0:0:0:
311,231,56868,1,0,0:0:0:0:
357,68,57037,1,0,0:0:0:0:
360,316,57206,5,8,3:0:0:0:
443,128,57374,1,0,0:0:0:0:
128,203,57543,1,0,0:0:0:0:
253,326,57880,1,8,3:0:0:0:
355,60,58048,1,0,0:0:0:0:
415,252,58217,1,0,0:0:0:0:
113,128,58385,1,0,0:0:0:0:
178,326,58554,2,0,L|227:272,1,50,8|0,3:0|0:0,0:0:0:0:
367,114,58891,1,0,0:0:0:0:
330,347,59059,1,8,3:0:0:0:
203,14,59228,1,0,0:0:0:0:
203,14,59397,1,8,3:0:0:0:
203,14,59565,1,8,3:0:0:0:
383,73,59734,5,2,0:0:0:0:
312,355,59902,2,0,L|287:302,1,50
87,44,60239,2,0,L|123:88,1,50
442,309,60576,2,0,L|385:274,1,50
43,176,60913,2,0,L|110:178,1,50
468,150,61251,2,0,L|395:161,1,50
77,319,61588,2,0,L|135:280,1,50
373,100,61925,1,2,2:0:0:0:
328,328,62093,5,8,3:0:0:0:
328,328,62262,1,8,3:0:0:0:
328,328,62430,1,8,3:0:0:0:
182,152,62599,1,0,0:0:0:0:
77,308,62767,2,0,P|131:263|178:247,1,100
415,184,63104,1,0,0:0:0:0:
187,131,63273,1,0,0:0:0:0:
456,128,63442,1,0,0:0:0:0:
214,163,63610,1,0,0:0:0:0:
435,67,63779,1,0,0:0:0:0:
344,240,63947,5,0,0:0:0:0:
244,55,64116,1,0,0:0:0:0:
113,215,64284,1,0,0:0:0:0:
310,135,64453,1,0,0:0:0:0:
126,290,64621,1,8,0:0:0:0:
340,355,64790,1,8,3:0:0:0:
340,355,64958,1,8,3:0:0:0:
402,210,65127,5,8,3:0:0:0:
191,242,65295,1,0,0:0:0:0:
470,114,65464,2,0,L|361:108,1,100
162,91,65801,1,0,0:0:0:0:
115,275,65970,1,0,0:0:0:0:
340,164,66138,1,0,0:0:0:0:
243,347,66307,2,0,L|269:241,1,100
315,33,66644,5,0,0:0:0:0:
112,203,66812,1,0,0:0:0:0:
112,203,66897,1,0,0:0:0:0:
429,237,67149,2,0,P|363:178|361:140,1,100
397,41,67486,1,0,0:0:0:0:
314,226,67655,1,0,0:0:0:0:
186,88,67824,1,0,0:0:0:0:
102,281,67992,6,0,P|149:253|170:246,4,50
373,55,68666,2,0,P|365:108|369:129,4,50
379,30,69172,1,0,0:0:0:0:
374,286,69340,2,0,L|338:244,1,50
189,59,69509,2,0,L|236:121,1,50
260,321,69677,2,0,L|266:261,1,50
296,29,69846,2,0,L|290:101,1,50
266,273,70015,2,0,P|253:209|211:184,1,100
58,69,70352,2,0,P|121:59|163:28,1,100
256,192,70689,12,0,71700,0:0:0:0:
409,61,72037,6,0,L|325:130,1,100
119,272,72374,1,0,0:0:0:0:
249,67,72543,1,0,0:0:0:0:
373,288,72711,2,0,L|419:181,1,100
136,93,73048,1,0,0:0:0:0:
296,296,73217,1,0,0:0:0:0:
53,330,73385,2,0,L|96:228,1,100
167,21,73722,1,0,0:0:0:0:
372,246,73891,1,0,0:0:0:0:
134,259,74059,2,0,P|213:227|143:212,1,200
49,258,74565,5,0,0:0:0:0:
262,38,74734,1,0,0:0:0:0:
292,335,74902,1,0,0:0:0:0:
392,61,75239,5,0,0:0:0:0:
430,193,75408,1,0,0:0:0:0:
36,91,75576,1,0,0:0:0:0:
99,336,75913,5,0,0:0:0:0:
281,371,76082,1,0,0:0:0:0:
169,21,76251,1,0,0:0:0:0:
42,261,76419,1,0,0:0:0:0:
422,118,76588,1,0,0:0:0:0:
411,264,76925,2,0,L|424:318,4,50,0|0|0|0|0,1:0|1:0|1:0|1:0|1:0,1:0:0:0:
170,16,77599,6,0,B|118:34|118:34|144:105,1,100
350,197,77936,2,0,B|399:172|399:172|376:122,1,100
256,281,78442,1,2,0:0:0:0:
445,102,78779,6,0,P|364:115|319:107,1,100
124,27,79116,2,0,P|131:92|116:143,1,100
98,309,79453,2,0,B|112:239|112:239|149:241|163:226,1,100
289,128,79790,2,0,P|299:198|352:234,1,100
433,283,80127,1,0,0:0:0:0:
416,150,80295,1,0,0:0:0:0:
316,216,80464,2,0,P|260:241|211:235,1,100
74,197,80801,1,0,0:0:0:0:
279,144,80970,1,0,0:0:0:0:
93,226,81138,1,0,0:0:0:0:
264,107,81307,5,0,0:0:0:0:
414,50,81475,2,0,P|370:93|347:149,1,100
283,292,81812,1,0,0:0:0:0:
166,161,81981,2,0,B|151:106|151:106|127:102|108:91,1,100
21,40,82318,1,0,0:0:0:0:
300,111,82486,1,0,0:0:0:0:
99,262,82655,2,0,P|132:318|179:329,1,100
384,338,82992,1,0,0:0:0:0:
191,244,83161,2,0,P|172:185|214:146,1,100
295,49,83498,1,0,0:0:0:0:
371,211,83666,2,0,L|452:280,2,100
85,72,84172,6,0,L|141:159,1,100
267,30,84509,2,0,L|180:86,1,100
278,233,84846,2,0,L|222:146,1,100
95,271,85183,2,0,L|182:215,1,100
437,121,85520,2,0,P|349:108|324:88,1,100
163,62,85857,2,0,P|202:126|208:181,1,100
196,329,86194,1,0,0:0:0:0:
428,220,86363,1,0,0:0:0:0:
223,84,86531,1,0,0:0:0:0:
350,322,86700,5,0,0:0:0:0:
361,206,86868,1,0,0:0:0:0:
69,142,87037,1,0,0:0:0:0:
116,230,87206,1,0,0:0:0:0:
404,81,87374,1,0,0:0:0:0:
302,33,87543,1,0,0:0:0:0:
175,323,87711,1,0,0:0:0:0:
274,305,87880,1,0,0:0:0:0:
176,68,88048,1,0,0:0:0:0:
397,235,88217,5,0,0:0:0:0:
95,188,88385,1,0,0:0:0:0:
407,63,88554,1,0,0:0:0:0:
228,376,88722,1,0,0:0:0:0:
144,61,88891,1,0,0:0:0:0:
437,334,89059,1,0,0:0:0:0:
38,231,89228,1,0,0:0:0:0:
367,57,89397,1,0,0:0:0:0:
404,200,91419,5,2,3:0:0:0:
404,200,91503,1,2,3:0:0:0:
404,200,91588,1,2,3:0:0:0:
256,192,91672,12,0,95633,0:0:0:0:
