osu file format v14

[General]
AudioFilename: Francium.mp3
AudioLeadIn: 1000
PreviewTime: -1
Countdown: 1
SampleSet: Normal
StackLeniency: 0.7
Mode: 1
LetterboxInBreaks: 1
WidescreenStoryboard: 1

[Editor]
DistanceSpacing: 0.8
BeatDivisor: 4
GridSize: 32
TimelineZoom: 1.7

[Metadata]
Title:Francium
TitleUnicode:Francium
Artist:Chiitan feat. Hatsune Miku
ArtistUnicode:チータン feat. 初音ミク
Creator:-[ ix Ishida xi ]-
Version:-[ ix Ttttaaiikkkkoo xi ]-
Source:
Tags:vocaloid kiichi gimmick EXIT TUNES PRESENTS VocaloVanguard feat. 初音ミク fast japanese novelty なんとかP nantokaP ISHIDAMITSUNARI
BeatmapID:1713217
BeatmapSetID:816993

[Difficulty]
HPDrainRate:5
CircleSize:5
OverallDifficulty:7
ApproachRate:5
SliderMultiplier:1.4
SliderTickRate:1

[Events]
//Background and Video events
0,0,"986462_p0.jpg",0,0
//Break Periods
//Storyboard Layer 0 (Background)
//Storyboard Layer 1 (Fail)
//Storyboard Layer 2 (Pass)
//Storyboard Layer 3 (Foreground)
//Storyboard Layer 4 (Overlay)
//Storyboard Sound Samples

[TimingPoints]
1372,333.333333333333,4,1,0,60,1,0
2247,-100,4,1,0,30,0,0
3663,-100,4,1,0,80,0,0
3747,-100,4,1,0,30,0,0
3830,-100,4,1,0,80,0,0
3955,-100,4,1,0,60,0,0
4913,-100,4,1,0,30,0,0
6330,-100,4,1,0,50,0,0
6913,-100,4,1,0,25,0,0
6996,-100,4,1,0,37,0,0
7121,-100,4,1,0,50,0,0
7621,-100,4,1,0,30,0,0
7788,-100,4,1,0,25,0,0
8330,-100,4,1,0,45,0,0
8663,-100,4,1,0,30,0,0
8996,-100,4,1,0,50,0,0
10246,-100,4,1,0,25,0,0
11663,-100,4,1,0,5,0,0
11996,-100,4,1,0,60,0,0
12121,-100,4,1,0,50,0,0
18705,-133.333333333333,4,1,0,50,0,0
18871,-125,4,1,0,50,0,0
19038,-117.647058823529,4,1,0,50,0,0
19205,-111.111111111111,4,1,0,50,0,0
19371,-100,4,1,0,50,0,0
19705,-90.9090909090909,4,1,0,50,0,0
20038,-83.3333333333333,4,1,0,50,0,0
20371,-76.9230769230769,4,1,0,50,0,0
20705,-71.4285714285714,4,1,0,50,0,0
21038,-66.6666666666667,4,1,0,50,0,0
21371,-62.5,4,1,0,50,0,0
21705,-50,4,1,0,50,0,0
21788,-66.6666666666667,4,1,0,50,0,0
23038,-100,4,1,0,50,0,0
24038,-66.6666666666667,4,1,0,50,0,0
24371,-71.4285714285714,4,1,0,50,0,0
24705,-76.9230769230769,4,1,0,50,0,0
25038,-83.3333333333333,4,1,0,50,0,0
25371,-66.6666666666667,4,1,0,50,0,0
26705,-76.9230769230769,4,1,0,50,0,0
27371,-90.9090909090909,4,1,0,50,0,0
27871,-83.3333333333333,4,1,0,50,0,0
28038,-76.9230769230769,4,1,0,50,0,0
28205,-68.9655172413793,4,1,0,50,0,0
28371,-62.5,4,1,0,50,0,0
28538,-57.1428571428571,4,1,0,50,0,0
28705,83.3333333333333,4,1,0,50,1,0
29038,6.000600060006,4,1,0,50,1,0
29371,333.333333333333,4,1,0,50,1,0
33370,300,4,1,0,50,1,0
33704,272.727272727273,4,1,0,50,1,0
34037,250,4,1,0,50,1,0
34370,230.769230769231,4,1,0,50,1,0
34704,214.285714285714,4,1,0,50,1,0
35037,200,4,1,0,50,1,0
35370,187.5,4,1,0,50,1,0
35704,176.470588235294,4,1,0,50,1,0
36037,166.666666666667,4,1,0,50,1,0
36370,157.894736842105,4,1,0,50,1,0
36704,150,4,1,0,50,1,0
37037,142.857142857143,4,1,0,50,1,0
37370,136.363636363636,4,1,0,50,1,0
37704,130.434782608696,4,1,0,50,1,0
38037,333.333333333333,4,1,0,50,1,0
38037,-66.6666666666667,4,1,0,50,0,0
38370,333.333333333333,4,1,0,50,1,0
38370,-80,4,1,0,50,0,0
38704,333.333333333333,4,1,0,50,1,0
45370,-133.333333333333,4,1,0,50,0,0
45537,-125,4,1,0,50,0,0
45703,-117.647058823529,4,1,0,50,0,0
45870,-111.111111111111,4,1,0,50,0,0
46037,-100,4,1,0,50,0,0
46370,-90.9090909090909,4,1,0,50,0,0
46703,-83.3333333333333,4,1,0,50,0,0
47037,-76.9230769230769,4,1,0,50,0,0
47370,-71.4285714285714,4,1,0,50,0,0
47703,-66.6666666666667,4,1,0,50,0,0
48037,-62.5,4,1,0,50,0,0
48370,-50,4,1,0,50,0,0
48703,-66.6666666666667,4,1,0,50,0,0
49620,-100,4,1,0,50,0,0
50703,-66.6666666666667,4,1,0,50,0,0
51037,-133.333333333333,4,1,0,50,0,0
51370,-66.6666666666667,4,1,0,50,0,0
51703,-133.333333333333,4,1,0,50,0,0
52037,166.666666666667,4,1,0,50,1,0
52037,-50,4,1,0,50,0,1
52078,-50,4,1,0,50,0,0
52370,-133.333333333333,4,1,0,50,0,0
53370,333.333333333333,4,1,0,50,1,0
53870,-133.333333333333,4,1,0,50,0,0
54370,-100,4,1,0,50,0,0
54536,-83.3333333333333,4,1,0,50,0,0
54703,-50,4,1,0,50,0,0
54870,-133.333333333333,4,1,0,50,0,0
54953,-66.6666666666667,4,1,0,50,0,0
55036,-100,4,1,0,50,0,0
55203,-66.6666666666667,4,1,0,50,0,0
56036,-100,4,1,0,50,0,0
56120,-90.9090909090909,4,1,0,50,0,0
56203,-83.3333333333333,4,1,0,50,0,0
56286,-76.9230769230769,4,1,0,50,0,0
56370,-71.4285714285714,4,1,0,50,0,0
56536,-66.6666666666667,4,1,0,50,0,0
56703,-100,4,1,0,50,0,0
56786,-90.9090909090909,4,1,0,50,0,0
56870,-83.3333333333333,4,1,0,50,0,0
57036,-76.9230769230769,4,1,0,50,0,0
57203,-71.4285714285714,4,1,0,50,0,0
57369,-100,4,1,0,50,0,0
58036,-83.3333333333333,4,1,0,50,0,0
58703,83.3333333333333,4,1,0,50,1,0
60036,333.333333333333,4,1,0,50,1,0
60036,-133.333333333333,4,1,0,30,0,0
64035,-125,4,1,0,30,0,0
64202,-117.647058823529,4,1,0,30,0,0
64369,-111.111111111111,4,1,0,30,0,0
64535,-105.263157894737,4,1,0,55,0,0
64702,-100,4,1,0,55,0,0
65369,-90.9090909090909,4,1,0,55,0,0
65535,-83.3333333333333,4,1,0,55,0,0
65702,-76.9230769230769,4,1,0,55,0,0
65869,-71.4285714285714,4,1,0,55,0,0
66036,-66.6666666666667,4,1,0,55,0,0
66202,-62.5,4,1,0,55,0,0
66369,-66.6666666666667,4,1,0,55,0,0
66452,-71.4285714285714,4,1,0,55,0,0
66536,-76.9230769230769,4,1,0,55,0,0
66619,-83.3333333333333,4,1,0,55,0,0
66702,-90.9090909090909,4,1,0,55,0,0
66786,-92.5925925925926,4,1,0,55,0,0
66869,-94.3396226415094,4,1,0,55,0,0
66952,-96.1538461538461,4,1,0,55,0,0
67036,-98.0392156862745,4,1,0,55,0,0
67119,-94.3396226415094,4,1,0,55,0,0
67202,-90.9090909090909,4,1,0,55,0,0
67285,-87.719298245614,4,1,0,55,0,0
67369,-84.7457627118644,4,1,0,55,0,0
67452,-81.9672131147541,4,1,0,55,0,0
67535,-79.3650793650794,4,1,0,55,0,0
67619,-76.9230769230769,4,1,0,55,0,0
67702,-74.6268656716418,4,1,0,55,0,0
67869,-50,4,1,0,55,0,1
67910,-100,4,1,0,55,0,0
68119,-90.9090909090909,4,1,0,55,0,0
68202,-83.3333333333333,4,1,0,55,0,0
68285,-76.9230769230769,4,1,0,55,0,0
68369,-71.4285714285714,4,1,0,55,0,0
68535,-50,4,1,0,55,0,1
68577,-100,4,1,0,55,0,0
68785,-90.9090909090909,4,1,0,55,0,0
68869,-83.3333333333333,4,1,0,55,0,0
68952,-76.9230769230769,4,1,0,55,0,0
69035,-71.4285714285714,4,1,0,55,0,0
69202,-50,4,1,0,55,0,1
69244,-100,4,1,0,55,0,0
69452,-90.9090909090909,4,1,0,55,0,0
69535,-83.3333333333333,4,1,0,55,0,0
69619,-76.9230769230769,4,1,0,55,0,0
69702,-71.4285714285714,4,1,0,55,0,0
69869,-50,4,1,0,55,0,1
69910,-100,4,1,0,55,0,0
71202,6.000600060006,4,1,0,55,1,1
71238,-100,4,1,0,55,0,0
71369,333.333333333333,4,1,0,55,1,0
72035,333.333333333333,4,1,0,55,1,0
72701,-66.6666666666667,4,1,0,55,0,0
73035,-100,4,1,0,55,0,0
73368,-66.6666666666667,4,1,0,55,0,0
73701,-100,4,1,0,55,0,0
74035,-66.6666666666667,4,1,0,55,0,0
74368,-50,4,1,0,55,0,1
74410,-66.6666666666667,4,1,0,55,0,0
75701,-100,4,1,0,55,0,0
78035,-83.3333333333333,4,1,0,55,0,0
79368,-71.4285714285714,4,1,0,55,0,0
79868,-62.5,4,1,0,55,0,0
80534,-58.8235294117647,4,1,0,55,0,0
80701,-55.5555555555556,4,1,0,55,0,0
81868,-100,4,1,0,55,0,0
86034,-50,4,1,0,55,0,0
96701,33.3333333333333,4,1,0,55,1,0
97201,333.333333333333,4,1,0,55,1,0
97201,-50,4,1,0,55,0,0
97368,333.333333333333,4,1,0,55,1,0
97368,-50,4,1,0,55,0,0
99368,-133.333333333333,4,1,0,55,0,0
99451,-71.4285714285714,4,1,0,55,0,0
99534,-80.6451612903226,4,1,0,55,0,0
99618,-67.5675675675676,4,1,0,55,0,0
99701,-113.636363636364,4,1,0,55,0,0
99784,-86.9565217391304,4,1,0,55,0,0
100034,-66.6666666666667,4,1,0,55,0,0
100284,-50,4,1,0,55,0,0
102034,-200,4,1,0,55,0,0
104701,-50,4,1,0,55,0,0
105367,83.3333333333333,4,1,0,55,1,0
105867,-66.6666666666667,4,1,0,55,0,0
106701,333.333333333333,4,1,0,55,1,0
108034,-76.9230769230769,4,1,0,55,0,0
108117,-83.3333333333333,4,1,0,55,0,0
108201,-90.9090909090909,4,1,0,55,0,0
108284,-100,4,1,0,55,0,0
108367,-71.4285714285714,4,1,0,55,0,0
108451,-76.9230769230769,4,1,0,55,0,0
108534,-83.3333333333333,4,1,0,55,0,0
108617,-90.9090909090909,4,1,0,55,0,0
108701,-66.6666666666667,4,1,0,55,0,0
108784,-71.4285714285714,4,1,0,55,0,0
108867,-76.9230769230769,4,1,0,55,0,0
108951,-83.3333333333333,4,1,0,55,0,0
109034,-62.5,4,1,0,55,0,0
109117,-66.6666666666667,4,1,0,55,0,0
109201,-71.4285714285714,4,1,0,55,0,0
109284,-76.9230769230769,4,1,0,55,0,0
109367,-66.6666666666667,4,1,0,55,0,0
109451,-71.4285714285714,4,1,0,55,0,0
109534,-76.9230769230769,4,1,0,55,0,0
109617,-83.3333333333333,4,1,0,55,0,0
109701,-71.4285714285714,4,1,0,55,0,0
109784,-76.9230769230769,4,1,0,55,0,0
109867,-83.3333333333333,4,1,0,55,0,0
109951,-90.9090909090909,4,1,0,55,0,0
110034,-76.9230769230769,4,1,0,55,0,0
110117,-83.3333333333333,4,1,0,55,0,0
110201,-90.9090909090909,4,1,0,55,0,0
110284,-100,4,1,0,55,0,0
110367,-66.6666666666667,4,1,0,55,0,0
110701,-76.9230769230769,4,1,0,55,0,0
111367,-90.9090909090909,4,1,0,55,0,0
111701,-76.9230769230769,4,1,0,55,0,0
111867,-66.6666666666667,4,1,0,55,0,0
112034,-100,4,1,0,55,0,0
112117,-90.9090909090909,4,1,0,55,0,0
112201,-83.3333333333333,4,1,0,55,0,0
112284,-76.9230769230769,4,1,0,55,0,0
112367,-71.4285714285714,4,1,0,55,0,0
112534,-50,4,1,0,55,0,0
112701,-100,4,1,0,55,0,0
113367,83.3333333333333,4,1,0,55,1,0
113867,-50,4,1,0,55,0,0
114034,333.333333333333,4,1,0,55,1,0
114034,-50,4,1,0,55,0,0
114200,-51.2820512820513,4,1,0,55,0,0
114367,-54.054054054054,4,1,0,55,0,0
114534,-57.1428571428571,4,1,0,55,0,0
114700,333.333333333333,4,1,0,55,1,0
114700,-60.6060606060606,4,1,0,55,0,0
115033,-64.5161290322581,4,1,0,55,0,0
115366,-68.9655172413793,4,1,0,55,0,0
115700,-74.0740740740741,4,1,0,55,0,0
116033,-80,4,1,0,55,0,0
116366,-86.9565217391304,4,1,0,55,0,0
116700,-66.6666666666667,4,1,0,55,0,0
116783,-71.4285714285714,4,1,0,55,0,0
116866,-76.9230769230769,4,1,0,55,0,0
117033,-50,4,1,0,55,0,0
117366,-76.9230769230769,4,1,0,55,0,1
117408,-76.9230769230769,4,1,0,55,0,0
117700,-66.6666666666667,4,1,0,55,0,0
118366,-100,4,1,0,55,0,0
119366,-83.3333333333333,4,1,0,55,0,0
119700,-71.4285714285714,4,1,0,55,0,0
120033,-62.5,4,1,0,55,0,0
120366,-55.5555555555556,4,1,0,55,0,0
120700,-50,4,1,0,55,0,0
121033,-66.6666666666667,4,1,0,55,0,0
121200,-133.333333333333,4,1,0,55,0,0
121366,-83.3333333333333,4,1,0,55,0,0
121450,-100,4,1,0,55,0,0
121533,-54.6448087431694,4,1,0,55,0,0
121700,-80,4,1,0,55,0,0
121866,-50,4,1,0,55,0,0
122033,-133.333333333333,4,1,0,55,0,0
122116,-90.0900900900901,4,1,0,55,0,0
122199,-75.187969924812,4,1,0,55,0,0
122283,-101.010101010101,4,1,0,55,0,0
122366,-64.9350649350649,4,1,0,55,0,0
122533,-76.9230769230769,4,1,0,55,0,0
122616,-66.6666666666667,4,1,0,55,0,0
122699,-50.251256281407,4,1,0,55,0,0
122783,-158.730158730159,4,1,0,55,0,0
122866,-86.9565217391304,4,1,0,55,0,0
123033,-64.5161290322581,4,1,0,55,0,0
123199,-151.515151515152,4,1,0,55,0,0
123366,-200,4,1,0,55,0,0
123533,-133.333333333333,4,1,0,55,0,0
123699,-100,4,1,0,55,0,0
123866,-66.6666666666667,4,1,0,55,0,0
124033,-50,4,1,0,55,0,1
124074,-50,4,1,0,55,0,0
124366,-50,4,1,0,55,0,1
124408,-50,4,1,0,55,0,0
124699,-66.6666666666667,4,1,0,55,0,0
124783,-100,4,1,0,55,0,0
124866,-66.6666666666667,4,1,0,55,0,0
124949,-100,4,1,0,55,0,0
125033,-66.6666666666667,4,1,0,55,0,0
125199,-100,4,1,0,55,0,0
125366,-66.6666666666667,4,1,0,55,0,0
125699,-100,4,1,0,55,0,0
126033,-83.3333333333333,4,1,0,55,0,0
126699,-71.4285714285714,4,1,0,55,0,0
127366,-62.5,4,1,0,55,0,0
127866,-58.8235294117647,4,1,0,55,0,0
128033,-55.5555555555556,4,1,0,55,0,0
128199,-52.6315789473684,4,1,0,55,0,0
128366,-50,4,1,0,55,0,0
128533,157.894736842105,4,1,0,55,1,0
128699,6,4,1,0,55,1,1
128741,-50,4,1,0,55,0,0
128866,6,4,1,0,55,1,1
128908,-50,4,1,0,55,0,0
129199,333.333333333333,4,1,0,55,1,0
129366,333.333333333333,4,1,0,55,1,0
130032,-76.9230769230769,4,1,0,55,0,0
130116,-83.3333333333333,4,1,0,55,0,0
130199,-90.9090909090909,4,1,0,55,0,0
130282,-100,4,1,0,55,0,0
130366,-76.9230769230769,4,1,0,55,0,0
130449,-83.3333333333333,4,1,0,55,0,0
130532,-90.9090909090909,4,1,0,55,0,0
130616,-100,4,1,0,55,0,0
130699,-76.9230769230769,4,1,0,55,0,0
130782,-83.3333333333333,4,1,0,55,0,0
130866,-90.9090909090909,4,1,0,55,0,0
130949,-100,4,1,0,55,0,0
131032,-90.9090909090909,4,1,0,55,0,0
131116,-83.3333333333333,4,1,0,55,0,0
131199,-76.9230769230769,4,1,0,55,0,0
131282,-71.4285714285714,4,1,0,55,0,0
131366,-66.6666666666667,4,1,0,55,0,0
132699,-76.9230769230769,4,1,0,55,0,0
133366,-90.9090909090909,4,1,0,55,0,0
134032,-66.6666666666667,4,1,0,55,0,0
134199,-71.4285714285714,4,1,0,55,0,0
134366,-76.9230769230769,4,1,0,55,0,0
134532,-83.3333333333333,4,1,0,55,0,0
134699,-90.9090909090909,4,1,0,55,0,0
134866,-66.6666666666667,4,1,0,55,0,0
135032,-100,4,1,0,55,0,0
135199,-66.6666666666667,4,1,0,55,0,0
135366,-100,4,1,0,55,0,0
135866,-83.3333333333333,4,1,0,55,0,0
136032,-76.9230769230769,4,1,0,55,0,0
136366,-71.4285714285714,4,1,0,55,0,0
136532,-66.6666666666667,4,1,0,55,0,0
136699,-100,4,1,0,55,0,0
137366,-83.3333333333333,4,1,0,55,0,0
138032,-71.4285714285714,4,1,0,55,0,0
138116,-76.9230769230769,4,1,0,55,0,0
138199,-83.3333333333333,4,1,0,55,0,0
138282,-90.9090909090909,4,1,0,55,0,0
138366,-100,4,1,0,55,0,0
138532,-66.6666666666667,4,1,0,55,0,0
143865,-83.3333333333333,4,1,0,55,0,0
163365,-50,4,1,0,55,0,0
163615,-83.3333333333333,4,1,0,55,0,0
167032,-133.333333333333,4,1,0,55,0,0
167365,-83.3333333333333,4,1,0,55,0,0
167532,-71.4285714285714,4,1,0,55,0,0
167699,-62.5,4,1,0,55,0,0
167865,-55.5555555555556,4,1,0,55,0,0
168032,-50,4,1,0,55,0,0
168088,-55.5555555555556,4,1,0,55,0,0
168143,-62.5,4,1,0,55,0,0
168199,-71.4285714285714,4,1,0,55,0,0
168365,-83.3333333333333,4,1,0,55,0,0
174365,-71.4285714285714,4,1,0,55,0,0
174532,-62.5,4,1,0,55,0,0
174699,-55.5555555555556,4,1,0,55,0,0
174865,166.666666666667,4,1,0,55,1,0
175031,125,4,1,0,55,1,0
175197,6,4,1,0,55,1,1
175197,-50,4,1,0,55,0,1
175234,-50,4,1,0,55,0,0

[HitObjects]
256,192,1372,5,6,0:0:0:0:
320,192,1538,1,2,0:0:0:0:
320,192,1705,1,0,0:0:0:0:
384,192,1872,1,2,0:0:0:0:
448,160,2038,1,2,0:0:0:0:
480,96,2205,1,0,0:0:0:0:
480,128,2288,1,0,0:0:0:0:
480,160,2372,1,0,0:0:0:0:
448,192,2455,1,0,0:0:0:0:
448,224,2538,1,0,0:0:0:0:
448,224,2622,1,0,0:0:0:0:
416,224,2705,1,2,0:0:0:0:
448,160,2872,1,2,0:0:0:0:
480,160,2955,1,0,0:0:0:0:
448,160,3038,1,0,0:0:0:0:
480,192,3205,1,2,0:0:0:0:
448,160,3288,1,0,0:0:0:0:
416,192,3372,1,0,0:0:0:0:
448,160,3538,1,2,0:0:0:0:
416,192,3622,1,0,0:0:0:0:
416,160,3705,1,2,0:0:0:0:
448,192,3788,1,0,0:0:0:0:
384,224,3871,1,0,0:0:0:0:
448,160,4038,1,2,0:0:0:0:
416,160,4205,1,2,0:0:0:0:
384,224,4372,1,0,0:0:0:0:
448,160,4538,1,2,0:0:0:0:
448,160,4705,1,2,0:0:0:0:
448,160,4872,1,2,0:0:0:0:
448,192,4955,1,0,0:0:0:0:
416,192,5038,1,0,0:0:0:0:
416,192,5122,1,0,0:0:0:0:
448,192,5205,1,2,0:0:0:0:
448,160,5288,1,0,0:0:0:0:
384,224,5372,1,4,0:0:0:0:
448,160,5538,1,2,0:0:0:0:
416,160,5621,1,0,0:0:0:0:
384,192,5705,1,0,0:0:0:0:
416,160,5871,1,0,0:0:0:0:
384,224,5955,1,0,0:0:0:0:
384,192,6038,1,0,0:0:0:0:
384,224,6121,1,0,0:0:0:0:
416,224,6205,1,2,0:0:0:0:
448,192,6288,1,0,0:0:0:0:
480,160,6371,1,2,0:0:0:0:
448,192,6538,1,0,0:0:0:0:
416,224,6705,1,0,0:0:0:0:
416,160,6871,1,2,0:0:0:0:
384,160,6955,1,0,0:0:0:0:
384,160,7038,1,0,0:0:0:0:
384,224,7205,1,2,0:0:0:0:
416,192,7288,1,2,0:0:0:0:
352,192,7371,1,2,0:0:0:0:
416,192,7455,1,2,0:0:0:0:
384,256,7538,1,0,0:0:0:0:
480,160,7705,1,0,0:0:0:0:
448,224,7871,1,2,0:0:0:0:
448,192,7955,1,0,0:0:0:0:
416,160,8038,1,0,0:0:0:0:
480,192,8205,1,2,0:0:0:0:
480,160,8288,1,0,0:0:0:0:
448,160,8371,1,2,0:0:0:0:
416,160,8455,1,2,0:0:0:0:
416,160,8538,1,2,0:0:0:0:
384,192,8621,1,2,0:0:0:0:
416,160,8705,1,2,0:0:0:0:
448,160,8788,1,0,0:0:0:0:
416,128,8871,1,0,0:0:0:0:
416,192,8955,1,0,0:0:0:0:
448,192,9038,1,2,0:0:0:0:
448,160,9205,1,2,0:0:0:0:
384,192,9371,1,2,0:0:0:0:
416,160,9538,1,0,0:0:0:0:
416,224,9705,1,0,0:0:0:0:
416,160,9871,1,2,0:0:0:0:
416,192,10038,1,2,0:0:0:0:
416,192,10205,1,0,0:0:0:0:
384,160,10288,1,0,0:0:0:0:
416,192,10371,1,0,0:0:0:0:
384,192,10455,1,0,0:0:0:0:
416,160,10538,1,2,0:0:0:0:
448,160,10621,1,0,0:0:0:0:
416,192,10705,1,0,0:0:0:0:
416,192,10760,1,0,0:0:0:0:
416,224,10816,1,0,0:0:0:0:
448,224,10871,1,0,0:0:0:0:
448,160,10955,1,2,0:0:0:0:
448,160,11038,1,0,0:0:0:0:
416,192,11094,1,0,0:0:0:0:
416,192,11149,1,0,0:0:0:0:
416,192,11205,1,0,0:0:0:0:
448,160,11288,1,2,0:0:0:0:
416,192,11371,1,2,0:0:0:0:
448,160,11455,1,0,0:0:0:0:
448,160,11538,1,0,0:0:0:0:
416,192,11621,1,0,0:0:0:0:
416,192,11705,1,2,0:0:0:0:
384,192,11760,1,0,0:0:0:0:
352,192,11816,1,0,0:0:0:0:
320,192,11871,1,0,0:0:0:0:
288,192,11927,1,0,0:0:0:0:
288,224,11983,1,0,0:0:0:0:
416,160,12038,1,0,0:0:0:0:
416,192,12205,1,2,0:0:0:0:
384,224,12371,1,2,0:0:0:0:
384,224,12455,1,2,0:0:0:0:
384,224,12538,1,2,0:0:0:0:
416,192,12621,1,0,0:0:0:0:
448,192,12705,1,0,0:0:0:0:
448,192,12871,1,2,0:0:0:0:
512,160,13038,1,0,0:0:0:0:
448,160,13205,1,2,0:0:0:0:
448,160,13371,1,0,0:0:0:0:
416,192,13455,1,0,0:0:0:0:
448,192,13538,1,2,0:0:0:0:
480,160,13621,1,0,0:0:0:0:
448,160,13705,1,0,0:0:0:0:
448,192,13788,1,0,0:0:0:0:
416,160,13871,1,2,0:0:0:0:
416,192,13955,1,2,0:0:0:0:
416,192,14038,1,2,0:0:0:0:
416,224,14121,1,2,0:0:0:0:
384,256,14205,1,2,0:0:0:0:
448,160,14288,1,0,0:0:0:0:
416,192,14371,1,0,0:0:0:0:
448,160,14455,1,2,0:0:0:0:
448,160,14538,1,2,0:0:0:0:
448,160,14621,1,0,0:0:0:0:
448,192,14705,1,0,0:0:0:0:
448,160,14788,1,2,0:0:0:0:
448,160,14871,1,2,0:0:0:0:
416,192,14955,1,2,0:0:0:0:
416,192,15038,1,2,0:0:0:0:
480,192,15205,1,2,0:0:0:0:
416,192,15288,1,0,0:0:0:0:
384,192,15371,1,0,0:0:0:0:
416,192,15455,1,0,0:0:0:0:
448,192,15538,1,2,0:0:0:0:
416,224,15621,1,2,0:0:0:0:
416,224,15705,1,2,0:0:0:0:
384,288,15871,1,2,0:0:0:0:
416,192,15955,1,0,0:0:0:0:
448,160,16038,1,0,0:0:0:0:
416,160,16121,1,2,0:0:0:0:
416,160,16205,1,2,0:0:0:0:
416,192,16288,1,2,0:0:0:0:
416,192,16371,1,0,0:0:0:0:
416,192,16538,1,2,0:0:0:0:
384,192,16621,1,2,0:0:0:0:
416,160,16705,1,0,0:0:0:0:
448,160,16788,1,0,0:0:0:0:
480,160,16871,1,0,0:0:0:0:
480,160,16955,1,2,0:0:0:0:
480,160,17038,1,0,0:0:0:0:
416,192,17205,1,2,0:0:0:0:
416,160,17371,1,2,0:0:0:0:
416,160,17483,1,0,0:0:0:0:
416,160,17594,1,0,0:0:0:0:
416,192,17705,1,2,0:0:0:0:
416,192,17871,1,2,0:0:0:0:
480,160,18038,1,0,0:0:0:0:
448,160,18121,1,2,0:0:0:0:
416,192,18205,1,2,0:0:0:0:
416,192,18288,1,0,0:0:0:0:
416,256,18455,1,0,0:0:0:0:
416,256,18496,1,0,0:0:0:0:
416,192,18538,1,2,0:0:0:0:
448,160,18705,1,0,0:0:0:0:
416,160,18871,1,0,0:0:0:0:
416,160,19038,1,0,0:0:0:0:
416,160,19205,1,2,0:0:0:0:
448,160,19371,1,0,0:0:0:0:
416,160,19455,1,0,0:0:0:0:
416,160,19538,1,0,0:0:0:0:
448,160,19621,1,2,0:0:0:0:
448,160,19705,1,0,0:0:0:0:
416,160,19788,1,0,0:0:0:0:
416,160,19871,1,2,0:0:0:0:
384,160,19955,1,2,0:0:0:0:
416,192,20038,1,2,0:0:0:0:
448,224,20121,1,2,0:0:0:0:
448,224,20205,1,2,0:0:0:0:
416,192,20288,1,0,0:0:0:0:
448,160,20371,1,2,0:0:0:0:
416,192,20455,1,2,0:0:0:0:
416,160,20538,1,2,0:0:0:0:
448,192,20621,1,0,0:0:0:0:
448,160,20705,1,2,0:0:0:0:
416,160,20788,1,2,0:0:0:0:
416,160,20871,1,2,0:0:0:0:
448,160,20955,1,0,0:0:0:0:
448,160,21038,1,2,0:0:0:0:
416,160,21121,1,2,0:0:0:0:
416,192,21205,1,0,0:0:0:0:
416,224,21288,1,0,0:0:0:0:
448,160,21371,1,2,0:0:0:0:
448,192,21455,1,2,0:0:0:0:
416,160,21538,1,2,0:0:0:0:
352,224,21705,1,0,0:0:0:0:
512,128,22038,1,2,0:0:0:0:
480,160,22121,1,0,0:0:0:0:
416,160,22205,1,0,0:0:0:0:
448,192,22288,1,0,0:0:0:0:
416,192,22371,1,2,0:0:0:0:
416,160,22455,1,2,0:0:0:0:
384,160,22538,1,2,0:0:0:0:
384,160,22621,1,2,0:0:0:0:
384,224,22705,1,2,0:0:0:0:
448,160,22871,1,0,0:0:0:0:
384,224,23121,1,2,0:0:0:0:
416,192,23205,1,0,0:0:0:0:
416,256,23371,1,0,0:0:0:0:
384,224,23455,1,0,0:0:0:0:
416,192,23538,1,2,0:0:0:0:
416,256,23705,1,2,0:0:0:0:
416,192,23871,1,0,0:0:0:0:
448,128,24038,1,2,0:0:0:0:
416,160,24121,1,2,0:0:0:0:
384,160,24205,1,2,0:0:0:0:
416,160,24288,1,0,0:0:0:0:
448,160,24371,1,2,0:0:0:0:
416,192,24455,1,2,0:0:0:0:
448,160,24538,1,2,0:0:0:0:
448,160,24621,1,0,0:0:0:0:
416,192,24705,1,0,0:0:0:0:
416,192,24788,1,0,0:0:0:0:
416,160,24871,1,0,0:0:0:0:
448,192,24955,1,2,0:0:0:0:
416,160,25038,1,0,0:0:0:0:
416,160,25121,1,0,0:0:0:0:
384,160,25205,1,0,0:0:0:0:
384,160,25288,1,0,0:0:0:0:
416,192,25371,1,2,0:0:0:0:
320,256,25705,1,2,0:0:0:0:
384,256,25871,1,2,0:0:0:0:
416,192,26038,1,2,0:0:0:0:
384,224,26121,1,2,0:0:0:0:
384,224,26205,1,2,0:0:0:0:
384,224,26371,1,2,0:0:0:0:
416,160,26538,1,2,0:0:0:0:
384,192,26705,1,2,0:0:0:0:
352,192,26788,1,2,0:0:0:0:
384,160,26871,1,2,0:0:0:0:
416,160,26955,1,0,0:0:0:0:
384,192,27038,1,0,0:0:0:0:
448,160,27205,1,0,0:0:0:0:
416,224,27371,1,0,0:0:0:0:
416,224,27455,1,0,0:0:0:0:
384,192,27538,1,0,0:0:0:0:
416,192,27705,1,0,0:0:0:0:
448,128,27871,1,2,0:0:0:0:
416,192,28038,1,4,0:0:0:0:
416,128,28205,1,2,0:0:0:0:
384,160,28371,1,2,0:0:0:0:
320,160,28538,1,2,0:0:0:0:
384,160,28705,1,2,0:0:0:0:
480,128,29038,1,0,0:0:0:0:
384,160,29371,1,0,0:0:0:0:
352,160,29454,1,0,0:0:0:0:
320,192,29537,1,0,0:0:0:0:
320,160,29621,1,2,0:0:0:0:
384,160,29704,1,2,0:0:0:0:
448,160,29871,1,0,0:0:0:0:
448,160,30037,1,2,0:0:0:0:
416,160,30121,1,2,0:0:0:0:
448,160,30204,1,0,0:0:0:0:
416,224,30371,1,2,0:0:0:0:
448,160,30537,1,0,0:0:0:0:
416,192,30704,1,0,0:0:0:0:
416,192,30759,1,0,0:0:0:0:
416,192,30815,1,0,0:0:0:0:
416,192,30871,1,0,0:0:0:0:
384,192,30954,1,0,0:0:0:0:
416,192,31037,1,2,0:0:0:0:
416,128,31204,1,2,0:0:0:0:
416,128,31287,1,2,0:0:0:0:
448,128,31370,1,0,0:0:0:0:
448,160,31426,1,0,0:0:0:0:
416,160,31482,1,0,0:0:0:0:
416,160,31537,1,0,0:0:0:0:
416,192,31620,1,0,0:0:0:0:
448,160,31704,1,2,0:0:0:0:
416,224,31787,1,2,0:0:0:0:
384,224,31870,1,2,0:0:0:0:
384,224,31954,1,2,0:0:0:0:
384,192,32037,1,2,0:0:0:0:
384,192,32093,1,2,0:0:0:0:
384,192,32148,1,2,0:0:0:0:
416,192,32204,1,0,0:0:0:0:
384,224,32287,1,0,0:0:0:0:
448,128,32370,1,2,0:0:0:0:
416,160,32426,1,2,0:0:0:0:
416,160,32482,1,2,0:0:0:0:
448,160,32537,1,0,0:0:0:0:
384,224,32620,1,0,0:0:0:0:
416,192,32704,1,0,0:0:0:0:
448,160,32787,1,2,0:0:0:0:
416,192,32871,1,2,0:0:0:0:
448,160,32954,1,2,0:0:0:0:
480,160,33037,1,2,0:0:0:0:
448,160,33120,1,0,0:0:0:0:
416,160,33204,1,0,0:0:0:0:
384,192,33287,1,0,0:0:0:0:
416,192,33370,1,4,0:0:0:0:
416,288,33704,1,4,0:0:0:0:
416,192,34037,1,4,0:0:0:0:
416,192,34370,1,6,0:0:0:0:
416,192,34704,1,4,0:0:0:0:
320,224,35037,1,4,0:0:0:0:
416,192,35370,1,4,0:0:0:0:
480,96,35704,1,6,0:0:0:0:
416,192,36037,1,4,0:0:0:0:
448,192,36370,1,4,0:0:0:0:
384,128,36704,1,4,0:0:0:0:
416,192,37037,1,6,0:0:0:0:
480,96,37370,1,6,0:0:0:0:
448,192,37704,1,6,0:0:0:0:
384,96,38037,1,4,0:0:0:0:
384,160,38204,1,0,0:0:0:0:
384,192,38287,1,0,0:0:0:0:
416,192,38370,1,6,0:0:0:0:
384,192,38537,1,6,0:0:0:0:
416,192,38620,1,2,0:0:0:0:
448,192,38704,1,4,0:0:0:0:
448,128,38870,1,2,0:0:0:0:
416,160,39037,1,2,0:0:0:0:
384,160,39120,1,2,0:0:0:0:
384,160,39204,1,2,0:0:0:0:
416,160,39287,1,0,0:0:0:0:
416,192,39370,1,0,0:0:0:0:
416,192,39537,1,2,0:0:0:0:
384,160,39704,1,0,0:0:0:0:
384,160,39759,1,2,0:0:0:0:
384,160,39815,1,2,0:0:0:0:
416,160,39870,1,2,0:0:0:0:
416,160,39954,1,0,0:0:0:0:
384,192,40037,1,0,0:0:0:0:
416,160,40120,1,2,0:0:0:0:
384,192,40204,1,2,0:0:0:0:
384,192,40287,1,2,0:0:0:0:
384,160,40370,1,2,0:0:0:0:
352,192,40454,1,2,0:0:0:0:
320,192,40537,1,2,0:0:0:0:
384,192,40620,1,0,0:0:0:0:
352,192,40704,1,0,0:0:0:0:
384,192,40787,1,2,0:0:0:0:
384,160,40870,1,2,0:0:0:0:
416,160,40954,1,0,0:0:0:0:
384,192,41037,1,0,0:0:0:0:
416,192,41120,1,2,0:0:0:0:
416,160,41204,1,2,0:0:0:0:
448,160,41287,1,0,0:0:0:0:
448,192,41370,1,0,0:0:0:0:
448,160,41454,1,2,0:0:0:0:
384,192,41537,1,2,0:0:0:0:
384,192,41620,1,2,0:0:0:0:
416,192,41704,1,6,0:0:0:0:
480,192,41870,1,6,0:0:0:0:
448,192,41954,1,0,0:0:0:0:
384,192,42037,1,0,0:0:0:0:
384,224,42120,1,0,0:0:0:0:
416,224,42204,1,0,0:0:0:0:
416,192,42287,1,2,0:0:0:0:
384,192,42370,1,2,0:0:0:0:
384,192,42426,1,2,0:0:0:0:
384,160,42481,1,2,0:0:0:0:
416,224,42537,1,0,0:0:0:0:
352,256,42704,1,0,0:0:0:0:
320,256,42787,1,0,0:0:0:0:
352,256,42870,1,0,0:0:0:0:
448,160,42954,1,2,0:0:0:0:
448,128,43037,1,0,0:0:0:0:
480,160,43204,1,2,0:0:0:0:
416,192,43370,1,0,0:0:0:0:
416,192,43454,1,0,0:0:0:0:
416,192,43537,1,0,0:0:0:0:
448,160,43620,1,2,0:0:0:0:
448,160,43704,1,2,0:0:0:0:
448,160,43759,1,0,0:0:0:0:
448,160,43815,1,0,0:0:0:0:
416,160,43870,1,0,0:0:0:0:
416,160,43926,1,2,0:0:0:0:
384,160,43981,1,2,0:0:0:0:
416,224,44037,1,2,0:0:0:0:
448,192,44148,1,0,0:0:0:0:
416,192,44259,1,0,0:0:0:0:
448,160,44370,1,2,0:0:0:0:
416,192,44537,1,2,0:0:0:0:
480,160,44704,1,0,0:0:0:0:
480,128,44787,1,2,0:0:0:0:
448,160,44870,1,2,0:0:0:0:
448,160,44954,1,0,0:0:0:0:
448,192,45037,1,0,0:0:0:0:
448,224,45120,1,0,0:0:0:0:
448,192,45204,1,2,0:0:0:0:
448,160,45259,1,2,0:0:0:0:
416,192,45315,1,2,0:0:0:0:
448,160,45370,1,0,0:0:0:0:
416,224,45537,1,0,0:0:0:0:
416,224,45703,1,0,0:0:0:0:
416,192,45870,1,2,0:0:0:0:
384,192,46037,1,0,0:0:0:0:
352,192,46120,1,0,0:0:0:0:
352,192,46203,1,0,0:0:0:0:
448,160,46287,1,2,0:0:0:0:
448,160,46370,1,0,0:0:0:0:
416,160,46453,1,0,0:0:0:0:
416,160,46537,1,2,0:0:0:0:
384,160,46620,1,2,0:0:0:0:
448,160,46703,1,2,0:0:0:0:
448,160,46787,1,2,0:0:0:0:
416,160,46870,1,2,0:0:0:0:
448,160,46953,1,0,0:0:0:0:
480,160,47037,1,2,0:0:0:0:
448,160,47120,1,2,0:0:0:0:
448,160,47203,1,2,0:0:0:0:
480,160,47287,1,0,0:0:0:0:
448,160,47370,1,2,0:0:0:0:
384,192,47453,1,2,0:0:0:0:
384,224,47537,1,2,0:0:0:0:
480,160,47620,1,0,0:0:0:0:
448,160,47703,1,2,0:0:0:0:
416,160,47787,1,2,0:0:0:0:
416,160,47870,1,2,0:0:0:0:
448,160,47953,1,0,0:0:0:0:
448,160,48037,1,2,0:0:0:0:
416,160,48120,1,2,0:0:0:0:
448,160,48203,1,0,0:0:0:0:
448,160,48370,1,0,0:0:0:0:
416,224,48703,1,2,0:0:0:0:
480,160,48870,1,0,0:0:0:0:
448,192,48953,1,0,0:0:0:0:
448,160,49037,1,2,0:0:0:0:
416,160,49120,1,2,0:0:0:0:
416,192,49203,1,0,0:0:0:0:
384,224,49287,1,0,0:0:0:0:
416,192,49370,1,2,0:0:0:0:
448,160,49537,1,0,0:0:0:0:
416,192,49703,1,2,0:0:0:0:
416,160,49787,1,2,0:0:0:0:
480,160,49870,1,0,0:0:0:0:
448,160,49953,1,0,0:0:0:0:
384,224,50037,1,0,0:0:0:0:
384,224,50120,1,0,0:0:0:0:
416,192,50203,1,2,0:0:0:0:
416,192,50370,1,2,0:0:0:0:
512,224,50537,1,0,0:0:0:0:
448,160,50703,1,2,0:0:0:0:
416,160,50787,1,2,0:0:0:0:
416,160,50870,1,2,0:0:0:0:
448,192,50953,1,0,0:0:0:0:
448,160,51037,1,2,0:0:0:0:
416,128,51120,1,2,0:0:0:0:
384,160,51203,1,2,0:0:0:0:
448,160,51287,1,0,0:0:0:0:
416,192,51370,1,0,0:0:0:0:
384,192,51453,1,0,0:0:0:0:
384,192,51537,1,0,0:0:0:0:
448,160,51620,1,2,0:0:0:0:
448,160,51703,1,0,0:0:0:0:
416,192,51787,1,0,0:0:0:0:
384,192,51870,1,0,0:0:0:0:
384,224,51953,1,0,0:0:0:0:
416,192,52037,1,2,0:0:0:0:
480,160,52370,1,2,0:0:0:0:
416,192,52537,1,2,0:0:0:0:
416,192,52703,1,2,0:0:0:0:
416,192,52787,1,2,0:0:0:0:
384,224,52870,1,2,0:0:0:0:
384,224,53037,1,2,0:0:0:0:
416,192,53203,1,2,0:0:0:0:
384,224,53370,1,2,0:0:0:0:
384,224,53453,1,2,0:0:0:0:
384,224,53537,1,2,0:0:0:0:
416,224,53620,1,0,0:0:0:0:
416,192,53703,1,0,0:0:0:0:
416,192,53870,1,0,0:0:0:0:
384,192,53953,1,0,0:0:0:0:
384,160,54037,1,0,0:0:0:0:
416,192,54120,1,0,0:0:0:0:
416,192,54203,1,0,0:0:0:0:
416,192,54370,1,0,0:0:0:0:
448,160,54537,1,2,0:0:0:0:
384,192,54703,1,4,0:0:0:0:
416,224,54870,1,2,0:0:0:0:
352,224,54953,1,2,0:0:0:0:
384,192,55036,1,2,0:0:0:0:
288,224,55203,1,2,0:0:0:0:
352,224,55370,1,2,0:0:0:0:
448,160,55703,1,0,0:0:0:0:
416,224,56036,1,4,0:0:0:0:
448,192,56120,1,0,0:0:0:0:
384,192,56203,1,0,0:0:0:0:
384,192,56286,1,0,0:0:0:0:
448,160,56370,1,2,0:0:0:0:
448,160,56536,1,2,0:0:0:0:
448,128,56703,1,2,0:0:0:0:
416,160,56786,1,2,0:0:0:0:
416,160,56870,1,2,0:0:0:0:
480,128,57036,1,2,0:0:0:0:
448,224,57203,1,0,0:0:0:0:
384,192,57369,1,4,0:0:0:0:
448,128,57619,1,2,0:0:0:0:
416,160,57703,1,2,0:0:0:0:
448,224,57869,1,0,0:0:0:0:
448,224,58036,1,4,0:0:0:0:
480,128,58286,1,2,0:0:0:0:
416,160,58369,1,2,0:0:0:0:
480,192,58536,1,0,0:0:0:0:
448,128,58703,1,2,0:0:0:0:
416,128,58786,1,2,0:0:0:0:
384,160,58869,1,2,0:0:0:0:
384,160,58953,1,2,0:0:0:0:
384,160,59036,1,2,0:0:0:0:
448,160,59203,1,0,0:0:0:0:
448,224,59369,1,2,0:0:0:0:
480,160,59536,1,0,0:0:0:0:
480,160,59703,1,2,0:0:0:0:
416,192,59869,1,0,0:0:0:0:
448,256,60036,1,4,0:0:0:0:
384,160,60258,1,0,0:0:0:0:
352,192,60369,1,0,0:0:0:0:
480,160,60591,1,2,0:0:0:0:
480,160,60702,1,0,0:0:0:0:
480,128,60924,1,2,0:0:0:0:
448,160,61036,1,0,0:0:0:0:
384,160,61258,1,0,0:0:0:0:
384,160,61313,1,0,0:0:0:0:
416,192,61369,1,0,0:0:0:0:
416,224,61591,1,0,0:0:0:0:
480,160,61702,1,2,0:0:0:0:
480,128,61924,1,0,0:0:0:0:
448,160,61980,1,0,0:0:0:0:
480,160,62036,1,2,0:0:0:0:
448,160,62147,1,2,0:0:0:0:
448,160,62258,1,2,0:0:0:0:
448,160,62369,1,2,0:0:0:0:
384,192,62591,1,2,0:0:0:0:
416,224,62702,1,2,0:0:0:0:
448,128,63036,1,2,0:0:0:0:
320,288,63258,1,2,0:0:0:0:
352,256,63369,1,0,0:0:0:0:
448,160,63480,1,0,0:0:0:0:
384,224,63591,1,0,0:0:0:0:
448,160,63702,1,2,0:0:0:0:
480,128,63924,1,2,0:0:0:0:
448,160,64035,1,2,0:0:0:0:
448,160,64202,1,0,0:0:0:0:
416,160,64369,1,0,0:0:0:0:
448,192,64535,1,2,0:0:0:0:
480,192,64702,1,4,0:0:0:0:
416,160,64869,1,2,0:0:0:0:
416,160,65035,1,2,0:0:0:0:
384,160,65119,1,2,0:0:0:0:
352,160,65202,1,2,0:0:0:0:
448,160,65285,1,0,0:0:0:0:
416,192,65369,1,0,0:0:0:0:
480,160,65535,1,2,0:0:0:0:
448,192,65702,1,0,0:0:0:0:
480,128,65869,1,2,0:0:0:0:
448,192,66036,1,0,0:0:0:0:
480,128,66202,1,2,0:0:0:0:
448,160,66369,1,2,0:0:0:0:
416,192,66452,1,2,0:0:0:0:
416,224,66536,1,2,0:0:0:0:
448,192,66619,1,0,0:0:0:0:
416,192,66702,1,2,0:0:0:0:
384,192,66786,1,2,0:0:0:0:
384,160,66869,1,2,0:0:0:0:
448,160,66952,1,0,0:0:0:0:
416,160,67036,1,0,0:0:0:0:
416,192,67119,1,2,0:0:0:0:
384,192,67202,1,2,0:0:0:0:
448,160,67285,1,0,0:0:0:0:
416,160,67369,1,0,0:0:0:0:
448,160,67452,1,2,0:0:0:0:
416,160,67535,1,2,0:0:0:0:
384,160,67619,1,2,0:0:0:0:
384,160,67702,1,2,0:0:0:0:
416,160,67869,1,2,0:0:0:0:
352,160,68035,1,0,0:0:0:0:
384,160,68119,1,2,0:0:0:0:
416,128,68202,1,2,0:0:0:0:
384,128,68285,1,2,0:0:0:0:
384,160,68369,1,2,0:0:0:0:
416,192,68535,1,0,0:0:0:0:
384,288,68702,1,0,0:0:0:0:
416,224,68785,1,0,0:0:0:0:
352,192,68869,1,0,0:0:0:0:
384,224,68952,1,0,0:0:0:0:
384,224,69035,1,0,0:0:0:0:
480,160,69202,1,2,0:0:0:0:
384,224,69369,1,0,0:0:0:0:
416,192,69452,1,2,0:0:0:0:
416,160,69535,1,2,0:0:0:0:
448,160,69619,1,0,0:0:0:0:
480,160,69702,1,0,0:0:0:0:
480,96,69869,1,2,0:0:0:0:
448,128,70035,1,2,0:0:0:0:
448,160,70147,1,0,0:0:0:0:
448,128,70258,1,0,0:0:0:0:
480,160,70369,1,2,0:0:0:0:
448,160,70535,1,2,0:0:0:0:
512,128,70702,1,0,0:0:0:0:
480,128,70785,1,2,0:0:0:0:
448,160,70869,1,2,0:0:0:0:
448,160,70952,1,2,0:0:0:0:
416,224,71202,1,2,0:0:0:0:
448,160,71369,1,0,0:0:0:0:
384,192,71535,1,0,0:0:0:0:
448,192,71702,1,0,0:0:0:0:
480,160,71869,1,2,0:0:0:0:
448,192,72035,1,0,0:0:0:0:
416,224,72118,1,0,0:0:0:0:
384,224,72201,1,0,0:0:0:0:
448,160,72285,1,2,0:0:0:0:
448,160,72368,1,0,0:0:0:0:
448,160,72451,1,0,0:0:0:0:
416,192,72535,1,0,0:0:0:0:
448,160,72618,1,2,0:0:0:0:
448,192,72701,1,0,0:0:0:0:
480,160,72785,1,2,0:0:0:0:
448,160,72868,1,2,0:0:0:0:
448,160,72951,1,0,0:0:0:0:
448,192,73035,1,0,0:0:0:0:
448,160,73118,1,2,0:0:0:0:
448,160,73201,1,2,0:0:0:0:
480,160,73285,1,0,0:0:0:0:
448,160,73368,1,2,0:0:0:0:
448,160,73451,1,2,0:0:0:0:
448,160,73535,1,2,0:0:0:0:
480,160,73618,1,0,0:0:0:0:
480,128,73701,1,2,0:0:0:0:
448,160,73785,1,2,0:0:0:0:
480,160,73868,1,2,0:0:0:0:
480,128,73951,1,0,0:0:0:0:
480,128,74035,1,2,0:0:0:0:
448,160,74118,1,2,0:0:0:0:
448,160,74201,1,0,0:0:0:0:
480,192,74368,1,0,0:0:0:0:
448,160,74701,1,2,0:0:0:0:
384,128,75035,1,2,0:0:0:0:
416,192,75201,1,2,0:0:0:0:
384,160,75285,1,2,0:0:0:0:
448,288,75368,1,2,0:0:0:0:
448,160,75535,1,0,0:0:0:0:
416,192,75784,1,0,0:0:0:0:
384,192,75867,1,0,0:0:0:0:
416,192,75951,1,0,0:0:0:0:
384,160,76035,1,0,0:0:0:0:
416,192,76118,1,0,0:0:0:0:
448,160,76201,1,2,0:0:0:0:
384,192,76368,1,2,0:0:0:0:
448,160,76535,1,0,0:0:0:0:
448,96,76701,1,2,0:0:0:0:
448,128,76785,1,2,0:0:0:0:
448,160,76868,1,2,0:0:0:0:
480,160,76951,1,0,0:0:0:0:
448,128,77035,1,2,0:0:0:0:
448,160,77118,1,2,0:0:0:0:
416,192,77201,1,2,0:0:0:0:
448,192,77285,1,0,0:0:0:0:
448,224,77368,1,0,0:0:0:0:
416,224,77451,1,0,0:0:0:0:
416,224,77535,1,0,0:0:0:0:
416,192,77618,1,2,0:0:0:0:
480,160,77701,1,0,0:0:0:0:
416,224,77785,1,0,0:0:0:0:
416,224,77868,1,0,0:0:0:0:
416,224,77951,1,0,0:0:0:0:
448,160,78035,1,2,0:0:0:0:
416,224,78368,1,2,0:0:0:0:
416,224,78535,1,2,0:0:0:0:
352,256,78701,1,2,0:0:0:0:
384,256,78785,1,2,0:0:0:0:
384,256,78868,1,2,0:0:0:0:
384,192,79035,1,2,0:0:0:0:
384,256,79201,1,2,0:0:0:0:
384,192,79368,1,0,0:0:0:0:
384,192,79451,1,0,0:0:0:0:
384,192,79534,1,0,0:0:0:0:
384,192,79618,1,0,0:0:0:0:
384,192,79701,1,0,0:0:0:0:
416,224,79868,1,0,0:0:0:0:
416,224,79951,1,0,0:0:0:0:
416,224,80034,1,0,0:0:0:0:
384,224,80118,1,0,0:0:0:0:
416,224,80201,1,0,0:0:0:0:
384,128,80368,1,0,0:0:0:0:
320,192,80534,1,2,0:0:0:0:
416,224,80701,1,4,0:0:0:0:
480,128,80868,1,2,0:0:0:0:
384,192,81034,1,2,0:0:0:0:
480,192,81201,1,2,0:0:0:0:
480,160,81257,1,2,0:0:0:0:
448,160,81312,1,2,0:0:0:0:
384,224,81368,1,2,0:0:0:0:
448,192,81701,1,0,0:0:0:0:
480,160,82034,1,2,0:0:0:0:
480,128,82118,1,0,0:0:0:0:
480,160,82201,1,2,0:0:0:0:
480,160,82284,1,0,0:0:0:0:
480,160,82368,1,2,0:0:0:0:
448,224,82534,1,0,0:0:0:0:
448,160,82701,1,2,0:0:0:0:
448,160,82757,1,2,0:0:0:0:
416,160,82812,1,2,0:0:0:0:
480,160,82868,1,0,0:0:0:0:
448,160,82951,1,0,0:0:0:0:
416,192,83034,1,2,0:0:0:0:
416,192,83090,1,2,0:0:0:0:
416,192,83146,1,2,0:0:0:0:
448,192,83201,1,0,0:0:0:0:
416,192,83284,1,0,0:0:0:0:
384,192,83368,1,0,0:0:0:0:
352,192,83423,1,0,0:0:0:0:
352,224,83479,1,0,0:0:0:0:
352,224,83534,1,0,0:0:0:0:
352,192,83618,1,0,0:0:0:0:
384,192,83701,1,2,0:0:0:0:
416,160,83784,1,0,0:0:0:0:
416,192,83868,1,0,0:0:0:0:
384,192,83951,1,0,0:0:0:0:
384,224,84034,1,0,0:0:0:0:
384,256,84090,1,0,0:0:0:0:
352,256,84146,1,0,0:0:0:0:
352,256,84201,1,0,0:0:0:0:
384,256,84284,1,0,0:0:0:0:
384,224,84368,1,2,0:0:0:0:
384,192,84451,1,2,0:0:0:0:
416,192,84534,1,0,0:0:0:0:
416,160,84618,1,0,0:0:0:0:
448,160,84701,1,2,0:0:0:0:
448,128,84784,1,2,0:0:0:0:
416,160,84868,1,2,0:0:0:0:
448,160,84951,1,0,0:0:0:0:
448,160,85034,1,2,0:0:0:0:
512,160,85201,1,0,0:0:0:0:
448,192,85368,1,0,0:0:0:0:
448,192,85423,1,2,0:0:0:0:
448,160,85479,1,2,0:0:0:0:
480,160,85534,1,0,0:0:0:0:
416,192,85618,1,0,0:0:0:0:
384,224,85701,1,0,0:0:0:0:
384,224,85757,1,2,0:0:0:0:
448,160,85812,1,2,0:0:0:0:
480,160,85868,1,0,0:0:0:0:
384,192,85951,1,0,0:0:0:0:
384,192,86034,1,0,0:0:0:0:
416,192,86534,1,0,0:0:0:0:
416,192,86701,1,0,0:0:0:0:
480,160,86867,1,2,0:0:0:0:
448,160,87034,1,0,0:0:0:0:
416,192,87368,1,0,0:0:0:0:
320,256,87534,1,0,0:0:0:0:
448,160,87701,1,2,0:0:0:0:
448,160,87868,1,0,0:0:0:0:
448,160,88034,1,2,0:0:0:0:
224,224,88368,1,2,0:0:0:0:
416,192,88701,1,2,0:0:0:0:
448,192,89201,1,2,0:0:0:0:
416,96,89368,1,0,0:0:0:0:
512,320,89701,1,2,0:0:0:0:
416,128,90034,1,2,0:0:0:0:
448,160,90201,1,0,0:0:0:0:
352,224,90368,1,0,0:0:0:0:
448,160,90534,1,2,0:0:0:0:
448,160,90701,1,2,0:0:0:0:
352,224,90868,1,2,0:0:0:0:
448,160,91034,1,2,0:0:0:0:
352,224,91201,1,2,0:0:0:0:
448,160,91368,1,0,0:0:0:0:
256,288,91701,1,0,0:0:0:0:
352,224,91868,1,0,0:0:0:0:
448,160,92034,1,2,0:0:0:0:
480,160,92201,1,2,0:0:0:0:
384,96,92368,1,0,0:0:0:0:
480,288,92701,1,0,0:0:0:0:
416,192,92868,1,0,0:0:0:0:
480,160,93034,1,2,0:0:0:0:
416,224,93201,1,0,0:0:0:0:
480,128,93368,1,2,0:0:0:0:
416,192,93701,1,2,0:0:0:0:
416,160,93951,1,2,0:0:0:0:
480,192,94034,1,2,0:0:0:0:
256,288,94368,1,2,0:0:0:0:
416,224,94534,1,2,0:0:0:0:
512,160,94701,1,0,0:0:0:0:
384,160,95034,1,2,0:0:0:0:
448,192,95368,1,2,0:0:0:0:
480,96,95534,1,0,0:0:0:0:
416,192,95701,1,0,0:0:0:0:
448,160,95868,1,2,0:0:0:0:
416,192,96034,1,2,0:0:0:0:
320,256,96201,1,2,0:0:0:0:
416,192,96368,1,2,0:0:0:0:
352,288,96534,1,0,0:0:0:0:
416,192,96701,1,0,0:0:0:0:
384,224,96784,1,0,0:0:0:0:
384,224,96868,1,0,0:0:0:0:
384,224,96951,1,0,0:0:0:0:
416,192,97034,1,0,0:0:0:0:
416,192,97201,1,0,0:0:0:0:
416,192,97368,1,0,0:0:0:0:
480,192,97534,1,2,0:0:0:0:
448,96,97701,1,0,0:0:0:0:
448,160,97868,1,2,0:0:0:0:
416,160,97951,1,2,0:0:0:0:
448,160,98034,1,0,0:0:0:0:
416,192,98201,1,0,0:0:0:0:
448,160,98368,1,2,0:0:0:0:
512,128,98534,1,0,0:0:0:0:
448,160,98701,1,2,0:0:0:0:
416,192,99034,1,2,0:0:0:0:
288,288,99284,1,0,0:0:0:0:
416,160,99368,1,2,0:0:0:0:
416,192,99451,1,2,0:0:0:0:
416,192,99534,1,2,0:0:0:0:
416,192,99618,1,2,0:0:0:0:
416,160,99701,1,2,0:0:0:0:
384,160,99784,1,2,0:0:0:0:
384,256,100034,1,2,0:0:0:0:
480,192,100284,1,4,0:0:0:0:
480,160,101201,1,2,0:0:0:0:
512,128,101368,1,0,0:0:0:0:
352,288,101701,1,0,0:0:0:0:
256,64,102034,1,0,0:0:0:0:
288,128,102118,1,0,0:0:0:0:
320,192,102201,1,0,0:0:0:0:
320,256,102284,1,0,0:0:0:0:
352,192,102368,1,0,0:0:0:0:
416,224,102451,1,0,0:0:0:0:
416,224,102534,1,0,0:0:0:0:
480,192,102618,1,0,0:0:0:0:
416,224,102701,1,0,0:0:0:0:
448,160,102784,1,0,0:0:0:0:
448,160,102868,1,0,0:0:0:0:
512,192,102951,1,2,0:0:0:0:
448,160,103034,1,0,0:0:0:0:
448,160,103118,1,0,0:0:0:0:
416,192,103201,1,0,0:0:0:0:
448,160,103284,1,2,0:0:0:0:
448,160,103368,1,0,0:0:0:0:
480,128,103451,1,2,0:0:0:0:
448,160,103534,1,2,0:0:0:0:
416,192,103618,1,2,0:0:0:0:
448,160,103701,1,0,0:0:0:0:
480,128,103784,1,2,0:0:0:0:
448,160,103868,1,2,0:0:0:0:
448,160,103951,1,2,0:0:0:0:
512,160,104034,1,0,0:0:0:0:
480,128,104118,1,2,0:0:0:0:
448,160,104201,1,2,0:0:0:0:
448,160,104284,1,2,0:0:0:0:
448,160,104368,1,2,0:0:0:0:
448,160,104451,1,2,0:0:0:0:
512,160,104534,1,2,0:0:0:0:
448,192,104617,1,2,0:0:0:0:
448,160,104701,1,0,0:0:0:0:
448,160,104923,1,2,0:0:0:0:
416,192,105034,1,0,0:0:0:0:
448,128,105590,1,0,0:0:0:0:
416,160,105645,1,0,0:0:0:0:
416,160,105701,1,0,0:0:0:0:
448,160,105923,1,2,0:0:0:0:
416,192,105979,1,2,0:0:0:0:
416,192,106034,1,2,0:0:0:0:
0,384,106701,1,0,0:0:0:0:
64,352,106812,1,0,0:0:0:0:
128,320,106923,1,0,0:0:0:0:
192,288,107034,1,2,0:0:0:0:
288,256,107201,1,2,0:0:0:0:
352,256,107284,1,2,0:0:0:0:
448,160,107367,1,0,0:0:0:0:
448,160,107534,1,2,0:0:0:0:
480,128,107617,1,0,0:0:0:0:
448,192,107701,1,4,0:0:0:0:
416,192,107784,1,0,0:0:0:0:
448,192,107867,1,2,0:0:0:0:
416,192,107951,1,0,0:0:0:0:
448,256,108034,1,0,0:0:0:0:
416,192,108117,1,0,0:0:0:0:
448,160,108201,1,2,0:0:0:0:
416,160,108284,1,2,0:0:0:0:
448,160,108367,1,0,0:0:0:0:
448,160,108451,1,0,0:0:0:0:
480,160,108534,1,2,0:0:0:0:
448,160,108617,1,2,0:0:0:0:
480,128,108701,1,0,0:0:0:0:
480,160,108784,1,2,0:0:0:0:
448,160,108867,1,2,0:0:0:0:
416,192,108951,1,2,0:0:0:0:
416,192,109034,1,2,0:0:0:0:
448,160,109117,1,2,0:0:0:0:
416,160,109201,1,0,0:0:0:0:
416,192,109284,1,0,0:0:0:0:
416,224,109367,1,2,0:0:0:0:
416,224,109451,1,2,0:0:0:0:
480,128,109534,1,0,0:0:0:0:
448,160,109617,1,0,0:0:0:0:
416,192,109701,1,0,0:0:0:0:
448,192,109784,1,2,0:0:0:0:
448,192,109867,1,2,0:0:0:0:
480,128,109951,1,0,0:0:0:0:
416,224,110034,1,0,0:0:0:0:
448,160,110117,1,2,0:0:0:0:
416,160,110201,1,2,0:0:0:0:
416,192,110284,1,2,0:0:0:0:
416,192,110367,1,2,0:0:0:0:
416,192,110534,1,2,0:0:0:0:
448,160,110617,1,0,0:0:0:0:
416,224,110701,1,0,0:0:0:0:
416,192,110784,1,2,0:0:0:0:
416,160,110867,1,2,0:0:0:0:
416,192,110951,1,2,0:0:0:0:
448,160,111034,1,2,0:0:0:0:
416,160,111117,1,2,0:0:0:0:
448,160,111201,1,0,0:0:0:0:
480,128,111284,1,0,0:0:0:0:
416,192,111367,1,0,0:0:0:0:
448,160,111451,1,2,0:0:0:0:
416,160,111534,1,2,0:0:0:0:
416,160,111617,1,2,0:0:0:0:
448,160,111701,1,0,0:0:0:0:
512,160,111867,1,2,0:0:0:0:
416,160,112034,1,0,0:0:0:0:
416,160,112117,1,0,0:0:0:0:
416,160,112201,1,0,0:0:0:0:
448,160,112284,1,2,0:0:0:0:
480,160,112367,1,0,0:0:0:0:
448,160,112534,1,2,0:0:0:0:
480,128,112701,1,2,0:0:0:0:
480,128,112812,1,0,0:0:0:0:
448,160,112923,1,0,0:0:0:0:
480,160,113034,1,2,0:0:0:0:
448,128,113201,1,2,0:0:0:0:
480,160,113367,1,0,0:0:0:0:
448,160,113451,1,2,0:0:0:0:
448,160,113534,1,2,0:0:0:0:
480,128,113617,1,0,0:0:0:0:
448,160,113867,1,2,0:0:0:0:
384,160,114034,1,0,0:0:0:0:
352,192,114200,1,0,0:0:0:0:
416,160,114367,1,0,0:0:0:0:
448,160,114534,1,2,0:0:0:0:
448,160,114700,1,0,0:0:0:0:
416,160,114783,1,0,0:0:0:0:
384,160,114866,1,0,0:0:0:0:
416,160,114950,1,2,0:0:0:0:
448,160,115033,1,0,0:0:0:0:
416,192,115116,1,0,0:0:0:0:
448,192,115200,1,2,0:0:0:0:
416,192,115283,1,2,0:0:0:0:
416,160,115366,1,2,0:0:0:0:
416,160,115450,1,2,0:0:0:0:
416,160,115533,1,2,0:0:0:0:
448,160,115616,1,0,0:0:0:0:
480,160,115700,1,2,0:0:0:0:
448,160,115783,1,2,0:0:0:0:
416,160,115866,1,2,0:0:0:0:
448,160,115950,1,0,0:0:0:0:
448,160,116033,1,2,0:0:0:0:
416,192,116116,1,2,0:0:0:0:
416,192,116200,1,2,0:0:0:0:
448,160,116283,1,0,0:0:0:0:
480,160,116366,1,2,0:0:0:0:
448,160,116450,1,2,0:0:0:0:
448,160,116533,1,0,0:0:0:0:
448,160,116700,1,2,0:0:0:0:
416,192,116783,1,2,0:0:0:0:
448,192,116866,1,0,0:0:0:0:
416,256,117033,1,0,0:0:0:0:
480,160,117366,1,2,0:0:0:0:
416,192,117700,1,2,0:0:0:0:
384,224,117783,1,2,0:0:0:0:
416,192,117866,1,2,0:0:0:0:
416,192,117922,1,2,0:0:0:0:
416,192,117977,1,2,0:0:0:0:
416,192,118033,1,2,0:0:0:0:
448,160,118200,1,0,0:0:0:0:
384,224,118450,1,0,0:0:0:0:
416,192,118533,1,2,0:0:0:0:
448,160,118616,1,0,0:0:0:0:
416,160,118700,1,0,0:0:0:0:
384,192,118783,1,0,0:0:0:0:
448,160,118866,1,2,0:0:0:0:
416,160,119033,1,2,0:0:0:0:
448,160,119200,1,0,0:0:0:0:
256,192,119366,1,8,0:0:0:0:
256,192,119450,1,8,0:0:0:0:
256,192,119533,1,0,0:0:0:0:
256,192,119616,1,0,0:0:0:0:
256,192,119700,1,8,0:0:0:0:
256,192,119783,1,8,0:0:0:0:
256,192,119866,1,0,0:0:0:0:
256,192,119950,1,0,0:0:0:0:
256,192,120033,1,8,0:0:0:0:
256,192,120116,1,8,0:0:0:0:
256,192,120200,1,8,0:0:0:0:
256,192,120283,1,8,0:0:0:0:
256,192,120366,1,0,0:0:0:0:
384,128,120408,1,0,0:0:0:0:
352,128,120450,1,0,0:0:0:0:
320,128,120491,1,0,0:0:0:0:
288,128,120533,1,0,0:0:0:0:
320,128,120575,1,0,0:0:0:0:
288,128,120616,1,0,0:0:0:0:
320,128,120658,1,0,0:0:0:0:
256,96,120700,1,12,0:0:0:0:
448,160,121033,1,2,0:0:0:0:
352,192,121200,1,2,0:0:0:0:
448,224,121366,1,2,0:0:0:0:
384,224,121450,1,2,0:0:0:0:
448,224,121533,1,2,0:0:0:0:
352,192,121700,1,2,0:0:0:0:
448,224,121866,1,2,0:0:0:0:
416,224,122033,1,0,0:0:0:0:
384,224,122116,1,0,0:0:0:0:
384,224,122199,1,0,0:0:0:0:
352,256,122283,1,0,0:0:0:0:
384,224,122366,1,0,0:0:0:0:
448,160,122533,1,0,0:0:0:0:
448,128,122616,1,0,0:0:0:0:
416,160,122699,1,0,0:0:0:0:
416,160,122783,1,0,0:0:0:0:
384,192,122866,1,0,0:0:0:0:
448,192,123033,1,0,0:0:0:0:
416,192,123199,1,2,0:0:0:0:
448,160,123366,1,0,0:0:0:0:
480,160,123533,1,2,0:0:0:0:
416,192,123699,1,2,0:0:0:0:
416,192,123866,1,2,0:0:0:0:
416,192,124033,1,2,0:0:0:0:
384,192,124366,1,0,0:0:0:0:
448,192,124699,1,2,0:0:0:0:
480,128,124783,1,0,0:0:0:0:
448,160,124866,1,2,0:0:0:0:
448,160,124949,1,0,0:0:0:0:
448,160,125033,1,2,0:0:0:0:
480,128,125199,1,0,0:0:0:0:
480,128,125366,1,2,0:0:0:0:
448,160,125449,1,2,0:0:0:0:
480,128,125533,1,0,0:0:0:0:
448,192,125699,1,2,0:0:0:0:
480,160,125866,1,0,0:0:0:0:
448,192,126033,1,0,0:0:0:0:
416,224,126116,1,0,0:0:0:0:
416,224,126199,1,0,0:0:0:0:
448,160,126283,1,2,0:0:0:0:
416,160,126366,1,2,0:0:0:0:
480,128,126533,1,2,0:0:0:0:
416,160,126616,1,2,0:0:0:0:
448,160,126699,1,0,0:0:0:0:
416,128,126783,1,0,0:0:0:0:
416,160,126866,1,0,0:0:0:0:
384,192,126949,1,2,0:0:0:0:
480,128,127033,1,2,0:0:0:0:
448,160,127199,1,2,0:0:0:0:
448,160,127283,1,0,0:0:0:0:
448,128,127366,1,2,0:0:0:0:
416,128,127449,1,2,0:0:0:0:
416,160,127533,1,2,0:0:0:0:
384,192,127616,1,2,0:0:0:0:
352,224,127699,1,2,0:0:0:0:
480,128,127866,1,0,0:0:0:0:
448,160,128033,1,2,0:0:0:0:
384,224,128199,1,0,0:0:0:0:
448,160,128366,1,2,0:0:0:0:
448,160,128533,1,0,0:0:0:0:
480,160,128699,1,6,0:0:0:0:
384,192,128866,1,6,0:0:0:0:
416,192,129199,1,0,0:0:0:0:
384,256,129283,1,0,0:0:0:0:
384,224,129366,1,0,0:0:0:0:
416,256,129449,1,0,0:0:0:0:
448,160,129533,1,2,0:0:0:0:
352,192,129699,1,2,0:0:0:0:
416,192,129866,1,0,0:0:0:0:
448,128,130032,1,2,0:0:0:0:
448,160,130116,1,2,0:0:0:0:
416,160,130199,1,2,0:0:0:0:
448,160,130282,1,0,0:0:0:0:
448,160,130366,1,2,0:0:0:0:
416,160,130449,1,2,0:0:0:0:
384,192,130532,1,2,0:0:0:0:
448,160,130616,1,0,0:0:0:0:
416,192,130699,1,0,0:0:0:0:
384,224,130782,1,0,0:0:0:0:
384,224,130866,1,0,0:0:0:0:
416,192,130949,1,2,0:0:0:0:
448,160,131032,1,0,0:0:0:0:
416,160,131116,1,0,0:0:0:0:
416,192,131199,1,0,0:0:0:0:
416,192,131282,1,0,0:0:0:0:
416,192,131366,1,2,0:0:0:0:
416,160,131699,1,2,0:0:0:0:
320,192,131866,1,2,0:0:0:0:
384,256,132032,1,2,0:0:0:0:
384,256,132116,1,2,0:0:0:0:
384,256,132199,1,2,0:0:0:0:
384,256,132366,1,2,0:0:0:0:
416,192,132532,1,2,0:0:0:0:
480,128,132699,1,0,0:0:0:0:
416,160,132782,1,0,0:0:0:0:
416,160,132866,1,0,0:0:0:0:
384,192,132949,1,0,0:0:0:0:
416,224,133032,1,0,0:0:0:0:
384,192,133199,1,0,0:0:0:0:
448,128,133366,1,2,0:0:0:0:
416,160,133449,1,2,0:0:0:0:
384,128,133532,1,2,0:0:0:0:
416,160,133616,1,2,0:0:0:0:
416,192,133699,1,2,0:0:0:0:
416,160,133782,1,2,0:0:0:0:
448,160,133866,1,2,0:0:0:0:
416,192,133949,1,0,0:0:0:0:
384,192,134032,1,0,0:0:0:0:
416,160,134199,1,2,0:0:0:0:
320,160,134366,1,2,0:0:0:0:
416,160,134532,1,2,0:0:0:0:
448,192,134699,1,2,0:0:0:0:
416,160,134782,1,2,0:0:0:0:
448,128,134866,1,0,0:0:0:0:
416,128,134949,1,0,0:0:0:0:
448,160,135032,1,0,0:0:0:0:
416,160,135116,1,0,0:0:0:0:
448,160,135199,1,2,0:0:0:0:
416,192,135282,1,2,0:0:0:0:
416,192,135366,1,0,0:0:0:0:
416,192,135449,1,0,0:0:0:0:
384,224,135532,1,0,0:0:0:0:
416,192,135616,1,2,0:0:0:0:
448,160,135699,1,2,0:0:0:0:
448,160,135866,1,0,0:0:0:0:
448,160,136032,1,2,0:0:0:0:
416,192,136116,1,2,0:0:0:0:
416,192,136199,1,2,0:0:0:0:
416,192,136366,1,2,0:0:0:0:
480,160,136532,1,0,0:0:0:0:
416,192,136699,1,0,0:0:0:0:
416,192,136754,1,0,0:0:0:0:
416,192,136810,1,0,0:0:0:0:
416,224,136866,1,0,0:0:0:0:
416,192,136949,1,2,0:0:0:0:
416,160,137032,1,2,0:0:0:0:
416,224,137199,1,2,0:0:0:0:
416,224,137282,1,2,0:0:0:0:
416,192,137366,1,0,0:0:0:0:
416,160,137421,1,0,0:0:0:0:
416,160,137477,1,0,0:0:0:0:
416,160,137532,1,0,0:0:0:0:
448,160,137616,1,2,0:0:0:0:
416,160,137699,1,2,0:0:0:0:
416,192,137866,1,2,0:0:0:0:
480,160,138032,1,2,0:0:0:0:
480,160,138116,1,0,0:0:0:0:
448,192,138199,1,2,0:0:0:0:
448,192,138282,1,0,0:0:0:0:
448,192,138366,1,2,0:0:0:0:
448,160,138532,1,0,0:0:0:0:
416,160,138699,1,2,0:0:0:0:
416,160,138754,1,2,0:0:0:0:
416,192,138810,1,2,0:0:0:0:
384,192,138866,1,2,0:0:0:0:
416,192,138921,1,2,0:0:0:0:
416,192,138977,1,2,0:0:0:0:
416,192,139032,1,0,0:0:0:0:
416,192,139088,1,0,0:0:0:0:
384,224,139143,1,0,0:0:0:0:
384,224,139199,1,0,0:0:0:0:
384,224,139254,1,0,0:0:0:0:
384,224,139310,1,0,0:0:0:0:
256,192,139366,1,4,0:0:0:0:
256,192,139699,1,4,0:0:0:0:
256,192,140032,1,8,0:0:0:0:
256,192,140199,1,8,0:0:0:0:
256,192,140366,1,0,0:0:0:0:
256,192,140532,1,8,0:0:0:0:
256,192,140699,1,0,0:0:0:0:
256,192,140866,1,0,0:0:0:0:
256,192,141032,1,8,0:0:0:0:
256,192,141199,1,8,0:0:0:0:
256,192,141366,1,0,0:0:0:0:
256,192,141449,1,8,0:0:0:0:
256,192,141532,1,0,0:0:0:0:
256,192,141616,1,8,0:0:0:0:
256,192,141699,1,0,0:0:0:0:
256,192,141782,1,0,0:0:0:0:
256,192,141866,1,8,0:0:0:0:
256,192,141949,1,8,0:0:0:0:
256,192,142032,1,4,0:0:0:0:
256,192,142366,1,4,0:0:0:0:
256,192,142699,1,12,0:0:0:0:
256,192,143032,1,12,0:0:0:0:
256,192,143366,1,4,0:0:0:0:
256,192,143532,1,8,0:0:0:0:
256,192,143616,1,0,0:0:0:0:
256,192,143699,1,8,0:0:0:0:
448,128,143865,5,2,0:0:0:0:
416,160,143948,1,2,0:0:0:0:
448,128,144032,1,0,0:0:0:0:
416,160,144115,1,0,0:0:0:0:
448,128,144198,1,2,0:0:0:0:
416,160,144365,1,2,0:0:0:0:
480,192,144532,1,0,0:0:0:0:
448,96,144699,1,2,0:0:0:0:
416,160,144782,1,2,0:0:0:0:
448,192,144865,1,2,0:0:0:0:
480,160,144949,1,0,0:0:0:0:
480,128,145032,1,2,0:0:0:0:
416,160,145115,1,2,0:0:0:0:
416,192,145199,1,2,0:0:0:0:
448,192,145282,1,8,0:0:0:0:
416,224,145365,1,0,0:0:0:0:
384,256,145449,1,0,0:0:0:0:
352,288,145532,1,0,0:0:0:0:
384,256,145615,1,2,0:0:0:0:
480,128,145699,1,0,0:0:0:0:
416,160,145782,1,0,0:0:0:0:
416,160,145865,1,0,0:0:0:0:
416,192,145949,1,0,0:0:0:0:
480,128,146032,1,2,0:0:0:0:
416,160,146365,1,2,0:0:0:0:
352,192,146532,1,2,0:0:0:0:
288,256,146699,1,2,0:0:0:0:
480,192,146782,1,2,0:0:0:0:
352,192,146865,1,2,0:0:0:0:
352,192,147032,1,2,0:0:0:0:
352,192,147199,1,2,0:0:0:0:
416,160,147365,1,0,0:0:0:0:
416,160,147449,1,0,0:0:0:0:
416,160,147532,1,0,0:0:0:0:
416,160,147615,1,0,0:0:0:0:
384,192,147699,1,0,0:0:0:0:
416,160,147865,1,0,0:0:0:0:
384,256,148032,1,0,0:0:0:0:
352,288,148115,1,0,0:0:0:0:
384,256,148199,1,0,0:0:0:0:
384,256,148365,1,0,0:0:0:0:
448,192,148532,1,2,0:0:0:0:
416,160,148699,1,0,0:0:0:0:
384,192,148865,1,0,0:0:0:0:
384,192,148949,1,0,0:0:0:0:
384,160,149032,1,0,0:0:0:0:
416,160,149199,1,2,0:0:0:0:
384,256,149365,1,2,0:0:0:0:
480,128,149699,1,0,0:0:0:0:
352,256,150032,1,0,0:0:0:0:
384,224,150115,1,0,0:0:0:0:
384,224,150199,1,0,0:0:0:0:
416,192,150282,1,0,0:0:0:0:
448,160,150365,1,2,0:0:0:0:
416,192,150532,1,2,0:0:0:0:
448,160,150615,1,0,0:0:0:0:
416,192,150699,1,0,0:0:0:0:
384,224,150782,1,0,0:0:0:0:
416,192,150865,1,0,0:0:0:0:
448,128,151032,1,2,0:0:0:0:
448,160,151199,1,2,0:0:0:0:
480,160,151282,1,0,0:0:0:0:
416,192,151365,1,0,0:0:0:0:
384,224,151421,1,0,0:0:0:0:
384,224,151477,1,0,0:0:0:0:
384,224,151532,1,0,0:0:0:0:
416,192,151615,1,2,0:0:0:0:
416,160,151699,1,2,0:0:0:0:
416,192,151865,1,2,0:0:0:0:
448,160,151949,1,0,0:0:0:0:
416,192,152032,1,0,0:0:0:0:
384,224,152088,1,0,0:0:0:0:
384,224,152143,1,0,0:0:0:0:
352,256,152199,1,0,0:0:0:0:
384,224,152282,1,2,0:0:0:0:
416,160,152365,1,2,0:0:0:0:
448,160,152449,1,0,0:0:0:0:
416,192,152532,1,0,0:0:0:0:
480,160,152615,1,2,0:0:0:0:
416,160,152699,1,2,0:0:0:0:
448,192,152782,1,2,0:0:0:0:
416,224,152865,1,2,0:0:0:0:
416,192,152949,1,0,0:0:0:0:
480,128,153032,1,2,0:0:0:0:
384,128,153199,1,0,0:0:0:0:
480,160,153365,1,2,0:0:0:0:
416,128,153532,1,0,0:0:0:0:
512,192,153699,1,2,0:0:0:0:
416,160,153782,1,2,0:0:0:0:
448,160,153865,1,0,0:0:0:0:
448,160,153949,1,0,0:0:0:0:
448,160,154032,1,0,0:0:0:0:
480,160,154199,1,2,0:0:0:0:
416,192,154365,1,2,0:0:0:0:
384,224,154449,1,2,0:0:0:0:
416,192,154532,1,2,0:0:0:0:
448,192,154615,1,0,0:0:0:0:
416,192,154699,1,0,0:0:0:0:
384,224,154754,1,0,0:0:0:0:
384,224,154810,1,0,0:0:0:0:
384,224,154865,1,0,0:0:0:0:
352,256,154949,1,0,0:0:0:0:
384,256,155032,1,0,0:0:0:0:
352,288,155088,1,0,0:0:0:0:
352,320,155143,1,0,0:0:0:0:
384,256,155199,1,0,0:0:0:0:
416,256,155240,1,0,0:0:0:0:
416,288,155282,1,0,0:0:0:0:
448,160,155324,1,0,0:0:0:0:
480,160,155365,1,0,0:0:0:0:
384,256,155532,1,2,0:0:0:0:
416,192,155699,1,2,0:0:0:0:
384,224,155782,1,2,0:0:0:0:
384,224,155865,1,2,0:0:0:0:
448,160,155949,1,0,0:0:0:0:
448,160,156032,1,2,0:0:0:0:
416,192,156115,1,2,0:0:0:0:
384,224,156199,1,2,0:0:0:0:
416,192,156282,1,0,0:0:0:0:
416,192,156365,1,0,0:0:0:0:
448,160,156449,1,2,0:0:0:0:
416,160,156532,1,2,0:0:0:0:
448,160,156615,1,0,0:0:0:0:
384,224,156699,1,0,0:0:0:0:
448,160,156782,1,2,0:0:0:0:
416,160,156865,1,2,0:0:0:0:
384,192,156949,1,2,0:0:0:0:
416,160,157032,1,2,0:0:0:0:
448,160,157199,1,0,0:0:0:0:
416,224,157365,1,0,0:0:0:0:
448,160,157449,1,2,0:0:0:0:
416,160,157532,1,2,0:0:0:0:
384,192,157615,1,2,0:0:0:0:
384,192,157699,1,2,0:0:0:0:
448,160,157865,1,0,0:0:0:0:
416,160,158032,1,0,0:0:0:0:
448,160,158115,1,2,0:0:0:0:
448,160,158199,1,0,0:0:0:0:
480,160,158282,1,2,0:0:0:0:
480,160,158365,1,0,0:0:0:0:
448,160,158532,1,2,0:0:0:0:
384,192,158699,1,0,0:0:0:0:
384,192,158782,1,0,0:0:0:0:
480,160,158865,1,2,0:0:0:0:
448,160,158949,1,0,0:0:0:0:
416,192,159032,1,0,0:0:0:0:
384,224,159115,1,0,0:0:0:0:
416,192,159199,1,2,0:0:0:0:
416,160,159282,1,2,0:0:0:0:
480,160,159365,1,2,0:0:0:0:
480,160,159449,1,0,0:0:0:0:
480,160,159532,1,2,0:0:0:0:
480,160,159615,1,0,0:0:0:0:
480,160,159699,1,2,0:0:0:0:
480,160,159865,1,2,0:0:0:0:
480,160,160032,1,0,0:0:0:0:
480,160,160115,1,2,0:0:0:0:
448,160,160199,1,2,0:0:0:0:
480,160,160282,1,0,0:0:0:0:
448,192,160365,1,4,0:0:0:0:
416,224,160449,1,4,0:0:0:0:
448,192,160532,1,4,0:0:0:0:
448,192,160615,1,6,0:0:0:0:
480,160,160699,1,0,0:0:0:0:
416,192,160865,1,0,0:0:0:0:
416,192,160949,1,0,0:0:0:0:
416,192,161032,1,0,0:0:0:0:
448,128,161199,1,0,0:0:0:0:
416,224,161365,1,0,0:0:0:0:
384,256,161449,1,0,0:0:0:0:
416,224,161532,1,0,0:0:0:0:
480,160,161615,1,2,0:0:0:0:
480,160,161699,1,0,0:0:0:0:
448,160,161782,1,2,0:0:0:0:
416,224,161865,1,2,0:0:0:0:
416,224,161921,1,2,0:0:0:0:
416,224,161977,1,2,0:0:0:0:
416,224,162032,1,2,0:0:0:0:
416,224,162088,1,2,0:0:0:0:
416,224,162143,1,2,0:0:0:0:
448,160,162199,1,2,0:0:0:0:
448,192,162282,1,0,0:0:0:0:
480,160,162365,1,2,0:0:0:0:
448,160,162449,1,2,0:0:0:0:
448,192,162532,1,2,0:0:0:0:
480,160,162615,1,0,0:0:0:0:
448,160,162699,1,2,0:0:0:0:
416,192,162782,1,2,0:0:0:0:
416,224,162865,1,2,0:0:0:0:
448,192,162949,1,0,0:0:0:0:
448,192,163032,1,2,0:0:0:0:
416,224,163115,1,2,0:0:0:0:
480,160,163199,1,0,0:0:0:0:
448,192,163365,1,2,0:0:0:0:
416,192,163449,1,2,0:0:0:0:
480,160,163532,1,0,0:0:0:0:
416,192,163699,1,0,0:0:0:0:
288,160,164032,1,2,0:0:0:0:
384,256,164365,1,2,0:0:0:0:
416,224,164532,1,2,0:0:0:0:
384,224,164588,1,2,0:0:0:0:
384,224,164643,1,2,0:0:0:0:
384,224,164699,1,2,0:0:0:0:
416,160,164865,1,0,0:0:0:0:
480,192,165032,1,2,0:0:0:0:
448,192,165088,1,2,0:0:0:0:
384,224,165143,1,2,0:0:0:0:
416,192,165199,1,0,0:0:0:0:
384,160,165282,1,0,0:0:0:0:
384,192,165365,1,0,0:0:0:0:
384,224,165421,1,0,0:0:0:0:
384,256,165477,1,0,0:0:0:0:
384,224,165532,1,2,0:0:0:0:
416,192,165615,1,0,0:0:0:0:
416,160,165699,1,0,0:0:0:0:
416,160,165754,1,0,0:0:0:0:
448,160,165810,1,2,0:0:0:0:
480,160,165865,1,0,0:0:0:0:
416,224,165949,1,0,0:0:0:0:
416,224,166032,1,0,0:0:0:0:
448,160,166088,1,2,0:0:0:0:
480,160,166143,1,0,0:0:0:0:
416,224,166199,1,0,0:0:0:0:
384,224,166282,1,0,0:0:0:0:
480,160,166365,1,2,0:0:0:0:
448,160,166449,1,2,0:0:0:0:
480,128,166532,1,0,0:0:0:0:
448,160,166615,1,0,0:0:0:0:
448,192,166699,1,0,0:0:0:0:
384,256,166782,1,0,0:0:0:0:
416,224,166865,1,0,0:0:0:0:
448,192,166949,1,2,0:0:0:0:
416,224,167032,1,4,0:0:0:0:
416,224,167115,1,4,0:0:0:0:
384,224,167199,1,4,0:0:0:0:
352,256,167282,1,4,0:0:0:0:
448,160,167365,1,2,0:0:0:0:
384,192,167532,1,2,0:0:0:0:
384,192,167699,1,2,0:0:0:0:
448,192,167865,1,2,0:0:0:0:
416,96,168032,1,2,0:0:0:0:
416,128,168088,1,2,0:0:0:0:
416,160,168143,1,2,0:0:0:0:
448,160,168199,1,0,0:0:0:0:
416,256,168365,1,0,0:0:0:0:
416,160,168532,1,0,0:0:0:0:
480,128,168699,1,0,0:0:0:0:
384,192,168782,1,0,0:0:0:0:
384,192,168865,1,0,0:0:0:0:
384,192,168949,1,0,0:0:0:0:
416,224,169032,1,0,0:0:0:0:
384,160,169199,1,0,0:0:0:0:
384,192,169282,1,0,0:0:0:0:
384,224,169365,1,0,0:0:0:0:
384,224,169449,1,0,0:0:0:0:
384,224,169532,1,0,0:0:0:0:
448,160,169615,1,0,0:0:0:0:
384,224,169699,1,4,0:0:0:0:
416,192,169782,1,4,0:0:0:0:
448,160,169865,1,6,0:0:0:0:
416,160,169949,1,6,0:0:0:0:
448,160,170032,1,4,0:0:0:0:
480,96,170199,1,2,0:0:0:0:
384,192,170365,1,2,0:0:0:0:
384,192,170532,1,2,0:0:0:0:
448,192,170699,1,6,0:0:0:0:
480,64,171032,1,4,0:0:0:0:
480,192,171365,1,6,0:0:0:0:
480,160,171449,1,0,0:0:0:0:
480,160,171532,1,6,0:0:0:0:
480,128,171615,1,0,0:0:0:0:
480,160,171699,1,6,0:0:0:0:
480,128,171865,1,0,0:0:0:0:
480,160,172032,1,6,0:0:0:0:
448,160,172115,1,2,0:0:0:0:
448,192,172199,1,4,0:0:0:0:
480,160,172282,1,0,0:0:0:0:
448,192,172365,1,6,0:0:0:0:
448,192,172449,1,2,0:0:0:0:
480,192,172532,1,4,0:0:0:0:
512,160,172615,1,0,0:0:0:0:
448,192,172699,1,4,0:0:0:0:
480,128,172782,1,2,0:0:0:0:
448,160,172865,1,0,0:0:0:0:
480,160,172949,1,6,0:0:0:0:
480,160,173032,1,6,0:0:0:0:
480,192,173115,1,2,0:0:0:0:
480,160,173199,1,4,0:0:0:0:
480,160,173282,1,2,0:0:0:0:
480,192,173365,1,4,0:0:0:0:
448,192,173449,1,2,0:0:0:0:
448,192,173532,1,4,0:0:0:0:
448,160,173615,1,6,0:0:0:0:
448,160,173699,1,6,0:0:0:0:
480,192,173782,1,2,0:0:0:0:
448,224,173865,1,4,0:0:0:0:
448,160,173949,1,2,0:0:0:0:
448,224,174032,1,6,0:0:0:0:
480,192,174115,1,2,0:0:0:0:
448,192,174199,1,2,0:0:0:0:
448,160,174282,1,4,0:0:0:0:
448,192,174365,1,2,0:0:0:0:
480,128,174532,1,0,0:0:0:0:
448,224,174699,1,6,0:0:0:0:
448,160,174865,1,0,0:0:0:0:
480,192,175032,1,6,0:0:0:0:
448,192,175199,1,4,0:0:0:0:
