osu file format v14

[General]
AudioFilename: audio.mp3
AudioLeadIn: 0
PreviewTime: 59509
Countdown: 0
SampleSet: Soft
StackLeniency: 0.7
Mode: 2
LetterboxInBreaks: 0
WidescreenStoryboard: 0

[Editor]
Bookmarks: 26427,29022,31617,34211
DistanceSpacing: 1.5
BeatDivisor: 4
GridSize: 4
TimelineZoom: 2.599999

[Metadata]
Title:Egao no Kanata (TV Size)
TitleUnicode:エガオノカナタ (TV Size)
Artist:Chiho feat. majiko
ArtistUnicode:Chiho feat. majiko
Creator:Sanyi
Version:Sh1n1's Overdose
Source:エガオノダイカ
Tags:牧野圭祐 宮田“レフティ”リョウ The Cost Price of Smiles Opening OP Anime Japanese Egao no Daika H△G HAG -sh1n1- shini andrea osuplayer111 baron
BeatmapID:2378171
BeatmapSetID:1138424

[Difficulty]
HPDrainRate:7
CircleSize:4.2
OverallDifficulty:9.2
ApproachRate:9.2
SliderMultiplier:1.6
SliderTickRate:2

[Events]
//Background and Video events
0,0,"BG.jpg",0,0
//Break Periods
//Storyboard Layer 0 (Background)
//Storyboard Layer 1 (Fail)
//Storyboard Layer 2 (Pass)
//Storyboard Layer 3 (Foreground)
//Storyboard Layer 4 (Overlay)
//Storyboard Sound Samples

[TimingPoints]
482,324.324324324324,4,2,1,60,1,0
5022,-100,4,2,1,80,0,0
14590,-100,4,2,1,80,0,0
15563,-100,4,2,1,60,0,0
16049,-133.333333333333,4,2,1,60,0,0
26103,-100,4,2,1,80,0,0
26427,-100,4,2,1,70,0,0
35509,-100,4,2,1,75,0,0
59509,-100,4,2,1,60,0,0
59671,-66.6666666666667,4,2,1,60,0,0
59914,-100,4,2,1,5,0,0
59995,-100,4,2,1,80,0,1
80752,-100,4,2,1,80,0,0
84725,-100,4,2,1,60,0,0
86103,-100,4,2,1,40,0,0
87400,-100,4,2,1,20,0,0
88049,-100,4,2,1,10,0,0
88698,-100,4,2,1,5,0,0

[Colours]
Combo1 : 255,106,106
Combo2 : 106,207,255
Combo3 : 172,217,145

[HitObjects]
377,151,482,6,0,P|446:232|369:323,1,240,2|2,0:0|0:0,0:0:0:0:
98,151,1454,2,0,P|29:232|106:323,1,240,2|2,0:0|0:0,0:0:0:0:
373,192,2427,1,2,0:0:0:0:
181,192,2752,1,2,0:0:0:0:
388,316,3076,6,0,L|125:316,1,240,2|2,0:0|0:0,0:0:0:0:
412,357,4049,2,0,B|493:358|493:358|213:358|213:358|301:359,1,440,2|0,0:0|0:0,0:0:0:0:
432,86,5022,1,8,0:0:0:0:
50,39,5184,1,8,0:0:0:0:
435,282,5509,6,0,P|479:255|430:177,1,160,4|0,0:0|0:0,0:0:0:0:
180,131,5995,2,0,B|197:52,1,80,8|0,0:0|0:0,0:0:0:0:
357,110,6319,2,0,B|374:31,1,80,2|0,0:0|0:0,0:0:0:0:
100,295,6644,2,0,B|17:295,1,80,8|0,0:0|0:0,0:0:0:0:
284,140,6968,5,2,0:0:0:0:
60,96,7130,1,0,0:0:0:0:
316,64,7292,2,0,B|407:64,1,80,8|0,0:0|0:0,0:0:0:0:
100,228,7617,1,2,0:0:0:0:
324,184,7779,1,0,0:0:0:0:
84,140,7941,1,8,0:0:0:0:
403,263,8103,6,0,P|457:236|396:191,1,160,4|0,0:0|0:0,0:0:0:0:
124,264,8590,2,0,B|84:192,1,80,8|0,0:0|0:0,0:0:0:0:
245,150,8914,2,0,B|297:90,1,80,2|0,0:0|0:0,0:0:0:0:
34,116,9238,2,0,B|86:56,1,80,8|0,0:0|0:0,0:0:0:0:
352,146,9563,5,2,0:0:0:0:
128,112,9725,1,0,0:0:0:0:
392,64,9887,2,0,B|483:64,1,80,8|0,0:0|0:0,0:0:0:0:
192,224,10212,1,2,0:0:0:0:
440,184,10374,1,0,0:0:0:0:
140,136,10536,1,8,0:0:0:0:
467,282,10698,6,0,B|426:266|426:266|305:283,1,160,4|0,0:0|0:0,0:0:0:0:
55,224,11184,2,0,L|139:225,1,80,8|0,0:0|0:0,0:0:0:0:
296,115,11509,2,0,L|207:115,1,80,2|0,0:0|0:0,0:0:0:0:
480,59,11833,2,0,L|399:60,1,80,8|0,0:0|0:0,0:0:0:0:
152,192,12157,5,2,0:0:0:0:
376,144,12319,1,0,0:0:0:0:
120,105,12481,2,0,B|29:105,1,80,8|0,0:0|0:0,0:0:0:0:
328,268,12806,1,2,0:0:0:0:
104,224,12968,1,0,0:0:0:0:
344,184,13130,1,8,0:0:0:0:
29,311,13292,6,0,L|197:311,1,160,4|8,0:0|0:3,0:0:0:0:
230,311,13698,1,8,0:3:0:0:
430,315,13779,2,0,L|510:316,1,80,8|0,0:0|0:0,0:0:0:0:
254,205,14103,1,8,0:0:0:0:
350,205,14265,1,8,0:3:0:0:
109,124,14427,1,8,0:3:0:0:
430,191,14590,6,0,P|330:133|389:190,1,480,4|8,0:0|0:3,0:0:0:0:
472,245,15725,1,8,0:3:0:0:
76,302,16049,6,0,P|34:273|85:255,1,120.000004577637,4|2,0:0|0:0,0:0:0:0:
156,145,16536,1,0,0:0:0:0:
318,104,16698,2,0,P|361:129|319:156,1,120.000004577637,2|0,0:0|0:0,0:0:0:0:
96,274,17184,6,0,L|338:274,1,240.000009155274,2|0,0:0|0:0,0:0:0:0:
95,29,18157,1,2,0:0:0:0:
173,29,18319,1,0,0:0:0:0:
65,29,18481,1,0,0:0:0:0:
288,198,18644,6,0,P|330:169|279:151,1,120.000004577637,2|2,0:0|0:0,0:0:0:0:
208,175,19131,1,0,0:0:0:0:
370,71,19293,2,0,L|489:71,1,120.000004577637,2|2,0:0|0:0,0:0:0:0:
268,213,19779,6,0,P|205:287|302:295,1,240.000009155274,2|0,0:0|0:0,0:0:0:0:
87,95,20752,1,2,0:0:0:0:
9,70,20914,1,0,0:0:0:0:
111,27,21076,1,0,0:0:0:0:
333,186,21238,6,0,B|431:92,1,120.000004577637,2|2,0:0|0:0,0:0:0:0:
341,47,21725,1,2,0:0:0:0:
179,117,21887,2,0,P|137:88|188:70,1,120.000004577637,0|2,0:0|0:0,0:0:0:0:
402,231,22373,6,0,P|441:264|390:303,1,120.000004577637,2|0,0:0|0:0,0:0:0:0:
324,276,22860,1,2,0:0:0:0:
246,276,23022,1,0,0:0:0:0:
24,122,23184,2,0,L|147:121,1,120.000004577637,2|0,0:0|0:0,0:0:0:0:
223,121,23671,1,0,0:0:0:0:
385,318,23833,6,0,L|366:261,1,60.0000022888184,2|0,0:0|0:0,0:0:0:0:
246,276,24157,2,0,L|228:216,1,60.0000022888184,0|0,0:0|0:0,0:0:0:0:
349,149,24481,1,0,0:0:0:0:
145,38,24806,5,2,0:0:0:0:
367,280,24968,2,0,L|385:218,1,60.0000022888184,0|0,0:0|0:0,0:0:0:0:
264,216,25292,2,0,L|246:156,1,60.0000022888184,2|0,0:0|0:0,0:0:0:0:
374,130,25617,2,0,L|448:130,2,60.0000022888184,2|0|0,0:0|0:0|0:0,0:0:0:0:
121,331,26103,5,8,0:0:0:0:
81,301,26184,1,8,0:0:0:0:
301,259,26265,1,8,0:0:0:0:
341,229,26346,1,8,0:0:0:0:
81,141,26427,6,0,L|17:85,1,80,2|0,0:0|0:0,0:0:0:0:
278,83,26752,2,0,L|342:27,1,80,8|0,0:0|0:0,0:0:0:0:
178,229,27076,2,0,L|242:173,1,80,2|0,0:0|0:0,0:0:0:0:
134,136,27400,1,8,0:0:0:0:
391,309,27563,6,0,P|445:266|387:236,1,160,2|0,0:0|0:0,0:0:0:0:
128,243,28049,2,0,L|41:243,1,80,8|0,0:0|0:0,0:0:0:0:
80,198,28292,1,0,0:0:0:0:
280,137,28373,2,0,L|330:67,1,80,8|0,0:0|0:0,0:0:0:0:
166,90,28698,2,0,L|116:20,1,80,8|0,0:0|0:0,0:0:0:0:
403,41,29022,6,0,P|458:85|382:122,1,160,2|8,0:0|0:0,0:0:0:0:
301,87,29509,1,0,0:0:0:0:
45,252,29671,2,0,L|126:250,1,80,2|0,0:0|0:0,0:0:0:0:
21,178,29995,1,8,0:0:0:0:
277,306,30157,6,0,L|440:305,1,160,0|0,0:0|0:0,0:0:0:0:
180,160,30644,2,0,L|92:159,1,80,8|0,0:0|0:0,0:0:0:0:
132,118,30887,1,0,0:0:0:0:
332,160,30968,2,0,L|230:160,1,80,8|0,0:0|0:0,0:0:0:0:
91,282,31292,2,0,L|3:281,1,80,8|0,0:0|0:0,0:0:0:0:
333,327,31617,6,0,P|387:287|327:258,1,160,2|8,0:0|0:0,0:0:0:0:
168,186,32103,1,0,0:0:0:0:
248,146,32265,1,2,0:0:0:0:
144,105,32427,1,0,0:0:0:0:
401,141,32590,2,0,B|359:64,1,80,8|0,0:0|0:0,0:0:0:0:
203,247,32914,6,0,B|161:170,1,80,2|0,0:0|0:0,0:0:0:0:
421,322,33238,2,0,B|463:245,1,80,8|0,0:0|0:0,0:0:0:0:
427,245,33481,1,0,0:0:0:0:
224,195,33563,2,0,B|182:118,1,80,8|0,0:0|0:0,0:0:0:0:
450,100,33887,2,0,B|492:23,1,80,8|0,0:0|0:0,0:0:0:0:
216,332,34211,6,0,L|45:333,1,160,4|8,0:0|0:0,0:0:0:0:
161,248,34698,1,0,0:0:0:0:
422,139,34860,2,0,L|354:82,1,80,2|0,0:0|0:0,0:0:0:0:
105,96,35184,2,0,L|34:42,1,80,8|0,0:0|0:0,0:0:0:0:
298,242,35509,5,4,0:0:0:0:
402,240,35671,1,8,0:0:0:0:
274,176,35833,1,0,0:0:0:0:
426,177,35995,1,0,0:0:0:0:
170,154,36157,2,0,L|132:70,1,80,8|8,0:0|0:3,0:0:0:0:
393,105,36481,2,0,L|431:21,1,80,8|8,0:3|0:3,0:0:0:0:
125,338,36806,6,0,P|73:316|146:273,1,160,4|2,0:0|0:0,0:0:0:0:
364,235,37292,2,0,P|416:213|343:170,1,160,8|0,0:0|0:0,0:0:0:0:
261,110,37779,1,2,0:0:0:0:
405,55,37941,1,0,0:0:0:0:
221,341,38103,5,0,0:0:0:0:
158,299,38265,1,8,0:0:0:0:
162,222,38427,1,2,0:0:0:0:
230,188,38589,1,0,0:0:0:0:
471,266,38752,2,0,B|471:174,1,80,8|0,0:0|0:0,0:0:0:0:
327,163,39076,2,0,B|327:75,1,80,2|0,0:0|0:0,0:0:0:0:
87,261,39400,6,0,P|33:222|94:178,1,160,0|2,0:0|0:0,0:0:0:0:
330,333,39887,2,0,B|495:329,1,160,8|0,0:0|0:0,0:0:0:0:
338,228,40373,1,2,0:0:0:0:
241,199,40536,1,0,0:0:0:0:
425,170,40698,5,0,0:0:0:0:
488,128,40860,1,8,0:0:0:0:
484,51,41022,1,0,0:0:0:0:
416,17,41184,1,0,0:0:0:0:
176,353,41346,2,0,L|210:271,1,80,8|8,0:0|0:0,0:0:0:0:
351,260,41671,2,0,L|380:179,1,80,2|0,0:0|0:0,0:0:0:0:
138,152,41995,6,0,P|90:138|153:84,1,160,4|2,0:0|0:0,0:0:0:0:
380,236,42481,1,8,0:0:0:0:
216,312,42644,2,0,L|202:231,1,80
362,141,42968,1,2,0:0:0:0:
218,123,43130,1,0,0:0:0:0:
402,326,43292,5,0,0:0:0:0:
490,274,43454,1,8,0:0:0:0:
346,229,43616,1,2,0:0:0:0:
466,177,43778,1,0,0:0:0:0:
232,160,43941,2,0,L|232:72,1,80,8|0,0:0|0:0,0:0:0:0:
376,106,44265,2,0,L|377:19,1,80,2|0,0:0|0:0,0:0:0:0:
136,300,44590,6,0,B|11:193,1,160,0|2,0:0|0:0,0:0:0:0:
254,65,45076,1,8,0:0:0:0:
376,112,45238,1,0,0:0:0:0:
375,169,45400,1,0,0:0:0:0:
271,202,45563,1,2,0:0:0:0:
127,204,45725,1,0,0:0:0:0:
367,321,45887,6,0,B|451:321,1,80,0|8,0:0|0:0,0:0:0:0:
191,84,46211,2,0,B|107:84,1,80,2|0,0:0|0:0,0:0:0:0:
188,32,46536,1,8,0:0:0:0:
356,228,46698,1,0,0:0:0:0:
256,227,46860,1,8,0:3:0:0:
152,230,47022,1,4,0:3:0:0:
424,329,47184,6,0,B|455:245,1,80,4|0,0:0|0:0,0:0:0:0:
360,200,47509,1,2,0:0:0:0:
208,200,47671,2,0,L|178:110,1,80,0|0,0:0|0:0,0:0:0:0:
336,136,47995,1,8,0:0:0:0:
372,116,48076,1,8,0:0:0:0:
189,105,48157,1,8,0:0:0:0:
154,91,48238,1,8,0:0:0:0:
374,60,48319,1,8,0:0:0:0:
409,38,48400,1,8,0:0:0:0:
169,352,48481,6,0,L|80:353,1,80,2|0,0:0|0:0,0:0:0:0:
234,266,48806,2,0,L|315:267,1,80,0|0,0:0|0:0,0:0:0:0:
236,192,49130,1,0,0:0:0:0:
74,189,49292,1,8,0:3:0:0:
178,158,49454,1,4,0:3:0:0:
49,158,49617,1,0,0:0:0:0:
305,294,49779,6,0,L|472:294,1,160,4|0,0:0|0:0,0:0:0:0:
321,187,50265,2,0,L|242:185,1,80,2|0,0:0|0:0,0:0:0:0:
466,105,50590,1,8,0:0:0:0:
218,53,50752,2,0,L|125:55,1,80,0|8,0:0|0:0,0:0:0:0:
298,331,51076,6,0,L|391:329,1,80,2|8,0:0|0:0,0:0:0:0:
194,253,51400,2,0,L|101:251,1,80,8|8,0:0|0:0,0:0:0:0:
147,215,51644,1,8,0:0:0:0:
347,94,51725,1,8,0:0:0:0:
427,94,51887,1,0,0:0:0:0:
315,49,52049,1,2,0:0:0:0:
459,49,52211,1,0,0:0:0:0:
203,194,52373,6,0,B|31:192,1,160,4|2,0:0|0:0,0:0:0:0:
341,101,52860,2,0,L|430:102,1,80,4|2,0:0|0:0,0:0:0:0:
325,26,53184,1,0,0:0:0:0:
76,347,53346,2,0,L|130:269,1,80,4|0,0:0|0:0,0:0:0:0:
282,235,53671,6,0,L|322:164,1,80,2|0,0:0|0:0,0:0:0:0:
65,138,53995,2,0,L|26:60,1,80,8|8,0:0|0:3,0:0:0:0:
62,60,54238,1,8,0:3:0:0:
278,143,54319,2,0,L|298:62,1,80,8|8,0:0|0:3,0:0:0:0:
442,111,54644,2,0,L|462:30,1,80,8|0,0:0|0:0,0:0:0:0:
189,287,54968,6,0,L|28:286,1,160,4|0,0:0|0:0,0:0:0:0:
322,287,55454,2,0,L|483:286,1,160,2|0,0:0|0:0,0:0:0:0:
160,199,55941,1,4,0:0:0:0:
64,123,56103,6,0,L|155:125,1,80,0|0,0:0|0:0,0:0:0:0:
400,106,56427,2,0,L|485:106,1,80,10|0,0:0|0:0,0:0:0:0:
383,25,56752,1,0,0:0:0:0:
46,328,56914,2,0,L|46:232,1,80,8|0,0:0|0:0,0:0:0:0:
190,143,57238,2,0,L|190:62,1,80,2|0,0:0|0:0,0:0:0:0:
447,75,57563,5,8,0:0:0:0:
204,72,57725,1,8,0:0:0:0:
396,160,58049,5,8,0:0:0:0:
156,160,58211,1,8,0:0:0:0:
348,248,58536,5,8,0:0:0:0:
108,248,58698,1,8,0:0:0:0:
300,332,59022,5,8,0:0:0:0:
60,336,59184,1,8,0:0:0:0:
260,253,59509,5,2,0:0:0:0:
116,251,59671,2,0,P|58:233|137:201,1,180.000006866455,0|0,0:0|0:0,0:0:0:0:
419,180,59995,6,0,P|471:123|406:114,1,160,4|0,0:0|0:0,0:0:0:0:
164,48,60481,2,0,L|76:48,1,80,8|0,0:0|0:0,0:0:0:0:
357,277,60806,1,2,0:0:0:0:
253,277,60968,1,0,0:0:0:0:
381,277,61130,1,8,0:0:0:0:
93,280,61292,6,0,P|39:234|108:231,1,160,2|0,0:0|0:0,0:0:0:0:
369,121,61779,2,0,L|458:121,1,80,8|0,0:0|0:0,0:0:0:0:
177,79,62103,2,0,L|84:79,1,80,2|0,0:0|0:0,0:0:0:0:
201,29,62427,1,8,0:0:0:0:
483,283,62590,6,0,L|324:284,1,160,4|0,0:0|0:0,0:0:0:0:
43,199,63076,2,0,L|123:200,1,80,8|0,0:0|0:0,0:0:0:0:
395,84,63400,1,2,0:0:0:0:
291,84,63562,1,0,0:0:0:0:
419,84,63724,1,8,0:0:0:0:
113,244,63887,6,0,P|57:209|127:183,1,160,4|0,0:0|0:0,0:0:0:0:
387,150,64373,2,0,L|467:151,1,80,8|0,0:0|0:0,0:0:0:0:
202,101,64698,1,2,0:0:0:0:
306,64,64860,1,0,0:0:0:0:
178,45,65022,1,8,0:0:0:0:
434,310,65184,6,0,P|490:275|420:249,1,160,4|2,0:0|0:0,0:0:0:0:
336,271,65671,1,8,0:0:0:0:
160,159,65833,2,0,B|324:159,1,160,0|2,0:0|0:0,0:0:0:0:
416,99,66319,1,8,0:0:0:0:
96,310,66481,6,0,P|40:275|110:249,1,160,4|2,0:0|0:0,0:0:0:0:
202,271,66968,1,8,0:0:0:0:
480,43,67130,2,0,L|316:43,1,160,0|2,0:0|0:0,0:0:0:0:
425,125,67617,1,8,0:0:0:0:
161,163,67779,6,0,L|1:164,1,160,4|2,0:0|0:0,0:0:0:0:
105,79,68265,1,8,0:0:0:0:
417,323,68427,2,0,P|469:305|405:254,1,160,4|2,0:0|0:0,0:0:0:0:
315,283,68914,1,8,0:0:0:0:
27,206,69076,6,0,B|113:206,1,80,4|0,0:0|0:0,0:0:0:0:
187,208,69400,1,2,0:0:0:0:
477,95,69563,2,0,B|387:96,1,80,8|8,0:0|0:0,0:0:0:0:
117,181,69887,2,0,L|75:183,1,40,8|8,0:0|0:0,0:0:0:0:
317,181,70049,2,0,L|359:183,1,40,8|8,0:0|0:0,0:0:0:0:
97,88,70211,2,0,L|55:90,1,40,8|8,0:0|0:0,0:0:0:0:
337,345,70373,6,0,P|383:334|334:270,1,160,4|2,0:0|0:0,0:0:0:0:
43,200,70860,2,0,L|139:201,1,80,8|0,0:0|0:0,0:0:0:0:
411,64,71184,1,2,0:0:0:0:
307,64,71346,1,0,0:0:0:0:
435,64,71508,1,8,0:0:0:0:
129,286,71671,6,0,B|296:285,1,160,2|0,0:0|0:0,0:0:0:0:
33,169,72157,2,0,B|116:168,1,80,8|0,0:0|0:0,0:0:0:0:
385,91,72481,1,0,0:0:0:0:
489,91,72643,1,2,0:0:0:0:
361,91,72805,1,8,0:0:0:0:
79,296,72968,6,0,P|34:238|92:231,1,160,4|2,0:0|0:0,0:0:0:0:
194,279,73454,1,8,0:0:0:0:
476,198,73617,2,0,L|312:197,1,160,4|0,0:0|0:0,0:0:0:0:
420,94,74103,1,8,0:0:0:0:
116,123,74265,6,0,P|71:65|129:58,1,160,4|0,0:0|0:0,0:0:0:0:
400,306,74752,2,0,L|487:308,1,80,8|8,0:0|0:0,0:0:0:0:
448,270,74995,1,8,0:0:0:0:
248,253,75076,2,0,B|150:252,1,80,10|8,0:0|0:0,0:0:0:0:
408,188,75400,1,8,0:0:0:0:
119,130,75563,1,0,0:0:0:0:
439,113,75725,6,0,L|508:61,1,80,4|0,0:0|0:0,0:0:0:0:
255,113,76049,2,0,L|324:61,1,80,8|0,0:0|0:0,0:0:0:0:
71,174,76373,2,0,L|2:122,1,80,10|0,0:0|0:0,0:0:0:0:
297,231,76698,2,0,L|366:179,1,80,8|0,0:0|0:0,0:0:0:0:
81,278,77022,6,0,L|150:226,1,80,10|0,0:0|0:0,0:0:0:0:
433,93,77346,2,0,L|502:41,1,80,8|0,0:0|0:0,0:0:0:0:
175,168,77671,1,10,0:0:0:0:
335,169,77833,1,0,0:0:0:0:
79,127,77995,2,0,L|10:75,1,80,8|0,0:0|0:0,0:0:0:0:
319,265,78319,6,0,L|388:213,1,80,12|0,0:0|0:0,0:0:0:0:
61,242,78644,2,0,L|130:190,1,80,8|0,0:0|0:0,0:0:0:0:
405,118,78968,2,0,L|474:66,1,80,10|8,0:0|0:3,0:0:0:0:
206,53,79292,1,4,0:3:0:0:
486,164,79454,1,4,0:3:0:0:
172,329,79617,6,0,P|116:273|296:126,1,400,4|2,0:0|0:0,0:0:0:0:
401,111,80590,1,0,0:0:0:0:
83,290,80752,6,0,P|39:263|88:185,1,160,4|0,0:0|0:0,0:0:0:0:
338,93,81238,2,0,B|420:93,1,80,8|0,0:0|0:0,0:0:0:0:
233,47,81563,2,0,B|139:46,1,80,2|0,0:0|0:0,0:0:0:0:
417,295,81887,2,0,B|500:295,1,80,8|0,0:0|0:0,0:0:0:0:
217,140,82211,5,2,0:0:0:0:
440,96,82373,1,0,0:0:0:0:
184,56,82535,2,0,B|93:56,1,80,8|0,0:0|0:0,0:0:0:0:
394,219,82860,1,2,0:0:0:0:
168,176,83022,1,0,0:0:0:0:
406,134,83184,1,8,0:0:0:0:
94,263,83346,6,0,P|40:236|101:191,1,160,4|0,0:0|0:0,0:0:0:0:
378,264,83833,2,0,B|466:264,1,80,8|0,0:0|0:0,0:0:0:0:
177,117,84157,1,8,0:3:0:0:
404,80,84319,1,4,0:3:0:0:
161,32,84481,1,8,0:0:0:0:
487,10,84644,5,4,0:0:0:0:
256,192,84725,12,0,88698,0:0:0:0:
