osu file format v14

[General]
AudioFilename: audio.mp3
AudioLeadIn: 0
PreviewTime: 59509
Countdown: 0
SampleSet: Soft
StackLeniency: 0.7
Mode: 2
LetterboxInBreaks: 0
WidescreenStoryboard: 0

[Editor]
DistanceSpacing: 1.7
BeatDivisor: 4
GridSize: 8
TimelineZoom: 1

[Metadata]
Title:Egao no Kanata (TV Size)
TitleUnicode:エガオノカナタ (TV Size)
Artist:Chiho feat. majiko
ArtistUnicode:Chiho feat. majiko
Creator:Sanyi
Version:Cup
Source:エガオノダイカ
Tags:牧野圭祐 宮田“レフティ”リョウ The Cost Price of Smiles Opening OP Anime Japanese Egao no Daika H△G HAG -sh1n1- shini andrea osuplayer111 baron
BeatmapID:2378169
BeatmapSetID:1138424

[Difficulty]
HPDrainRate:3
CircleSize:2.5
OverallDifficulty:6
ApproachRate:6
SliderMultiplier:1.1
SliderTickRate:1

[Events]
//Background and Video events
0,0,"BG.jpg",0,0
//Break Periods
//Storyboard Layer 0 (Background)
//Storyboard Layer 1 (Fail)
//Storyboard Layer 2 (Pass)
//Storyboard Layer 3 (Foreground)
//Storyboard Layer 4 (Overlay)
//Storyboard Sound Samples

[TimingPoints]
482,324.324324324324,4,2,1,60,1,0
5022,-100,4,2,1,80,0,0
14590,-100,4,2,1,80,0,0
15563,-100,4,2,1,60,0,0
16049,-100,4,2,1,60,0,0
26103,-100,4,2,1,80,0,0
26427,-100,4,2,1,70,0,0
35509,-100,4,2,1,75,0,0
59509,-100,4,2,1,60,0,0
59671,-100,4,2,1,60,0,0
59914,-100,4,2,1,5,0,0
59995,-100,4,2,1,80,0,1
80752,-100,4,2,1,80,0,0
84725,-100,4,2,1,60,0,0
86103,-100,4,2,1,40,0,0
87400,-100,4,2,1,20,0,0
88049,-100,4,2,1,10,0,0
88698,-100,4,2,1,5,0,0

[Colours]
Combo1 : 255,106,106
Combo2 : 106,207,255
Combo3 : 172,217,145

[HitObjects]
184,192,482,5,2,0:0:0:0:
304,192,968,2,0,P|352:128|296:72,1,165,2|2,0:0|0:0,0:0:0:0:
184,72,1941,1,2,0:0:0:0:
40,296,2427,2,0,L|152:296,1,110,2|2,0:0|0:0,0:0:0:0:
264,304,3076,6,0,P|312:240|256:184,1,165,2|2,0:0|0:0,0:0:0:0:
104,176,4049,1,2,0:0:0:0:
336,192,5022,2,0,L|336:128,1,55,8|8,0:0|0:0,0:0:0:0:
192,80,5509,5,4,0:0:0:0:
360,312,5995,2,0,L|480:312,2,110,8|2|8,0:0|0:0|0:0,0:0:0:0:
232,312,6968,5,2,0:0:0:0:
100,195,7292,1,8,0:0:0:0:
232,192,7617,2,0,L|360:192,1,110,2|8,0:0|0:0,0:0:0:0:
264,128,8103,5,4,0:0:0:0:
96,48,8590,1,8,0:0:0:0:
224,48,8914,2,0,L|114:48,1,110,2|8,0:0|0:0,0:0:0:0:
242,176,9563,5,2,0:0:0:0:
392,96,9887,2,0,L|280:96,1,110,8|2,0:0|0:0,0:0:0:0:
128,96,10536,2,0,L|184:96,1,55,8|4,0:0|0:0,0:0:0:0:
368,256,11184,6,0,L|480:256,2,110,8|2|8,0:0|0:0|0:0,0:0:0:0:
240,152,12157,5,2,0:0:0:0:
392,152,12481,1,8,0:0:0:0:
240,64,12806,2,0,L|120:64,1,110,2|8,0:0|0:0,0:0:0:0:
208,136,13292,5,4,0:0:0:0:
336,192,13617,2,0,L|336:128,1,55,8|8,0:3|0:0,0:0:0:0:
208,280,14103,2,0,L|96:280,1,110,8|8,0:0|0:3,0:0:0:0:
176,208,14590,5,4,0:0:0:0:
368,224,15563,2,0,L|368:168,1,55,8|8,0:3|0:3,0:0:0:0:
224,128,16049,5,4,0:0:0:0:
120,320,16373,2,0,P|124:257|211:212,1,165,2|0,0:0|0:0,0:0:0:0:
328,320,17184,2,0,P|360:232|288:128,1,220,2|0,0:0|0:0,0:0:0:0:
192,168,18157,2,0,P|152:120|200:88,1,110,2|0,0:0|0:0,0:0:0:0:
232,80,18644,5,2,0:0:0:0:
336,328,18968,2,0,P|384:288|408:248,1,110,2|2,0:0|0:0,0:0:0:0:
368,224,19454,1,0,0:0:0:0:
272,224,19779,1,2,0:0:0:0:
112,160,20752,2,0,P|72:112|120:80,1,110,2|0,0:0|0:0,0:0:0:0:
152,72,21239,5,2,0:0:0:0:
264,280,21563,2,0,L|320:280,1,55,2|2,0:0|0:0,0:0:0:0:
480,168,22211,2,0,L|424:168,1,55,2|2,0:0|0:0,0:0:0:0:
264,80,22860,2,0,L|192:80,1,55,2|0,0:0|0:0,0:0:0:0:
152,80,23184,1,2,0:0:0:0:
256,304,23509,1,0,0:0:0:0:
360,304,23833,6,0,P|384:248|352:208,1,110,2|0,0:0|0:0,0:0:0:0:
168,192,24806,1,2,0:0:0:0:
112,192,24968,2,0,P|80:144|112:112,1,110,0|2,0:0|0:0,0:0:0:0:
224,104,25617,2,0,L|320:176,1,110,2|0,0:0|0:0,0:0:0:0:
370,217,26103,1,8,0:0:0:0:
312,170,26265,1,8,0:0:0:0:
248,247,26427,5,2,0:0:0:0:
136,160,26752,1,8,0:0:0:0:
240,344,27076,2,0,P|264:280|232:248,1,110,2|8,0:0|0:0,0:0:0:0:
112,160,27725,2,0,B|56:160|56:160|120:160,1,110,0|8,0:0|0:0,0:0:0:0:
224,304,28373,1,8,0:0:0:0:
288,304,28536,2,0,L|288:248,1,55,0|8,0:0|0:0,0:0:0:0:
160,144,29022,6,0,L|48:144,1,110,2|8,0:0|0:0,0:0:0:0:
160,320,29671,2,0,P|200:280|208:216,1,110,2|8,0:0|0:0,0:0:0:0:
88,152,30319,2,0,P|80:112|144:56,1,110,0|8,0:0|0:0,0:0:0:0:
240,64,30968,1,8,0:0:0:0:
112,184,31292,1,8,0:0:0:0:
248,280,31617,6,0,P|288:224|256:184,1,110,2|8,0:0|0:0,0:0:0:0:
152,104,32265,1,2,0:0:0:0:
280,104,32590,1,8,0:0:0:0:
424,312,32914,2,0,L|424:200,1,110,2|8,0:0|0:0,0:0:0:0:
280,184,33563,2,0,L|168:184,1,110,8|8,0:0|0:0,0:0:0:0:
320,80,34211,5,4,0:0:0:0:
168,320,34698,1,0,0:0:0:0:
104,320,34860,2,0,P|80:256|112:232,1,110,2|8,0:0|0:0,0:0:0:0:
269,204,35509,2,0,L|269:84,1,110,4|0,0:0|0:0,0:0:0:0:
104,200,36157,2,0,P|84:135|112:96,1,110,8|8,0:0|0:3,0:0:0:0:
280,336,36806,6,0,P|336:240|296:192,1,165,4|8,0:0|0:0,0:0:0:0:
152,176,37779,1,2,0:0:0:0:
296,80,38103,2,0,L|408:80,1,110,0|2,0:0|0:0,0:0:0:0:
272,168,38752,2,0,L|144:168,1,110,8|2,0:0|0:0,0:0:0:0:
24,288,39400,5,0,0:0:0:0:
168,288,39725,2,0,L|168:232,1,55,2|8,0:0|0:0,0:0:0:0:
24,200,40211,2,0,L|24:144,1,55,0|2,0:0|0:0,0:0:0:0:
184,120,40860,1,8,0:0:0:0:
392,160,41346,2,0,L|392:48,1,110,8|2,0:0|0:0,0:0:0:0:
216,280,41995,5,4,0:0:0:0:
16,192,42644,1,0,0:0:0:0:
176,224,42968,2,0,P|264:168|232:72,1,220,2|2,0:0|0:0,0:0:0:0:
80,56,43941,2,0,L|192:56,1,110,8|2,0:0|0:0,0:0:0:0:
328,240,44590,5,0,0:0:0:0:
184,240,45076,1,8,0:0:0:0:
328,240,45563,1,2,0:0:0:0:
440,176,45887,2,0,L|344:104,1,110,0|2,0:0|0:0,0:0:0:0:
224,272,46536,1,8,0:0:0:0:
160,272,46698,2,0,L|160:208,1,55,0|8,0:0|0:3,0:0:0:0:
312,192,47184,6,0,L|312:80,1,110,4|2,0:0|0:0,0:0:0:0:
248,80,47671,1,0,0:0:0:0:
104,336,47995,1,8,0:0:0:0:
80,287,48157,1,8,0:0:0:0:
93,235,48319,1,8,0:0:0:0:
160,184,48481,5,2,0:0:0:0:
304,192,48806,2,0,L|360:192,1,55,0|0,0:0|0:0,0:0:0:0:
232,104,49292,2,0,L|176:104,1,55,8|4,0:3|0:3,0:0:0:0:
24,296,49779,5,4,0:0:0:0:
152,208,50103,2,0,L|208:208,1,55,0|2,0:0|0:0,0:0:0:0:
352,88,50590,1,8,0:0:0:0:
200,88,50914,1,8,0:0:0:0:
120,208,51076,6,0,P|88:160|128:128,1,110,2|8,0:0|0:0,0:0:0:0:
224,208,51725,2,0,L|344:208,1,110,8|2,0:0|0:0,0:0:0:0:
472,120,52373,5,4,0:0:0:0:
288,120,52860,1,4,0:0:0:0:
352,48,53022,1,2,0:0:0:0:
496,40,53346,1,4,0:0:0:0:
352,272,53833,6,0,L|296:272,1,55,0|8,0:0|0:0,0:0:0:0:
192,272,54319,2,0,P|160:216|200:184,1,110,8|8,0:0|0:0,0:0:0:0:
328,104,54968,5,4,0:0:0:0:
144,104,55454,1,2,0:0:0:0:
344,104,55941,1,4,0:0:0:0:
160,104,56427,5,10,0:0:0:0:
40,256,56752,2,0,L|120:256,1,55,0|8,0:0|0:0,0:0:0:0:
208,256,57238,1,2,0:0:0:0:
360,176,57563,6,0,L|360:112,1,55,8|8,0:0|0:0,0:0:0:0:
200,176,58049,2,0,L|200:104,1,55,8|8,0:0|0:0,0:0:0:0:
360,176,58536,6,0,L|360:112,1,55,8|8,0:0|0:0,0:0:0:0:
200,176,59022,2,0,L|200:112,1,55,8|8,0:0|0:0,0:0:0:0:
304,304,59509,1,2,0:0:0:0:
496,192,59995,6,0,L|376:192,1,110,4|0,0:0|0:0,0:0:0:0:
328,192,60481,1,8,0:0:0:0:
200,96,60806,2,0,L|312:96,1,110,2|8,0:0|0:0,0:0:0:0:
408,328,61292,6,0,B|464:328|464:328|400:328,1,110,2|0,0:0|0:0,0:0:0:0:
352,328,61779,1,8,0:0:0:0:
240,208,62103,2,0,L|184:208,1,55,2|0,0:0|0:0,0:0:0:0:
40,208,62590,6,0,P|32:136|72:112,1,110,4|0,0:0|0:0,0:0:0:0:
112,112,63076,1,8,0:0:0:0:
224,112,63400,1,2,0:0:0:0:
376,176,63725,1,8,0:0:0:0:
299,172,63887,5,4,0:0:0:0:
155,328,64211,2,0,L|155:272,1,55,0|8,0:0|0:0,0:0:0:0:
267,320,64698,2,0,L|323:320,1,55,2|0,0:0|0:0,0:0:0:0:
475,192,65184,5,4,0:0:0:0:
347,192,65509,2,0,L|291:192,1,55,2|8,0:0|0:0,0:0:0:0:
347,192,65833,1,0,0:0:0:0:
467,320,66157,2,0,L|467:256,1,55,2|8,0:0|0:0,0:0:0:0:
379,320,66481,5,4,0:0:0:0:
171,320,66968,1,8,0:0:0:0:
243,320,67130,1,0,0:0:0:0:
347,224,67454,1,2,0:0:0:0:
195,192,67779,6,0,L|195:80,1,110,4|2,0:0|0:0,0:0:0:0:
347,192,68427,2,0,L|347:72,1,110,4|2,0:0|0:0,0:0:0:0:
195,184,69076,5,4,0:0:0:0:
283,320,69400,2,0,L|219:320,1,55,2|8,0:0|0:0,0:0:0:0:
91,272,69887,1,8,0:0:0:0:
55,233,70049,1,8,0:0:0:0:
66,181,70211,1,8,0:0:0:0:
131,160,70373,5,4,0:0:0:0:
251,160,70698,1,2,0:0:0:0:
307,160,70860,1,8,0:0:0:0:
427,64,71185,2,0,L|315:64,1,110,2|0,0:0|0:0,0:0:0:0:
219,288,71671,6,0,L|83:288,1,110,2|0,0:0|0:0,0:0:0:0:
163,216,72157,1,8,0:0:0:0:
371,216,72644,2,0,L|371:152,1,55,2|0,0:0|0:0,0:0:0:0:
291,152,72968,5,4,0:0:0:0:
83,152,73455,1,8,0:0:0:0:
160,152,73617,1,4,0:0:0:0:
264,56,73941,1,0,0:0:0:0:
312,56,74103,1,8,0:0:0:0:
264,56,74265,5,4,0:0:0:0:
136,192,74590,1,0,0:0:0:0:
248,320,74914,1,8,0:0:0:0:
312,320,75076,2,0,B|368:320|368:320|296:320,1,110,10|8,0:0|0:0,0:0:0:0:
160,176,75725,5,4,0:0:0:0:
48,176,76049,1,8,0:0:0:0:
200,304,76373,2,0,L|320:304,1,110,10|8,0:0|0:0,0:0:0:0:
160,208,77022,6,0,L|160:96,1,110,10|8,0:0|0:0,0:0:0:0:
24,208,77671,2,0,L|24:88,1,110,10|8,0:0|0:0,0:0:0:0:
192,320,78319,6,0,L|312:320,1,110,12|8,0:0|0:0,0:0:0:0:
432,232,78968,1,10,0:0:0:0:
320,232,79292,1,4,0:3:0:0:
184,232,79617,1,4,0:0:0:0:
456,80,80752,5,4,0:0:0:0:
264,312,81238,2,0,L|144:312,2,110,8|2|8,0:0|0:0|0:0,0:0:0:0:
392,312,82211,5,2,0:0:0:0:
240,88,82535,1,8,0:0:0:0:
88,192,82860,2,0,L|216:192,1,110,2|8,0:0|0:0,0:0:0:0:
272,192,83346,5,4,0:0:0:0:
104,80,83833,1,8,0:0:0:0:
232,280,84157,2,0,L|360:280,1,110,8|8,0:3|0:0,0:0:0:0:
259,198,84644,5,4,0:0:0:0:
256,192,84968,12,0,88698,0:0:0:0:
