osu file format v14

[General]
AudioFilename: Egao no Kanata.mp3
AudioLeadIn: 0
PreviewTime: 60531
Countdown: 0
SampleSet: Soft
StackLeniency: 0.7
Mode: 0
LetterboxInBreaks: 0
WidescreenStoryboard: 0

[Editor]
DistanceSpacing: 1
BeatDivisor: 4
GridSize: 32
TimelineZoom: 1

[Metadata]
Title:Egao no Kanata (TV Size)
TitleUnicode:エガオノカナタ (TV Size)
Artist:Chiho feat. majiko
ArtistUnicode:Chiho feat. majiko
Creator:C O N N E R
Version:Left's Insane
Source:エガオノダイカ
Tags:牧野圭祐 宮田“レフティ”リョウ the cost price of smiles opening op anime japanese egao no daika h△g hag [_lost_] conner c_o_n_n_e_r left xHappy- P_KunG GalaxySkys_ -_frontier_- frontier shockolatte GalaxySkys
BeatmapID:2076940
BeatmapSetID:915403

[Difficulty]
HPDrainRate:6
CircleSize:4
OverallDifficulty:8
ApproachRate:9
SliderMultiplier:1.68
SliderTickRate:1

[Events]
//Background and Video events
0,0,"naniface.jpg",0,0
Video,995,"Kanata.flv"
//Break Periods
//Storyboard Layer 0 (Background)
//Storyboard Layer 1 (Fail)
//Storyboard Layer 2 (Pass)
//Storyboard Layer 3 (Foreground)
//Storyboard Layer 4 (Overlay)
//Storyboard Sound Samples

[TimingPoints]
1504,324.324324324324,4,2,7,45,1,0
1504,-133.333333333333,4,2,7,45,0,0
4098,-333.333333333333,4,2,7,45,0,0
5071,-588.235294117647,4,2,7,45,0,0
5963,-588.235294117647,4,2,7,5,0,0
6044,-100,4,2,7,75,0,0
15612,-333.333333333333,4,2,7,75,0,0
17071,-1000,4,2,7,45,0,0
27125,-100,4,2,7,65,0,0
37828,-133.333333333333,4,2,7,65,0,0
48125,-133.333333333333,4,2,7,5,0,0
48206,-111.111111111111,4,2,7,65,0,0
55666,-142.857142857143,4,2,7,65,0,0
55990,-90.9090909090909,4,2,7,65,0,0
57449,-111.111111111111,4,2,7,65,0,0
57693,-111.111111111111,4,2,7,5,0,0
57774,-111.111111111111,4,2,7,65,0,0
57936,-142.857142857143,4,2,7,65,0,0
58422,-142.857142857143,4,2,7,5,0,0
58585,-142.857142857143,4,2,7,65,0,0
59071,-142.857142857143,4,2,7,75,0,0
59558,-142.857142857143,4,2,7,85,0,0
60044,-142.857142857143,4,2,7,95,0,0
61017,-90.9090909090909,4,2,7,85,0,1
61260,-90.9090909090909,4,2,7,5,0,1
61341,-90.9090909090909,4,2,7,85,0,1
62558,-90.9090909090909,4,2,7,5,0,1
62639,-90.9090909090909,4,2,7,85,0,1
64260,-111.111111111111,4,2,7,85,0,1
64585,-90.9090909090909,4,2,7,85,0,1
66449,-90.9090909090909,4,2,7,5,0,1
66531,-90.9090909090909,4,2,7,85,0,1
67503,-83.3333333333333,4,2,7,85,0,1
68152,-66.6666666666667,4,2,7,85,0,1
68801,-83.3333333333333,4,2,7,85,0,1
69449,-71.4285714285714,4,2,7,85,0,1
70098,-62.5,4,2,7,85,0,1
70503,-62.5,4,2,7,5,0,1
70585,-62.5,4,2,7,85,0,1
70666,-62.5,4,2,7,5,0,1
70747,-62.5,4,2,7,85,0,1
71395,-133.333333333333,4,2,7,85,0,1
71558,-133.333333333333,4,2,7,5,0,1
71720,-133.333333333333,4,2,7,85,0,1
71882,-68.9655172413793,4,2,7,85,0,1
72125,-68.9655172413793,4,2,7,5,0,1
72206,-90.9090909090909,4,2,7,85,0,1
72693,-90.9090909090909,4,2,7,85,0,1
75531,-90.9090909090909,4,2,7,5,0,1
75612,-90.9090909090909,4,2,7,85,0,1
77071,-76.9230769230769,4,2,7,85,0,1
78044,-66.6666666666667,4,2,7,85,0,1
78693,-90.9090909090909,4,2,7,85,0,1
80639,-666.666666666667,4,2,7,85,0,1
81612,-666.666666666667,4,2,7,5,0,1
81774,-100,4,2,7,75,0,0
84044,-83.3333333333333,4,2,7,75,0,0
84125,-83.3333333333333,4,2,7,5,0,0
84206,-83.3333333333333,4,2,7,75,0,0
84287,-83.3333333333333,4,2,7,5,0,0
84368,-100,4,2,7,75,0,0
84855,-62.5,4,2,7,75,0,0
85179,-83.3333333333333,4,2,7,75,0,0
85503,-1000,4,2,7,75,0,0
87125,-1000,4,2,7,5,0,0

[Colours]
Combo1 : 255,0,0
Combo2 : 255,255,147
Combo3 : 190,255,125
Combo4 : 168,121,255
Combo5 : 95,135,254
Combo6 : 255,204,204
Combo7 : 255,140,140
Combo8 : 255,74,74

[HitObjects]
42,239,1504,6,0,P|-7:153|5:53,1,189.000007209778,2|2,0:0|0:0,0:0:0:0:
221,20,2476,2,0,P|270:106|258:206,1,189.000007209778,2|2,0:0|0:0,0:0:0:0:
263,192,3449,5,2,0:0:0:0:
322,245,3774,1,2,0:0:0:0:
399,235,4098,2,0,P|417:270|415:310,1,75.5999976928712,2|2,0:0|0:0,0:0:0:0:
264,341,5071,38,0,P|246:306|248:265,1,78.5400004793701,2|0,0:0|0:0,0:0:0:0:
253,263,6044,37,8,0:0:0:0:
364,276,6206,1,8,0:0:0:0:
12,361,6531,54,0,L|28:245,1,84,4|0,1:0|0:0,0:0:0:0:
43,201,6855,1,0,1:0:0:0:
105,260,7017,2,0,L|215:249,1,84,8|0,0:0|0:0,0:0:0:0:
327,180,7341,101,0,1:0:0:0:
302,330,7503,1,0,1:0:0:0:
272,243,7666,2,0,L|162:254,1,84,8|0,0:0|0:0,0:0:0:0:
375,112,7990,5,0,1:2:0:0:
404,202,8152,1,0,1:0:0:0:
465,132,8314,1,8,0:0:0:0:
414,151,8476,53,6,1:0:0:0:
414,151,8801,1,2,1:0:0:0:
500,361,9125,54,0,L|484:245,1,84,4|0,1:0|0:0,0:0:0:0:
476,200,9449,1,0,1:0:0:0:
412,250,9611,2,0,L|302:239,1,84,8|0,0:0|0:0,0:0:0:0:
276,175,9936,101,0,1:0:0:0:
221,335,10098,1,0,1:0:0:0:
146,273,10260,1,8,0:0:0:0:
56,307,10422,1,0,0:0:0:0:
202,156,10585,5,0,1:2:0:0:
276,175,10747,1,0,1:0:0:0:
328,117,10909,1,8,0:0:0:0:
244,63,11071,53,6,1:0:0:0:
244,63,11395,1,2,1:0:0:0:
0,190,11720,54,0,L|17:286,1,84,4|0,1:0|0:0,0:0:0:0:
168,284,12044,1,0,1:0:0:0:
81,384,12206,2,0,L|92:280,1,84,8|0,0:0|0:0,0:0:0:0:
244,257,12531,101,0,1:0:0:0:
205,176,12693,1,0,1:0:0:0:
268,110,12855,2,0,L|370:123,1,84,8|0,0:0|0:0,0:0:0:0:
465,135,13179,5,0,1:0:0:0:
442,6,13341,1,0,1:0:0:0:
416,76,13503,1,8,0:0:0:0:
490,64,13666,53,6,1:0:0:0:
490,64,13990,1,2,1:0:0:0:
433,312,14314,54,0,L|319:301,1,84,4|0,1:0|0:0,0:0:0:0:
440,236,14639,1,8,0:0:0:0:
440,236,14720,1,8,0:0:0:0:
440,236,14801,2,0,L|326:225,1,84,8|0,0:0|1:0,0:0:0:0:
291,183,15125,101,8,0:0:0:0:
166,311,15287,1,8,0:3:0:0:
188,223,15449,1,4,0:3:0:0:
176,342,15612,2,0,L|18:356,1,151.199995385742,4|4,1:0|0:3,0:0:0:0:
25,355,16747,1,0,1:0:0:0:
0,72,17071,85,4,1:2:0:0:
61,21,17558,1,2,0:0:0:0:
129,58,18044,2,0,L|139:110,1,50.4,2|0,0:0|0:0,0:0:0:0:
421,289,19666,5,2,0:0:0:0:
372,302,20152,1,2,0:0:0:0:
331,274,20639,2,0,L|339:221,1,50.4,2|0,0:0|0:0,0:0:0:0:
129,58,22260,102,0,L|139:110,1,50.4,2|2,0:0|0:0,0:0:0:0:
212,116,24206,1,2,0:0:0:0:
129,58,24855,5,2,0:0:0:0:
247,269,25828,1,2,0:0:0:0:
247,269,26801,1,2,0:0:0:0:
385,215,27125,101,8,0:0:0:0:
382,194,27206,1,8,0:0:0:0:
380,173,27287,1,8,0:0:0:0:
377,152,27368,1,8,0:0:0:0:
375,131,27449,2,0,L|469:140,1,84,4|0,1:0|0:0,0:0:0:0:
247,269,27774,2,0,L|341:278,1,84,8|0,0:0|0:0,0:0:0:0:
498,374,28098,5,0,0:0:0:0:
461,306,28260,2,0,P|409:317|376:345,1,84,0|8,1:0|0:0,0:0:0:0:
295,151,28585,1,0,0:0:0:0:
247,269,28747,2,0,P|195:258|162:230,1,84,0|0,1:0|1:0,0:0:0:0:
119,85,29071,102,0,L|131:169,1,84,8|0,0:0|0:0,0:0:0:0:
131,169,29314,1,0,1:0:0:0:
131,169,29395,1,0,1:0:0:0:
44,343,29558,1,0,1:0:0:0:
14,269,29720,2,0,P|48:246|90:240,1,84,8|0,0:0|0:0,0:0:0:0:
119,85,30044,6,0,P|182:96|255:173,2,168,0|8|0,1:2|0:0|0:0,0:0:0:0:
53,128,30855,1,0,1:0:0:0:
180,137,31017,2,0,P|196:103|194:54,1,84,8|0,0:0|0:0,0:0:0:0:
194,57,31260,1,0,1:0:0:0:
194,57,31341,101,0,1:0:0:0:
270,37,31503,1,0,1:0:0:0:
344,53,31666,1,8,0:0:0:0:
401,103,31828,1,0,1:0:0:0:
414,142,31909,1,0,1:0:0:0:
416,179,31990,2,0,L|395:346,1,168,2|8,1:2|0:0,0:0:0:0:
100,269,32476,5,0,1:0:0:0:
100,269,32558,1,0,1:0:0:0:
100,269,32639,2,0,L|198:258,1,84,4|0,1:0|0:0,0:0:0:0:
245,210,32963,1,8,0:0:0:0:
203,143,33125,1,0,0:0:0:0:
203,143,33287,2,0,L|217:33,1,84,0|0,1:0|1:0,0:0:0:0:
297,271,33612,2,0,L|286:354,1,84,8|0,0:0|0:0,0:0:0:0:
206,368,33936,102,0,L|216:284,1,84,0|0,1:0|0:0,0:0:0:0:
283,140,34260,2,0,L|293:56,1,84,8|0,0:2|1:0,0:0:0:0:
293,56,34503,1,0,1:0:0:0:
293,56,34585,1,0,1:0:0:0:
221,22,34747,1,0,1:0:0:0:
166,77,34909,2,0,L|61:69,1,84,8|0,0:0|0:0,0:0:0:0:
310,217,35233,6,0,L|492:199,1,168,4|8,1:0|0:0,0:0:0:0:
512,129,35720,1,0,1:0:0:0:
512,129,35801,1,0,1:0:0:0:
512,129,35882,1,0,1:0:0:0:
455,73,36044,1,0,1:0:0:0:
385,111,36206,1,8,0:0:0:0:
398,189,36368,1,0,0:0:0:0:
478,201,36531,101,0,1:2:0:0:
236,130,36693,2,0,L|223:232,1,84,8|0,0:0|0:0,0:0:0:0:
214,290,37017,5,0,1:0:0:0:
84,256,37179,1,8,0:0:0:0:
139,310,37341,1,4,0:3:0:0:
119,384,37503,1,0,1:0:0:0:
0,26,37828,69,4,1:0:0:0:
62,131,37990,2,0,L|142:123,1,63.0000024032594,2|0,1:2|0:0,0:0:0:0:
291,41,38314,2,0,L|155:57,1,126.000004806519,10|0,0:2|1:1,0:1:0:0:
413,177,38801,101,0,1:2:0:0:
413,177,38963,2,0,L|422:102,1,63.0000024032594,2|0,1:2|0:0,0:0:0:0:
343,104,39287,1,10,0:2:0:0:
343,104,39449,2,0,L|334:179,1,63.0000024032594,0|0,1:2|0:0,0:0:0:0:
438,266,39774,101,2,1:2:0:0:
512,257,40098,1,2,1:2:0:0:
303,28,40422,21,0,1:0:0:0:
303,28,40585,2,0,P|270:62|261:91,1,63.0000024032594,2|0,1:2|0:0,0:0:0:0:
209,223,40909,2,0,L|185:75,1,126.000004806519,10|0,0:2|1:0,0:1:0:0:
20,172,41395,101,0,1:2:0:0:
20,172,41558,2,0,P|53:206|62:235,1,63.0000024032594,2|0,1:2|0:0,0:0:0:0:
114,367,41882,2,0,L|138:219,1,126.000004806519,10|0,0:2|1:0,0:1:0:0:
149,164,42368,101,10,0:0:0:0:
36,187,42531,1,10,0:0:0:0:
69,75,42693,1,4,0:3:0:0:
69,301,43017,21,4,1:0:0:0:
114,367,43179,2,0,L|198:357,1,63.0000024032594,2|0,1:2|0:0,0:0:0:0:
352,221,43503,2,0,L|226:236,1,126.000004806519,10|0,0:2|1:1,0:1:0:0:
417,272,43990,101,0,1:2:0:0:
417,272,44152,2,0,P|432:237|430:197,1,63.0000024032594,2|0,1:2|0:0,0:0:0:0:
495,158,44476,2,0,P|473:96|412:40,1,126.000004806519,10|0,0:2|1:1,0:1:0:0:
301,76,44963,101,10,0:2:0:0:
309,1,45287,1,2,1:2:0:0:
17,185,45612,5,0,1:0:0:0:
17,185,45774,2,0,L|95:175,1,63.0000024032594,2|0,1:2|0:0,0:0:0:0:
144,224,46098,2,0,L|291:206,1,126.000004806519,10|2,0:2|1:2,0:0:0:0:
341,177,46585,1,0,1:0:0:0:
403,229,46747,1,0,0:1:0:0:
424,92,46909,101,2,1:2:0:0:
424,92,47071,2,0,L|414:160,1,63.0000024032594,8|0,0:0|0:0,0:0:0:0:
343,315,47395,5,2,1:2:0:0:
343,315,47558,2,0,L|326:234,1,63.0000024032594,8|4,0:0|0:3,0:0:0:0:
269,208,47882,6,0,P|223:227|196:267,1,94.500003604889,0|0,1:0|0:0,0:0:0:0:
195,269,48206,22,0,L|110:263,1,75.5999976928712,4|0,1:0|0:0,0:0:0:0:
87,194,48531,1,0,1:0:0:0:
135,133,48693,1,0,0:0:0:0:
103,64,48855,2,0,L|18:70,1,75.5999976928712,0|0,1:0|0:0,0:0:0:0:
351,0,49179,5,8,0:0:0:0:
351,0,49260,1,8,0:0:0:0:
351,0,49341,1,8,0:0:0:0:
351,0,49422,1,8,0:0:0:0:
351,0,49503,2,0,L|332:92,1,75.5999976928712,0|0,1:2|0:0,0:0:0:0:
385,134,49828,1,0,1:0:0:0:
366,210,49990,1,0,0:0:0:0:
393,280,50152,2,0,L|302:288,1,75.5999976928712,0|0,1:2|0:0,0:0:0:0:
276,350,50476,101,0,1:0:0:0:
126,305,50639,1,0,1:0:0:0:
127,299,50720,1,0,1:0:0:0:
128,294,50801,2,0,L|203:284,1,75.5999976928712,4|0,1:2|0:0,0:0:0:0:
254,168,51125,5,0,1:0:0:0:
304,239,51287,1,0,1:0:0:0:
305,234,51368,1,0,1:0:0:0:
306,229,51449,1,0,1:0:0:0:
378,196,51612,2,0,P|390:140|391:92,1,75.5999976928712,12|0,0:0|1:0,0:0:0:0:
121,121,51936,2,0,P|125:159|135:196,1,75.5999976928712,12|0,0:0|1:0,0:0:0:0:
206,229,52260,101,0,0:0:0:0:
312,139,52422,2,0,P|308:102|298:66,1,75.5999976928712,8|8,0:0|0:0,0:0:0:0:
255,50,52666,1,8,0:0:0:0:
213,66,52747,2,0,P|203:102|199:139,1,75.5999976928712,8|8,0:0|0:3,0:0:0:0:
306,229,53071,1,4,0:3:0:0:
26,384,53395,6,0,P|58:319|138:295,1,151.199995385742,4|0,1:0|0:0,0:0:0:0:
0,248,53882,2,0,P|39:308|20:389,1,151.199995385742,4|0,1:2|0:0,0:0:0:0:
129,293,54368,2,0,P|56:296|-4:240,1,151.199995385742,4|0,1:0|0:0,0:0:0:0:
185,235,54855,101,0,1:0:0:0:
206,311,55017,2,0,L|294:301,1,75.5999976928712,8|0,0:0|0:0,0:0:0:0:
281,302,55260,1,0,1:0:0:0:
281,302,55341,1,8,0:0:0:0:
340,250,55503,1,8,0:3:0:0:
295,188,55666,2,0,L|304:118,1,58.7999982055665,4|0,0:3|0:0,0:0:0:0:
502,50,55990,6,0,P|419:82|380:172,1,184.800005639649,4|0,1:0|0:0,0:0:0:0:
341,1,56476,2,0,P|410:56|507:45,1,184.800005639649,4|0,1:0|0:0,0:0:0:0:
380,164,56963,2,0,P|393:76|335:-2,1,184.800005639649,4|0,1:0|0:0,0:0:0:0:
272,43,57449,102,0,L|152:35,1,113.399996539307,8|0,0:0|0:0,0:0:0:0:
151,35,57774,1,4,0:3:0:0:
84,96,57936,5,8,0:0:0:0:
84,96,58098,1,8,0:3:0:0:
84,96,58260,2,0,L|71:13,1,58.7999982055665,4|0,0:3|0:0,0:0:0:0:
376,42,58585,37,8,0:0:0:0:
342,229,58747,1,8,0:0:0:0:
342,229,59071,5,8,0:0:0:0:
488,258,59233,1,8,0:0:0:0:
488,258,59558,5,8,0:0:0:0:
470,348,59720,1,8,0:0:0:0:
42,36,60044,5,8,0:1:0:0:
24,126,60206,1,8,0:0:0:0:
470,348,61017,38,0,P|432:282|362:247,1,138.600004229736,4|0,1:0|0:0,0:0:0:0:
373,251,61341,1,0,1:0:0:0:
370,170,61503,2,0,P|326:185|291:249,1,92.4000028198243,8|0,0:1|0:0,0:0:0:0:
254,294,61828,1,0,1:0:0:0:
215,218,61990,1,0,1:0:0:0:
42,348,62152,5,8,0:0:0:0:
42,348,62314,2,0,P|76:284|145:250,1,138.600004229736,0|0,1:0|0:0,0:0:0:0:
139,251,62639,1,0,1:0:0:0:
142,169,62801,2,0,P|186:182|215:218,1,92.4000028198243,8|0,0:0|0:0,0:0:0:0:
299,330,63125,101,0,1:2:0:0:
299,330,63287,2,0,L|312:220,1,92.4000028198243,0|8,1:0|0:0,0:0:0:0:
38,32,63612,6,0,L|55:143,1,92.4000028198243,4|0,1:0|0:0,0:0:0:0:
68,202,63936,1,0,1:0:0:0:
142,169,64098,1,8,0:0:0:0:
214,206,64260,2,0,L|202:310,1,75.5999976928712,0|0,0:0|1:0,0:0:0:0:
191,356,64585,101,0,1:0:0:0:
356,285,64747,1,8,0:0:0:0:
512,362,64909,2,0,L|486:159,1,184.800005639649,0|0,1:2|1:0,0:0:0:0:
294,191,65395,2,0,L|318:-13,1,184.800005639649,8|0,0:0|1:2,0:0:0:0:
238,256,65882,5,0,1:0:0:0:
211,176,66044,1,8,0:0:0:0:
269,336,66206,2,0,P|206:292|123:281,1,138.600004229736,4|0,1:0|0:0,0:0:0:0:
140,282,66531,1,0,1:0:0:0:
68,237,66693,102,0,P|56:281|49:340,1,92.4000028198243,8|0,0:0|0:0,0:0:0:0:
386,378,67017,2,0,P|397:334|401:275,1,92.4000028198243,0|0,1:2|1:0,0:0:0:0:
483,295,67341,5,8,0:0:0:0:
448,218,67503,2,0,P|359:212|326:324,1,201.599993847656,4|0,1:0|1:0,0:0:0:0:
318,303,67990,1,8,0:0:0:0:
46,124,68152,102,0,P|141:112|252:250,1,252.000009613037,0|0,1:0|1:0,0:0:0:0:
247,213,68639,1,8,0:0:0:0:
415,41,68801,6,0,P|356:49|322:79,1,100.799996923828,4|0,1:0|0:0,0:0:0:0:
357,153,69125,2,0,P|416:145|450:115,1,100.799996923828,0|8,1:0|0:0,0:0:0:0:
140,99,69449,102,0,P|110:159|112:222,1,117.599996411133,4|0,1:0|0:0,0:0:0:0:
247,247,69774,2,0,P|277:187|275:124,1,117.599996411133,0|8,1:0|0:0,0:0:0:0:
35,351,70098,6,0,P|5:291|3:210,1,134.4,4|0,1:0|0:0,0:0:0:0:
333,76,70422,2,0,P|352:106|352:159,1,67.2,0|0,1:0|0:0,0:0:0:0:
422,187,70585,2,0,P|417:222|383:262,1,67.2,8|0,0:0|0:0,0:0:0:0:
325,279,70747,1,8,0:3:0:0:
287,259,70828,1,8,0:3:0:0:
247,247,70909,101,8,0:0:0:0:
205,244,70990,1,8,0:0:0:0:
164,250,71071,1,8,0:0:0:0:
124,264,71152,1,8,0:0:0:0:
89,286,71233,1,8,0:0:0:0:
58,315,71314,1,8,0:0:0:0:
34,350,71395,6,0,P|19:306|11:266,1,63.0000024032594,4|0,1:2|0:0,0:0:0:0:
80,248,71720,1,0,1:0:0:0:
203,276,71882,102,0,P|221:182|256:98,1,182.700005575562,12|0,0:1|0:0,0:0:0:0:
261,99,72206,2,0,L|375:114,1,92.4000028198243,0|0,1:0|1:0,0:0:0:0:
478,350,72531,5,8,0:0:0:0:
478,350,72693,2,0,P|495:302|498:233,1,92.4000028198243,0|0,1:2|0:0,0:0:0:0:
314,274,73017,1,0,1:0:0:0:
314,274,73179,2,0,P|297:186|256:91,1,184.800005639649,8|0,0:0|1:0,0:0:0:0:
26,336,73666,101,0,1:0:0:0:
56,203,73828,1,8,0:0:0:0:
26,336,73990,2,0,L|220:316,1,184.800005639649,4|0,1:0|1:0,0:0:0:0:
359,212,74476,1,8,0:0:0:0:
421,266,74639,6,0,P|421:324|397:366,1,92.4000028198243,0|0,1:2|0:0,0:0:0:0:
209,317,74963,2,0,P|209:259|233:217,1,92.4000028198243,0|8,1:0|0:0,0:0:0:0:
38,44,75287,102,0,P|123:80|192:80,1,138.600004229736,4|0,1:0|0:0,0:0:0:0:
177,81,75612,1,0,1:0:0:0:
339,26,75774,5,8,0:0:0:0:
295,204,75936,1,8,0:0:0:0:
295,204,76017,1,8,0:0:0:0:
295,204,76098,1,8,0:1:0:0:
407,88,76260,1,8,1:0:0:0:
232,139,76422,1,8,0:0:0:0:
251,49,76585,101,8,0:0:0:0:
383,176,76747,1,12,0:1:0:0:
383,176,77071,2,0,L|505:166,1,109.199995001221,8|0,0:0|0:0,0:0:0:0:
273,304,77395,2,0,L|291:185,1,109.199995001221,8|0,0:0|0:0,0:0:0:0:
174,107,77720,2,0,L|192:-12,1,109.199995001221,8|0,0:0|0:0,0:0:0:0:
383,176,78044,6,0,L|402:45,1,126.000004806519,8|0,0:1|0:0,0:0:0:0:
273,304,78368,2,0,L|292:175,1,126.000004806519,8|0,0:0|0:0,0:0:0:0:
154,320,78693,102,0,L|171:206,1,92.4000028198243,8|0,0:0|0:0,0:0:0:0:
16,154,79017,2,0,L|33:36,1,92.4000028198243,8|0,0:0|1:0,0:0:0:0:
29,62,79260,1,0,1:0:0:0:
29,62,79341,37,12,0:1:0:0:
131,94,79503,1,0,1:0:0:0:
212,27,79666,1,8,0:0:0:0:
148,196,79828,21,0,1:0:0:0:
148,196,79909,1,0,1:0:0:0:
148,196,79990,1,8,0:0:0:0:
331,160,80152,1,0,1:0:0:0:
443,297,80314,1,8,0:0:0:0:
512,258,80476,69,0,1:0:0:0:
512,258,80639,2,0,L|503:182,1,75.5999976928712,4|0,1:0|0:0,0:0:0:0:
452,49,81774,102,0,L|436:165,1,84,4|0,1:0|0:0,0:0:0:0:
428,210,82098,1,0,1:0:0:0:
364,160,82260,2,0,L|254:171,1,84,8|0,0:0|0:0,0:0:0:0:
137,108,82585,101,0,1:0:0:0:
161,257,82747,1,0,1:0:0:0:
196,176,82909,2,0,L|306:165,1,84,8|0,0:0|0:0,0:0:0:0:
89,40,83234,5,0,1:2:0:0:
60,129,83396,1,0,1:0:0:0:
0,60,83558,1,8,0:0:0:0:
50,79,83720,53,2,1:0:0:0:
50,79,84044,2,0,L|65:155,1,50.3999984619141,2|0,1:0|0:0,0:0:0:0:
13,192,84206,2,0,L|28:268,1,50.3999984619141,8|0,0:1|0:0,0:0:0:0:
167,356,84368,54,0,L|177:245,1,84,4|0,1:2|0:0,0:0:0:0:
132,205,84693,37,0,1:0:0:0:
132,205,84774,1,0,1:0:0:0:
132,205,84855,2,0,P|198:179|280:183,1,134.4,8|0,0:0|0:0,0:0:0:0:
389,91,85179,102,0,P|345:67|296:60,1,100.799996923828,8|8,0:0|0:3,0:0:0:0:
464,46,85503,101,4,0:3:0:0:
464,46,85666,2,0,P|489:75|500:111,1,75.6,4|0,1:0|0:0,0:0:0:0:
