osu file format v14

[General]
AudioFilename: Egao no Kanata.mp3
AudioLeadIn: 0
PreviewTime: 60531
Countdown: 0
SampleSet: Soft
StackLeniency: 0.7
Mode: 0
LetterboxInBreaks: 0
WidescreenStoryboard: 1

[Editor]
DistanceSpacing: 1.3
BeatDivisor: 4
GridSize: 32
TimelineZoom: 1

[Metadata]
Title:Egao no Kanata (TV Size)
TitleUnicode:エガオノカナタ (TV Size)
Artist:Chiho feat. majiko
ArtistUnicode:Chiho feat. majiko
Creator:C O N N E R
Version:Hard
Source:エガオノダイカ
Tags:牧野圭祐 宮田“レフティ”リョウ the cost price of smiles opening op anime japanese egao no daika h△g hag [_lost_] conner c_o_n_n_e_r left xHappy- P_KunG GalaxySkys_ -_frontier_- frontier shockolatte GalaxySkys
BeatmapID:2076939
BeatmapSetID:915403

[Difficulty]
HPDrainRate:5
CircleSize:4
OverallDifficulty:6.5
ApproachRate:8
SliderMultiplier:1.38
SliderTickRate:1

[Events]
//Background and Video events
0,0,"BG.jpg",0,0
Video,995,"Kanata.flv"
//Break Periods
//Storyboard Layer 0 (Background)
//Storyboard Layer 1 (Fail)
//Storyboard Layer 2 (Pass)
//Storyboard Layer 3 (Foreground)
//Storyboard Layer 4 (Overlay)
//Storyboard Sound Samples

[TimingPoints]
1504,324.324324324324,4,2,1,40,1,0
1504,-142.857142857143,4,2,1,40,0,0
5963,-142.857142857143,4,2,1,5,0,0
6044,-100,4,2,1,60,0,0
6531,-100,4,2,1,60,0,1
6612,-100,4,2,1,60,0,0
15287,-100,4,3,1,60,0,0
15612,-166.666666666667,4,2,1,50,0,0
16585,-166.666666666667,4,3,1,40,0,0
16990,-166.666666666667,4,2,1,5,0,0
17071,-166.666666666667,4,2,1,30,0,0
17152,-166.666666666667,4,2,1,30,0,0
27125,-100,4,2,1,60,0,0
36449,-100,4,2,1,5,0,0
36531,-100,4,2,1,60,0,0
37990,-125,4,2,1,50,0,0
48125,-125,4,2,1,5,0,0
48206,-111.111111111111,4,2,1,60,0,0
53395,-100,4,2,1,60,0,0
53720,-100,4,2,1,50,0,0
53882,-100,4,2,1,60,0,0
54206,-100,4,2,1,50,0,0
54368,-100,4,2,1,60,0,0
54693,-100,4,2,1,50,0,0
54855,-111.111111111111,4,2,1,50,0,0
55909,-111.111111111111,4,2,1,50,0,0
55990,-100,4,2,1,60,0,0
56314,-100,4,2,1,50,0,0
56476,-100,4,2,1,60,0,0
56801,-100,4,2,1,50,0,0
56963,-100,4,2,1,60,0,0
57287,-111.111111111111,4,2,1,50,0,0
58260,-142.857142857143,4,2,1,50,0,0
58503,-142.857142857143,4,2,1,5,0,0
58585,-90.9090909090909,4,2,1,70,0,0
61017,-83.3333333333333,4,2,1,80,0,1
65639,-83.3333333333333,4,2,1,80,0,1
65720,-83.3333333333333,4,2,1,80,0,1
71314,-83.3333333333333,4,2,1,80,0,0
71395,-83.3333333333333,4,2,1,80,0,1
80639,-200,4,2,1,80,0,1
81774,-100,4,2,1,60,0,0
85341,-100,4,3,1,60,0,0
85666,-200,4,2,1,60,0,0
85828,-200,4,2,1,55,0,0
86152,-200,4,2,1,50,0,0
86476,-200,4,2,1,45,0,0
86801,-200,4,2,1,40,0,0
87125,-200,4,2,1,35,0,0
87449,-200,4,2,1,25,0,0
87774,-200,4,2,1,15,0,0
89720,-200,4,2,1,5,0,0

[Colours]
Combo1 : 255,255,151
Combo2 : 255,128,128
Combo3 : 108,182,255
Combo4 : 190,20,50

[HitObjects]
48,217,1504,6,0,P|101:218|153:148,2,144.899995578003,2|2|2,0:0|0:0|0:0,0:0:0:0:
118,26,2963,1,2,0:0:0:0:
297,120,3449,2,0,P|291:172|289:226,1,96.599997052002,2|2,0:0|0:0,0:0:0:0:
404,287,4098,6,0,P|338:292|299:311,1,96.599997052002,2|0,0:0|0:0,0:0:0:0:
255,363,4585,2,0,P|204:367|158:351,1,96.599997052002,2|0,0:0|0:0,0:0:0:0:
103,297,5071,2,0,B|72:214|134:232|160:159|135:102|62:101|37:150|55:190,1,265.649991893006,2|0,0:0|0:0,0:0:0:0:
52,180,6044,5,8,0:0:0:0:
176,270,6206,1,8,0:0:0:0:
176,270,6531,6,0,B|256:292|256:292|281:269|274:228,1,138,6|2,1:2|1:2,0:0:0:0:
262,160,7017,2,0,L|264:90,1,69,10|0,0:0|0:0,0:0:0:0:
344,141,7341,2,0,L|342:211,1,69,2|0,1:2|1:2,0:0:0:0:
339,57,7666,2,0,P|383:59|410:79,1,69,10|0,0:0|0:0,0:0:0:0:
447,157,7990,6,0,P|491:155|518:135,2,69,2|2|10,1:2|1:2|0:0,0:0:0:0:
410,67,8476,1,6,0:0:0:0:
317,36,8639,2,0,P|274:36|245:54,1,69,2|2,1:2|1:2,0:0:0:0:
187,120,8963,1,10,0:0:0:0:
99,79,9125,6,0,P|47:77|-2:147,1,138,6|2,1:2|1:2,0:0:0:0:
33,230,9612,2,0,L|110:221,1,69,10|0,0:0|0:0,0:0:0:0:
159,299,9936,2,0,L|82:308,1,69,2|0,1:2|1:2,0:0:0:0:
196,217,10260,2,0,P|239:220|268:246,1,69,10|0,0:0|0:0,0:0:0:0:
341,286,10585,6,0,P|384:283|413:257,2,69,2|2|10,1:2|1:2|0:0,0:0:0:0:
259,234,11071,1,6,0:0:0:0:
317,157,11233,2,0,P|361:156|390:175,1,69,2|2,1:2|1:2,0:0:0:0:
469,209,11558,1,10,0:0:0:0:
503,118,11720,6,0,B|499:89|481:68|481:68|386:81,1,138,6|2,1:2|1:2,0:0:0:0:
302,76,12206,2,0,L|310:4,1,69,10|0,0:0|0:0,0:0:0:0:
214,49,12531,2,0,L|222:118,1,69,2|0,1:2|1:2,0:0:0:0:
130,71,12855,2,0,L|138:-1,1,69,10|0,0:0|0:0,0:0:0:0:
36,95,13179,6,0,P|26:135|32:175,2,69,2|2|10,1:2|1:2|0:0,0:0:0:0:
130,71,13666,1,6,0:0:0:0:
202,134,13828,2,0,L|195:207,1,69,2|2,1:2|1:2,0:0:0:0:
121,265,14152,1,10,0:0:0:0:
197,324,14314,6,0,P|261:311|334:300,1,138,6|0,1:2|1:2,0:0:0:0:
350,298,14720,1,0,1:2:0:0:
350,298,14801,2,0,P|394:302|420:327,1,69,10|0,0:0|1:2,0:0:0:0:
450,227,15125,2,0,P|437:187|438:156,1,69,10|8,0:0|0:0,0:0:0:0:
489,79,15449,1,4,0:0:0:0:
437,141,15612,6,0,B|275:148|372:49|212:50,1,248.399992419434,6|8,0:0|0:0,0:0:0:0:
159,82,16747,6,0,L|165:150,1,62.0999981048585,4|0,0:0|0:0,0:0:0:0:
172,157,17071,6,0,P|110:149|48:145,2,124.199996209717,6|2|2,0:0|0:0|0:0,0:0:0:0:
325,210,19666,6,0,P|396:202|435:162,2,124.199996209717,2|2|2,0:0|0:0|0:0,0:0:0:0:
210,316,22260,6,0,B|171:315|150:347|150:347|117:347|97:363,2,124.199996209717,2|2|2,0:0|0:0|0:0,0:0:0:0:
325,210,24206,1,2,0:0:0:0:
262,36,24855,6,0,P|256:98|246:164,2,124.199996209717,2|2|2,0:0|0:0|0:0,0:0:0:0:
151,171,26801,2,0,P|123:175|102:188,1,41.3999987365723,2|0,0:0|0:0,0:0:0:0:
46,252,27125,2,0,L|55:293,3,34.5,8|8|8|8,0:0|0:0|0:0|0:0,0:0:0:0:
38,317,27449,6,0,P|101:304|181:296,1,138,6|10,1:2|0:0,0:0:0:0:
249,357,27936,1,2,0:0:0:0:
321,292,28098,2,0,P|330:246|325:223,1,69,2|2,0:0|1:2,0:0:0:0:
243,174,28422,2,0,P|234:220|239:243,1,69,8|2,0:0|0:0,0:0:0:0:
277,96,28747,6,0,P|217:89|168:143,1,138,0|8,1:2|0:0,0:0:0:0:
88,196,29233,1,0,0:0:0:0:
15,132,29395,2,0,L|19:59,1,69,0|2,1:2|1:2,0:0:0:0:
106,21,29720,2,0,L|102:94,1,69,10|2,0:0|0:0,0:0:0:0:
95,186,30044,6,0,B|167:177|157:229|250:207,1,138,0|10,1:2|0:0,0:0:0:0:
303,150,30531,1,0,0:0:0:0:
384,201,30693,2,0,P|397:240|392:275,1,69,2|2,0:0|1:2,0:0:0:0:
304,306,31017,2,0,P|302:271|314:239,1,69,8|2,0:0|0:0,0:0:0:0:
385,174,31341,6,0,P|445:166|510:231,1,138,0|8,1:2|0:0,0:0:0:0:
512,307,31828,1,0,0:0:0:0:
441,372,31990,2,0,P|404:360|356:354,1,69,2|0,1:2|1:2,0:0:0:0:
297,296,32314,2,0,P|260:310|220:336,1,69,10|0,0:0|0:0,0:0:0:0:
147,368,32639,6,0,P|103:310|119:240,1,138,2|8,1:2|0:0,0:0:0:0:
165,168,33125,1,2,0:0:0:0:
74,133,33287,2,0,L|0:153,1,69,2|0,1:2|1:2,0:0:0:0:
165,168,33612,2,0,P|170:127|162:94,1,69,10|0,0:0|0:0,0:0:0:0:
104,24,33936,6,0,P|68:31|33:55,1,69,2|0,1:2|1:0,0:0:0:0:
164,89,34260,2,0,P|194:106|228:113,1,69,10|0,0:0|1:0,0:0:0:0:
288,0,34585,2,0,P|252:7|217:31,1,69,2|0,1:2|1:2,0:0:0:0:
348,65,34909,2,0,P|378:82|412:89,1,69,10|0,0:0|0:0,0:0:0:0:
497,29,35233,6,0,L|488:191,1,138,6|8,1:2|0:0,0:0:0:0:
489,263,35720,1,2,0:0:0:0:
398,229,35882,2,0,P|354:237|339:268,1,69,2|0,1:2|1:2,0:0:0:0:
279,328,36206,2,0,P|228:335|185:295,1,103.5,8|0,0:0|0:0,0:0:0:0:
183,289,36531,6,0,L|192:215,1,69,2|8,1:2|0:0,0:0:0:0:
99,292,36855,2,0,L|108:366,1,69,0|8,0:0|3:0,0:0:0:0:
65,214,37179,2,0,P|23:213|1:230,1,69,8|4,3:0|3:0,0:0:0:0:
121,146,37503,2,0,P|128:104|120:73,1,69,0|8,1:2|0:0,0:0:0:0:
42,23,37828,5,6,1:2:0:0:
42,23,37990,2,0,P|101:32|162:35,2,110.4,2|8|0,1:2|0:0|1:2,0:0:0:0:
15,96,38801,2,0,L|26:157,1,55.2,2|0,1:2|1:2,0:0:0:0:
129,124,39125,2,0,L|98:177,1,55.2,0|10,0:0|0:0,0:0:0:0:
211,211,39449,2,0,L|152:232,1,55.2,0|2,0:0|1:2,0:0:0:0:
253,133,39774,2,0,P|299:137|316:151,1,55.2,10|0,0:0|1:2,0:0:0:0:
368,185,40098,2,0,P|414:181|431:167,1,55.2,2|0,1:2|0:0,0:0:0:0:
482,130,40422,5,2,1:2:0:0:
482,130,40585,2,0,L|474:253,2,110.4,0|10|0,1:2|0:0|1:2,0:0:0:0:
441,64,41395,1,2,1:2:0:0:
369,33,41558,2,0,P|325:35|280:100,1,110.4,0|10,1:2|0:0,0:0:0:0:
229,137,42044,2,0,P|194:137|164:125,1,55.2,0|0,0:0|1:2,0:0:0:0:
124,72,42368,1,10,0:0:0:0:
62,119,42531,2,0,L|73:237,1,110.4,8|0,0:0|0:0,0:0:0:0:
34,296,43017,5,6,1:2:0:0:
34,296,43179,2,0,P|68:266|134:263,1,110.4,0|8,1:2|0:0,0:0:0:0:
201,294,43666,2,0,L|262:283,1,55.2,2|0,0:0|1:2,0:0:0:0:
321,243,43990,1,10,0:0:0:0:
375,297,44152,2,0,P|422:299|466:251,1,110.4,0|8,1:2|0:0,0:0:0:0:
399,162,44639,2,0,L|396:233,1,55.2,2|0,0:0|1:0,0:0:0:0:
485,236,44963,2,0,L|475:114,1,110.4,10|2,0:0|1:2,0:0:0:0:
501,52,45449,1,2,0:0:0:0:
430,20,45612,5,0,1:2:0:0:
430,20,45774,2,0,P|365:24|334:64,1,110.4,0|8,1:2|0:0,0:0:0:0:
280,108,46260,2,0,L|217:102,1,55.2,0|2,0:0|1:2,0:0:0:0:
165,52,46585,1,2,1:2:0:0:
116,112,46747,1,10,0:0:0:0:
105,124,46828,1,0,0:0:0:0:
94,136,46909,6,0,P|59:138|34:125,1,55.2,2|10,1:2|0:0,0:0:0:0:
14,57,47233,1,2,0:0:0:0:
8,209,47395,1,2,0:0:0:0:
8,209,47476,1,0,1:0:0:0:
8,209,47558,2,0,P|17:248|18:284,1,55.2,8|8,0:0|3:0,0:0:0:0:
20,340,47882,6,0,P|61:328|111:323,1,82.8,4|0,3:0|0:0,0:0:0:0:
116,331,48206,6,0,P|151:335|188:355,1,62.0999981048585,6|2,1:2|0:0,0:0:0:0:
218,213,48531,2,0,P|196:241|161:263,1,62.0999981048585,2|2,1:2|0:0,0:0:0:0:
272,365,48855,2,0,P|258:331|256:290,1,62.0999981048585,0|2,1:2|1:2,0:0:0:0:
324,253,49179,2,0,L|360:259,3,31.0499990524292,10|8|10|8,0:0|0:0|0:0|0:0,0:0:0:0:
379,277,49503,6,0,L|455:268,1,62.0999981048585,0|2,1:2|0:0,0:0:0:0:
422,144,49828,2,0,P|405:180|406:210,1,62.0999981048585,2|2,1:2|0:0,0:0:0:0:
497,106,50152,1,4,3:0:0:0:
431,48,50314,1,8,3:0:0:0:
352,85,50476,2,0,P|307:83|281:72,1,62.0999981048585,4|0,3:0|0:0,0:0:0:0:
223,22,50801,6,0,P|177:10|112:55,1,124.199996209717,6|2,1:2|1:2,0:0:0:0:
79,127,51287,1,10,0:0:0:0:
8,76,51449,2,0,L|11:7,1,62.0999981048585,0|10,1:0|0:0,0:0:0:0:
79,127,51774,2,0,L|76:196,1,62.0999981048585,2|10,1:2|0:0,0:0:0:0:
9,305,52098,6,0,B|-1:276|-1:276|5:241,1,62.0999981048585,0|8,1:2|0:0,0:0:0:0:
81,206,52422,1,0,1:2:0:0:
146,264,52585,1,10,0:0:0:0:
157,275,52666,1,8,0:0:0:0:
168,286,52747,2,0,L|234:265,1,62.0999981048585,4|8,3:0|3:0,0:0:0:0:
243,181,53071,2,0,L|177:202,1,62.0999981048585,4|0,3:0|0:0,0:0:0:0:
301,290,53395,6,0,L|450:254,1,138,6|0,1:2|0:0,0:0:0:0:
498,330,53882,2,0,P|466:284|494:199,1,138,6|0,1:2|0:0,0:0:0:0:
499,113,54368,2,0,B|476:155|476:155|383:147,1,138,6|0,1:2|0:0,0:0:0:0:
327,82,54855,5,10,0:0:0:0:
242,60,55017,2,0,P|206:62|183:87,1,62.0999981048585,2|0,1:2|1:0,0:0:0:0:
178,91,55260,1,0,1:0:0:0:
170,103,55341,2,0,L|162:26,1,62.0999981048585,10|8,0:0|0:0,0:0:0:0:
109,157,55666,2,0,P|69:139|18:152,1,93.1499971572877,4|0,3:0|0:0,0:0:0:0:
11,156,55990,6,0,L|24:305,1,138,6|0,1:2|0:0,0:0:0:0:
87,365,56476,2,0,P|128:369|182:291,1,138,6|0,1:2|0:0,0:0:0:0:
242,222,56963,2,0,P|296:202|366:260,1,138,6|0,1:2|0:0,0:0:0:0:
417,307,57449,5,8,0:0:0:0:
474,241,57612,2,0,P|481:199|475:169,1,62.0999981048585,0|0,1:2|1:0,0:0:0:0:
434,105,57936,1,10,0:0:0:0:
351,79,58098,1,10,0:0:0:0:
282,132,58260,6,0,P|237:129|205:116,1,72.4499977890015,4|0,3:0|0:0,0:0:0:0:
200,108,58585,5,8,0:0:0:0:
230,6,58747,2,0,P|262:1|306:17,1,75.9000023162842,8|0,0:0|0:0,0:0:0:0:
367,99,59071,1,8,0:0:0:0:
341,201,59233,2,0,P|297:222|266:221,1,75.9000023162842,8|0,0:0|0:0,0:0:0:0:
167,195,59558,5,8,0:0:0:0:
69,153,59720,2,0,P|29:160|3:188,1,75.9000023162842,8|0,0:0|0:0,0:0:0:0:
21,289,60044,1,8,0:0:0:0:
104,356,60206,2,0,P|144:349|170:321,1,75.9000023162842,8|0,0:0|0:0,0:0:0:0:
167,324,61017,6,0,B|204:285|204:285|328:304,1,165.599994946289,6|2,1:2|1:2,0:0:0:0:
401,353,61503,2,0,P|447:333|461:287,1,82.7999974731446,10|2,0:0|0:0,0:0:0:0:
392,184,61828,2,0,L|389:271,1,82.7999974731446,2|2,1:2|1:2,0:0:0:0:
465,133,62152,1,10,0:0:0:0:
388,69,62314,6,0,B|296:70|342:147|220:146,1,165.599994946289,2|2,1:2|1:2,0:0:0:0:
164,89,62801,2,0,P|150:46|162:2,1,82.7999974731446,8|0,0:0|0:0,0:0:0:0:
248,144,63125,2,0,P|262:187|250:231,1,82.7999974731446,2|0,1:2|1:0,0:0:0:0:
187,296,63449,1,10,0:0:0:0:
106,236,63612,6,0,P|141:200|251:220,1,165.599994946289,6|2,1:2|1:2,0:0:0:0:
330,268,64098,2,0,P|379:269|410:242,1,82.7999974731446,10|2,0:0|0:0,0:0:0:0:
471,176,64422,2,0,B|483:134|483:134|470:93,1,82.7999974731446,2|2,1:2|1:2,0:0:0:0:
402,24,64747,1,10,0:0:0:0:
331,94,64909,6,0,P|258:93|161:71,1,165.599994946289,2|2,1:2|1:2,0:0:0:0:
94,6,65395,2,0,P|39:21|15:87,1,124.199996209717,10|0,0:0|0:0,0:0:0:0:
12,98,65720,2,0,L|22:186,1,82.7999974731446,2|2,1:2|1:2,0:0:0:0:
14,279,66044,1,10,0:0:0:0:
101,232,66206,6,0,B|210:223|155:287|288:284,1,165.599994946289,6|2,1:2|1:2,0:0:0:0:
340,234,66693,2,0,B|348:191|348:191|333:151,1,82.7999974731446,10|2,0:0|0:0,0:0:0:0:
412,291,67017,2,0,P|459:290|491:260,1,82.7999974731446,0|2,1:2|1:2,0:0:0:0:
505,171,67341,1,10,0:0:0:0:
454,85,67503,6,0,P|386:66|317:144,1,165.599994946289,6|0,1:2|1:2,0:0:0:0:
239,182,67990,1,10,0:0:0:0:
162,118,68152,2,0,L|171:30,1,82.7999974731446,2|0,1:2|0:0,0:0:0:0:
87,161,68476,2,0,L|96:249,1,82.7999974731446,0|8,1:2|0:0,0:0:0:0:
35,323,68801,6,0,P|63:274|168:282,1,165.599994946289,6|10,1:2|0:0,0:0:0:0:
228,350,69287,1,8,0:0:0:0:
305,287,69449,6,0,B|397:285|343:354|450:351,1,165.599994946289,6|10,1:2|0:0,0:0:0:0:
499,265,69936,1,8,0:0:0:0:
465,171,70098,6,0,B|364:130|364:130|326:138|328:190,1,165.599994946289,6|2,1:2|1:2,0:0:0:0:
242,218,70585,2,0,B|222:179|222:179|240:130,1,82.7999974731446,10|0,0:0|1:2,0:0:0:0:
278,53,70909,1,8,0:0:0:0:
257,46,70990,1,8,0:0:0:0:
235,38,71071,2,0,L|188:25,3,41.3999987365723,8|8|0|0,0:0|0:0|1:0|1:0,0:0:0:0:
165,19,71395,6,0,B|75:34|75:34|43:65|49:135,1,165.599994946289,6|2,1:2|1:2,0:0:0:0:
98,188,71882,2,0,P|137:169|154:128,1,82.7999974731446,14|2,0:0|0:0,0:0:0:0:
0,173,72206,2,0,B|-9:212|-9:212|10:271,1,82.7999974731446,2|2,1:2|1:2,0:0:0:0:
63,332,72531,1,10,0:0:0:0:
143,274,72693,6,0,P|190:258|267:354,1,165.599994946289,2|2,1:2|1:2,0:0:0:0:
360,365,73179,2,0,L|448:352,1,82.7999974731446,8|2,0:0|0:0,0:0:0:0:
439,243,73503,2,0,P|387:254|371:288,1,82.7999974731446,0|2,1:2|1:2,0:0:0:0:
506,296,73828,1,10,0:0:0:0:
503,162,73990,6,0,B|448:138|448:138|323:162,1,165.599994946289,6|0,1:2|1:2,0:0:0:0:
250,190,74476,1,10,0:0:0:0:
189,110,74639,2,0,P|224:88|274:89,1,82.7999974731446,2|0,1:2|0:0,0:0:0:0:
138,189,74963,2,0,P|97:187|62:165,1,82.7999974731446,2|10,1:2|0:0,0:0:0:0:
15,77,75287,6,0,B|51:123|51:123|26:254,1,165.599994946289,6|10,1:2|0:0,0:0:0:0:
16,327,75774,1,8,0:0:0:0:
108,292,75936,1,8,0:0:0:0:
108,292,76017,1,8,0:0:0:0:
108,292,76098,2,0,P|152:293|189:326,1,82.7999974731446,2|8,0:0|0:0,0:0:0:0:
272,355,76422,2,0,P|316:354|353:321,1,82.7999974731446,10|0,0:0|1:2,0:0:0:0:
444,312,76747,6,0,B|466:232|466:232|438:146,1,165.599994946289,14|8,0:0|0:0,0:0:0:0:
357,60,77233,1,0,1:0:0:0:
288,163,77395,2,0,P|230:160|200:134,1,82.7999974731446,10|0,0:0|1:2,0:0:0:0:
168,29,77720,2,0,P|226:32|256:58,1,82.7999974731446,10|0,0:0|1:2,0:0:0:0:
194,158,78044,6,0,B|108:173|108:173|66:162|47:114,1,165.599994946289,10|10,0:0|0:0,0:0:0:0:
7,6,78531,1,0,1:0:0:0:
111,72,78693,2,0,P|160:70|190:38,1,82.7999974731446,10|0,0:0|1:2,0:0:0:0:
303,13,79017,2,0,P|352:14|382:46,1,82.7999974731446,10|0,0:0|1:2,0:0:0:0:
485,92,79341,6,0,P|477:154|473:268,1,165.599994946289,14|8,0:0|0:0,0:0:0:0:
504,377,79828,1,0,1:0:0:0:
472,256,79990,2,0,P|423:257|395:284,1,82.7999974731446,10|8,0:0|0:0,0:0:0:0:
303,357,80314,2,0,P|254:356|226:329,1,82.7999974731446,8|4,3:0|3:0,0:0:0:0:
97,262,80639,6,0,P|174:254|129:341,1,207,6|0,1:2|0:0,0:0:0:0:
29,311,81774,6,0,B|-1:247|-1:247|30:167,1,138,6|0,1:2|1:2,0:0:0:0:
86,131,82260,2,0,P|126:129|154:151,1,69,10|0,0:0|0:0,0:0:0:0:
229,165,82585,2,0,P|269:167|297:145,1,69,2|0,1:2|1:2,0:0:0:0:
361,106,82909,2,0,P|401:104|429:126,1,69,10|0,0:0|0:0,0:0:0:0:
500,151,83233,6,0,L|497:235,2,69,2|2|10,1:2|1:2|0:0,0:0:0:0:
485,69,83720,1,6,0:0:0:0:
421,15,83882,2,0,P|366:19|352:33,1,69,2|2,1:2|1:2,0:0:0:0:
295,81,84206,1,10,0:0:0:0:
235,138,84368,6,0,P|185:139|115:89,1,138,6|0,1:2|1:2,0:0:0:0:
112,70,84774,1,0,1:2:0:0:
112,70,84855,2,0,L|117:-3,1,69,10|0,0:0|1:2,0:0:0:0:
39,128,85179,2,0,L|44:201,1,69,10|8,0:0|0:0,0:0:0:0:
50,279,85503,1,4,0:0:0:0:
133,228,85666,5,6,1:2:0:0:
256,192,85747,12,0,89720,0:0:0:0:
