osu file format v14

[General]
AudioFilename: Egao no Kanata.mp3
AudioLeadIn: 0
PreviewTime: 60531
Countdown: 0
SampleSet: Soft
StackLeniency: 0.7
Mode: 0
LetterboxInBreaks: 0
WidescreenStoryboard: 1

[Editor]
DistanceSpacing: 1.4
BeatDivisor: 4
GridSize: 32
TimelineZoom: 1

[Metadata]
Title:Egao no Kanata (TV Size)
TitleUnicode:エガオノカナタ (TV Size)
Artist:Chiho feat. majiko
ArtistUnicode:Chiho feat. majiko
Creator:C O N N E R
Version:GalaxySkys' Insane
Source:エガオノダイカ
Tags:牧野圭祐 宮田“レフティ”リョウ the cost price of smiles opening op anime japanese egao no daika h△g hag [_lost_] conner c_o_n_n_e_r left xHappy- P_KunG GalaxySkys_ -_frontier_- frontier shockolatte GalaxySkys
BeatmapID:2076938
BeatmapSetID:915403

[Difficulty]
HPDrainRate:5.7
CircleSize:4
OverallDifficulty:7.5
ApproachRate:8.6
SliderMultiplier:1.68
SliderTickRate:1

[Events]
//Background and Video events
0,0,"BG.jpg",0,0
Video,995,"Kanata.flv"
//Break Periods
//Storyboard Layer 0 (Background)
//Storyboard Layer 1 (Fail)
//Storyboard Layer 2 (Pass)
//Storyboard Layer 3 (Foreground)
//Storyboard Layer 4 (Overlay)
//Storyboard Sound Samples

[TimingPoints]
1504,324.324324324324,4,2,1,50,1,0
1504,-142.857142857143,4,2,1,50,0,0
1828,-142.857142857143,4,2,1,30,0,0
1990,-142.857142857143,4,2,1,40,0,0
2314,-142.857142857143,4,2,1,30,0,0
2476,-142.857142857143,4,2,1,40,0,0
2801,-142.857142857143,4,2,1,30,0,0
2963,-142.857142857143,4,2,1,40,0,0
3287,-142.857142857143,4,2,1,30,0,0
3449,-142.857142857143,4,2,1,40,0,0
3612,-142.857142857143,4,2,1,30,0,0
3774,-142.857142857143,4,2,1,40,0,0
3936,-142.857142857143,4,2,1,30,0,0
4098,-142.857142857143,4,2,1,40,0,0
5963,-142.857142857143,4,2,1,5,0,0
6044,-100,4,2,1,60,0,0
6531,-100,4,2,1,60,0,1
6612,-100,4,2,1,60,0,0
15287,-100,4,3,1,70,0,0
15612,-166.666666666667,4,2,1,50,0,0
16585,-166.666666666667,4,3,1,40,0,0
16990,-166.666666666667,4,2,1,5,0,0
17071,-166.666666666667,4,2,1,30,0,0
17152,-166.666666666667,4,2,1,30,0,0
27125,-100,4,2,1,60,0,0
37990,-125,4,2,1,50,0,0
48125,-125,4,2,1,5,0,0
48206,-111.111111111111,4,2,1,60,0,0
53395,-100,4,2,1,60,0,0
53720,-100,4,2,1,50,0,0
53882,-100,4,2,1,60,0,0
54206,-100,4,2,1,50,0,0
54368,-100,4,2,1,60,0,0
54693,-100,4,2,1,50,0,0
54855,-111.111111111111,4,2,1,50,0,0
55909,-111.111111111111,4,2,1,5,0,0
55990,-100,4,2,1,60,0,0
56314,-100,4,2,1,50,0,0
56476,-100,4,2,1,60,0,0
56801,-100,4,2,1,50,0,0
56963,-100,4,2,1,60,0,0
57287,-111.111111111111,4,2,1,50,0,0
58260,-142.857142857143,4,2,1,50,0,0
58503,-142.857142857143,4,2,1,5,0,0
58585,-90.9090909090909,4,2,1,70,0,0
60531,-200,4,2,1,30,0,0
61017,-90.9090909090909,4,2,1,80,0,1
71314,-90.9090909090909,4,2,1,80,0,0
71395,-90.9090909090909,4,2,1,80,0,1
80639,-200,4,2,1,80,0,1
81774,-100,4,2,1,60,0,0
85341,-100,4,3,1,60,0,0
85666,-200,4,2,1,60,0,0
85828,-200,4,2,1,55,0,0
86152,-200,4,2,1,50,0,0
86476,-200,4,2,1,45,0,0
86801,-200,4,2,1,40,0,0
87125,-200,4,2,1,35,0,0
87449,-200,4,2,1,25,0,0
87774,-200,4,2,1,15,0,0
89720,-200,4,2,1,5,0,0

[Colours]
Combo1 : 255,255,151
Combo2 : 255,128,128
Combo3 : 108,182,255
Combo4 : 190,20,50

[HitObjects]
27,100,1504,6,0,L|161:88,1,117.599996411133,2|0,0:0|0:0,0:0:0:0:
209,34,1990,2,0,P|233:80|208:151,1,117.599996411133,2|0,0:0|0:0,0:0:0:0:
147,185,2476,2,0,P|180:174|255:218,1,117.599996411133,2|0,0:0|0:0,0:0:0:0:
293,288,2963,2,0,L|430:279,1,117.599996411133,2|0,0:0|0:0,0:0:0:0:
483,194,3449,2,0,P|493:219|488:259,1,58.7999982055665,2|0,0:0|0:0,0:0:0:0:
404,166,3774,2,0,P|398:144|410:100,1,58.7999982055665,2|0,0:0|0:0,0:0:0:0:
470,59,4098,6,0,P|402:67|345:37,1,117.599996411133,2|0,0:0|0:0,0:0:0:0:
283,13,4585,2,0,B|222:4|222:4|170:49,1,117.599996411133,2|0,0:0|0:0,0:0:0:0:
102,68,5071,2,0,B|174:51|263:75|196:184|243:242|343:224,1,323.399990130616,2|0,0:0|0:0,0:0:0:0:
338,224,6044,5,8,0:0:0:0:
157,324,6206,1,8,0:0:0:0:
157,324,6531,6,0,P|149:249|133:153,1,168,6|2,1:2|1:2,0:0:0:0:
100,45,7017,2,0,P|127:42|187:67,1,84,10|0,0:0|0:0,0:0:0:0:
291,129,7341,2,0,P|246:134|208:164,1,84,2|0,1:2|1:2,0:0:0:0:
377,89,7666,2,0,P|381:47|364:10,1,84,10|0,0:0|0:0,0:0:0:0:
285,145,7990,6,0,P|280:186|297:223,1,84,2|2,1:2|1:2,0:0:0:0:
393,290,8314,1,10,0:0:0:0:
297,223,8476,2,0,B|204:204|238:272|134:250,1,168,6|2,0:0|1:2,0:0:0:0:
59,187,8963,1,10,0:0:0:0:
83,57,9125,6,0,B|161:30|161:30|257:66,1,168,6|2,1:2|1:2,0:0:0:0:
340,109,9612,2,0,P|398:92|434:109,1,84,10|0,0:0|0:0,0:0:0:0:
489,190,9936,2,0,L|381:174,1,84,2|0,1:2|1:2,0:0:0:0:
307,242,10260,2,0,L|415:258,1,84,10|0,0:0|0:0,0:0:0:0:
269,156,10585,6,0,P|218:157|189:174,1,84,2|2,1:2|1:2,0:0:0:0:
145,273,10909,1,10,0:0:0:0:
238,348,11071,2,0,B|333:347|287:264|385:277,1,168,6|2,0:0|1:2,0:0:0:0:
470,309,11558,1,10,0:0:0:0:
416,200,11720,6,0,B|388:246|388:246|405:387,1,168,6|2,1:2|1:2,0:0:0:0:
493,163,12206,2,0,P|454:127|385:118,1,84,10|0,0:0|0:0,0:0:0:0:
333,190,12531,2,0,L|427:202,1,84,2|0,1:2|1:2,0:0:0:0:
349,78,12855,2,0,L|255:66,1,84,10|0,0:0|0:0,0:0:0:0:
190,203,13179,6,0,P|228:187|257:157,1,84,2|2,1:2|1:2,0:0:0:0:
174,74,13503,1,10,0:0:0:0:
68,128,13666,2,0,B|42:209|42:209|81:293,1,168,6|2,0:0|1:2,0:0:0:0:
148,367,14152,1,10,0:0:0:0:
256,275,14314,6,0,P|293:228|403:244,1,168,6|0,1:2|1:2,0:0:0:0:
413,257,14720,1,0,1:2:0:0:
413,257,14801,1,10,0:0:0:0:
341,355,14963,1,0,1:2:0:0:
499,296,15125,2,0,P|506:247|487:189,1,84,10|8,0:0|0:0,0:0:0:0:
421,125,15449,1,4,0:0:0:0:
394,49,15612,6,0,B|346:17|278:37|278:37|248:78|248:78|179:113|123:74,1,302.399990771485,6|8,0:0|0:0,0:0:0:0:
45,58,16747,6,0,L|58:142,1,75.5999976928712,4|0,0:0|0:0,0:0:0:0:
11,199,17071,6,0,P|58:154|150:178,2,151.199995385742,6|2|2,0:0|0:0|0:0,0:0:0:0:
227,215,19666,6,0,P|222:262|215:367,2,151.199995385742,2|2|2,0:0|0:0|0:0,0:0:0:0:
415,192,22260,6,0,P|406:126|402:30,2,151.199995385742,2|2|2,0:0|0:0|0:0,0:0:0:0:
497,334,24206,1,2,0:0:0:0:
415,192,24855,6,0,B|372:177|330:191|349:216|315:237|266:222,2,151.199995385742,2|2|2,0:0|0:0|0:0,0:0:0:0:
401,41,26801,2,0,L|335:46,1,50.3999984619141,2|0,0:0|0:0,0:0:0:0:
218,13,27125,1,8,0:0:0:0:
201,25,27206,1,8,0:0:0:0:
184,37,27287,1,8,0:0:0:0:
167,49,27368,1,8,0:0:0:0:
150,61,27449,6,0,B|131:97|131:97|136:233,1,168,6|10,1:2|0:0,0:0:0:0:
202,321,27936,1,2,0:0:0:0:
294,235,28098,2,0,P|249:226|206:242,1,84,2|2,0:0|1:2,0:0:0:0:
369,275,28422,2,0,P|379:232|367:193,1,84,8|2,0:0|0:0,0:0:0:0:
332,351,28747,6,0,P|377:360|420:344,1,84,0|0,1:2|1:2,0:0:0:0:
294,235,29071,1,8,0:0:0:0:
202,321,29233,1,0,0:0:0:0:
202,321,29314,1,8,0:0:0:0:
202,321,29395,2,0,P|155:324|124:306,1,84,0|2,1:2|1:2,0:0:0:0:
104,189,29720,2,0,P|139:184|185:208,1,84,10|2,0:0|0:0,0:0:0:0:
48,281,30044,6,0,P|47:186|41:93,1,168,0|10,1:2|0:0,0:0:0:0:
128,31,30531,1,0,0:0:0:0:
217,107,30693,2,0,P|257:114|298:99,1,84,2|2,0:0|1:2,0:0:0:0:
364,3,31017,1,8,0:0:0:0:
403,113,31179,1,2,0:0:0:0:
512,38,31341,6,0,P|466:25|420:52,1,84,0|0,1:2|1:2,0:0:0:0:
342,162,31666,1,8,0:0:0:0:
487,237,31828,1,0,0:0:0:0:
487,237,31909,1,8,0:0:0:0:
487,237,31990,1,2,1:2:0:0:
403,113,32152,1,0,1:2:0:0:
339,289,32314,2,0,P|383:284|432:286,1,84,10|0,0:0|0:0,0:0:0:0:
273,228,32639,6,0,P|181:231|150:293,1,168,2|8,1:2|0:0,0:0:0:0:
57,363,33125,1,2,0:0:0:0:
10,255,33287,2,0,P|-4:211|12:171,1,84,2|0,1:2|1:2,0:0:0:0:
105,109,33612,2,0,P|119:153|103:193,1,84,10|0,0:0|0:0,0:0:0:0:
24,71,33936,6,0,P|78:19|169:52,1,168,2|10,1:2|0:0,0:0:0:0:
242,125,34422,1,0,1:0:0:0:
242,125,34503,1,0,1:0:0:0:
242,125,34585,2,0,P|283:118|319:97,1,84,2|0,1:2|1:2,0:0:0:0:
238,13,34909,2,0,P|196:20|160:41,1,84,10|0,0:0|0:0,0:0:0:0:
149,51,35152,1,0,0:0:0:0:
137,60,35233,6,0,P|140:163|142:246,1,168,6|8,1:2|0:0,0:0:0:0:
197,332,35720,1,2,0:0:0:0:
294,266,35882,2,0,P|246:246|196:265,1,84,2|0,1:2|1:2,0:0:0:0:
305,353,36206,2,0,P|346:357|382:339,1,84,8|0,0:0|0:0,0:0:0:0:
484,287,36531,1,2,1:2:0:0:
484,287,36693,6,0,P|484:187|486:99,1,168,8|8,0:0|3:0,0:0:0:0:
390,54,37179,2,0,P|338:59|319:92,1,84,8|4,3:0|3:0,0:0:0:0:
244,171,37503,2,0,P|203:172|175:142,1,84,0|8,1:2|0:0,0:0:0:0:
93,57,37828,5,6,1:2:0:0:
93,57,37990,2,0,P|97:117|98:199,1,134.4,2|8,1:2|0:0,0:0:0:0:
116,283,38476,2,0,L|27:279,1,67.2,0|0,0:0|1:2,0:0:0:0:
194,201,38801,2,0,P|206:238|212:297,1,67.2,2|0,1:2|1:2,0:0:0:0:
185,356,39125,6,0,P|219:307|307:305,1,134.4,0|0,0:0|0:0,0:0:0:0:
369,347,39612,1,2,1:2:0:0:
448,297,39774,2,0,L|439:211,1,67.2,10|0,0:0|1:2,0:0:0:0:
362,280,40098,2,0,L|371:366,1,67.2,2|0,1:2|0:0,0:0:0:0:
453,377,40422,5,2,1:2:0:0:
435,207,40585,2,0,B|357:200|385:246|306:237,1,134.4,0|10,1:2|0:0,0:0:0:0:
262,154,41071,2,0,P|253:112|266:79,1,67.2,0|0,0:0|1:2,0:0:0:0:
402,113,41395,2,0,L|318:119,1,67.2,2|0,1:2|1:2,0:0:0:0:
255,67,41720,5,0,0:0:0:0:
194,158,41882,2,0,L|278:152,1,67.2,10|0,0:0|0:0,0:0:0:0:
259,44,42206,1,0,1:2:0:0:
170,12,42368,6,0,P|136:16|105:39,1,67.2,10|8,0:0|0:0,0:0:0:0:
172,161,42693,2,0,P|175:127|168:95,1,67.2,0|0,0:0|0:0,0:0:0:0:
79,109,43017,5,6,1:2:0:0:
112,249,43179,2,0,L|275:234,1,134.4,0|8,1:2|0:0,0:0:0:0:
66,319,43666,2,0,P|29:317|-6:296,1,67.2,2|0,0:0|1:2,0:0:0:0:
15,210,43990,1,10,0:0:0:0:
78,336,44152,6,0,L|226:326,1,134.4,0|8,1:2|0:0,0:0:0:0:
301,304,44639,2,0,L|294:387,1,67.2,2|0,0:0|1:0,0:0:0:0:
240,169,44963,2,0,L|247:252,1,67.2,10|0,0:0|0:0,0:0:0:0:
343,196,45287,2,0,P|350:158|346:128,1,67.2,2|2,1:2|0:0,0:0:0:0:
294,45,45612,5,0,1:2:0:0:
230,151,45774,2,0,B|155:154|171:95|74:108,1,134.4,0|8,1:2|0:0,0:0:0:0:
34,167,46260,2,0,L|41:238,1,67.2,0|2,0:0|1:2,0:0:0:0:
106,106,46585,2,0,L|99:35,1,67.2,2|10,1:2|0:0,0:0:0:0:
135,203,46909,6,0,P|166:224|202:226,1,67.2,2|10,1:2|0:0,0:0:0:0:
251,151,47233,1,2,0:0:0:0:
329,202,47395,1,2,0:0:0:0:
329,202,47476,1,0,1:0:0:0:
329,202,47558,2,0,L|323:281,1,67.2,8|8,0:0|3:0,0:0:0:0:
247,324,47882,6,0,P|267:297|333:286,1,100.8,4|0,3:0|0:0,0:0:0:0:
342,302,48206,6,0,P|406:311|477:227,1,151.199995385742,6|2,1:2|1:2,0:0:0:0:
440,156,48693,1,2,0:0:0:0:
341,118,48855,2,0,L|254:138,1,75.5999976928712,0|2,1:2|1:2,0:0:0:0:
178,77,49179,2,0,L|182:4,3,37.7999988464356,10|8|10|8,0:0|0:0|0:0|0:0,0:0:0:0:
186,91,49503,6,0,B|109:116|129:60|29:78,1,151.199995385742,0|2,1:2|1:2,0:0:0:0:
5,177,49990,1,2,0:0:0:0:
75,255,50152,2,0,P|114:254|161:216,1,75.5999976928712,4|8,3:0|3:0,0:0:0:0:
5,177,50476,1,4,3:0:0:0:
8,336,50639,5,0,0:0:0:0:
8,336,50720,1,0,0:0:0:0:
8,336,50801,2,0,B|85:319|76:375|171:356,1,151.199995385742,6|2,1:2|1:2,0:0:0:0:
228,283,51287,1,10,0:0:0:0:
310,349,51449,2,0,P|344:321|384:311,1,75.5999976928712,0|10,1:0|0:0,0:0:0:0:
228,283,51774,2,0,B|215:244|215:244|226:207,1,75.5999976928712,2|10,1:2|0:0,0:0:0:0:
315,155,52098,6,0,B|328:194|328:194|317:231,1,75.5999976928712,0|8,1:2|0:0,0:0:0:0:
222,104,52422,1,0,1:2:0:0:
330,161,52585,1,10,0:0:0:0:
330,161,52666,1,8,0:0:0:0:
330,161,52747,6,0,L|414:142,1,75.5999976928712,4|8,3:0|3:0,0:0:0:0:
397,38,53071,2,0,L|313:57,1,75.5999976928712,4|0,3:0|0:0,0:0:0:0:
222,104,53395,6,0,B|144:128|152:68|52:89,1,168,6|0,1:2|0:0,0:0:0:0:
14,196,53882,2,0,B|67:164|67:164|121:150|153:217,1,168,6|0,1:2|0:0,0:0:0:0:
83,358,54368,2,0,P|31:295|91:250,1,168,6|0,1:2|0:0,0:0:0:0:
181,208,54855,5,10,0:0:0:0:
250,287,55017,2,0,L|250:366,1,75.5999976928712,2|0,1:2|1:0,0:0:0:0:
181,208,55341,2,0,L|181:129,1,75.5999976928712,10|8,0:0|0:0,0:0:0:0:
279,172,55666,2,0,P|334:167|379:212,1,113.399996539307,4|0,3:0|0:0,0:0:0:0:
384,222,55990,6,0,B|338:142|338:142|387:71,1,168,6|0,1:2|0:0,0:0:0:0:
490,38,56476,2,0,P|410:58|306:25,1,168,6|0,1:2|0:0,0:0:0:0:
211,18,56963,2,0,P|131:13|94:83,1,168,6|0,1:2|0:0,0:0:0:0:
161,165,57449,5,8,0:0:0:0:
35,221,57612,2,0,L|25:126,1,75.5999976928712,0|0,1:2|1:0,0:0:0:0:
22,115,57855,1,0,0:0:0:0:
22,115,57936,1,10,0:0:0:0:
161,165,58098,1,10,0:0:0:0:
109,315,58260,2,0,L|11:300,1,88.1999973083497,4|0,3:0|0:0,0:0:0:0:
6,298,58585,5,8,0:0:0:0:
113,233,58747,2,0,P|163:255|188:299,1,92.4000028198243,8|0,0:0|0:0,0:0:0:0:
6,298,59071,5,8,0:0:0:0:
73,170,59233,2,0,P|125:154|172:172,1,92.4000028198243,8|0,0:0|0:0,0:0:0:0:
6,298,59558,5,8,0:0:0:0:
0,146,59720,2,0,P|30:100|78:83,1,92.4000028198243,8|0,0:0|0:0,0:0:0:0:
6,298,60044,5,8,0:0:0:0:
160,164,60206,1,8,0:0:0:0:
160,164,60531,6,0,P|201:168|243:193,1,84,2|0,0:0|0:0,0:0:0:0:
393,230,61017,6,0,B|293:215|325:301|190:277,1,184.800005639649,6|2,1:2|1:2,0:0:0:0:
211,107,61503,2,0,P|241:151|235:194,1,92.4000028198243,10|2,0:0|0:0,0:0:0:0:
156,344,61828,2,0,L|141:241,1,92.4000028198243,2|2,1:2|1:2,0:0:0:0:
239,280,62152,1,10,0:0:0:0:
76,366,62314,6,0,L|55:182,1,184.800005639649,2|2,1:2|1:2,0:0:0:0:
130,49,62801,2,0,B|139:96|139:96|121:147,1,92.4000028198243,8|0,0:0|0:0,0:0:0:0:
0,91,63125,2,0,B|-9:44|-9:44|9:-7,1,92.4000028198243,2|0,1:2|1:0,0:0:0:0:
130,49,63449,1,10,0:0:0:0:
55,182,63612,6,0,B|159:201|159:201|221:153,1,184.800005639649,6|2,1:2|1:2,0:0:0:0:
303,44,64098,2,0,L|197:66,1,92.4000028198243,10|2,0:0|0:0,0:0:0:0:
385,6,64422,2,0,B|408:47|408:47|385:106,1,92.4000028198243,2|2,1:2|1:2,0:0:0:0:
300,194,64747,1,10,0:0:0:0:
212,62,64909,6,0,B|333:56|282:121|410:114,1,184.800005639649,2|2,1:2|1:2,0:0:0:0:
468,3,65395,2,0,P|416:1|366:37,1,92.4000028198243,10|0,0:0|0:0,0:0:0:0:
483,180,65720,2,0,L|495:88,1,92.4000028198243,2|2,1:2|1:2,0:0:0:0:
384,114,66044,1,10,0:0:0:0:
493,199,66206,6,0,B|390:187|427:263|301:247,1,184.800005639649,6|2,1:2|1:2,0:0:0:0:
198,203,66693,2,0,P|149:204|109:234,1,92.4000028198243,10|2,0:0|0:0,0:0:0:0:
193,367,67017,2,0,P|242:366|282:336,1,92.4000028198243,0|2,1:2|1:2,0:0:0:0:
325,244,67341,1,10,0:0:0:0:
204,100,67503,6,0,B|112:90|112:90|31:148,1,184.800005639649,6|0,1:2|1:2,0:0:0:0:
1,264,67990,1,10,0:0:0:0:
86,359,68152,2,0,B|176:356|142:283|255:283,1,184.800005639649,2|0,1:2|1:2,0:0:0:0:
357,351,68639,1,8,0:0:0:0:
381,216,68801,6,0,P|284:213|247:291,1,184.800005639649,6|10,1:2|0:0,0:0:0:0:
357,351,69287,1,8,0:0:0:0:
478,307,69449,2,0,B|504:211|504:211|469:116,1,184.800005639649,6|10,1:2|0:0,0:0:0:0:
378,43,69936,1,8,0:0:0:0:
281,129,70098,6,0,P|198:152|117:76,1,184.800005639649,6|2,1:2|1:2,0:0:0:0:
30,6,70585,2,0,B|42:56|42:56|24:109,1,92.4000028198243,10|0,0:0|1:2,0:0:0:0:
17,223,70909,1,8,0:0:0:0:
38,214,70990,1,8,0:0:0:0:
60,210,71071,1,8,0:0:0:0:
83,210,71152,1,8,0:0:0:0:
105,215,71233,1,0,1:0:0:0:
125,225,71314,1,0,1:0:0:0:
142,240,71395,6,0,B|198:281|198:281|334:245,1,184.800005639649,6|2,1:2|1:2,0:0:0:0:
435,217,71882,2,0,L|428:317,1,92.4000028198243,14|2,0:0|0:0,0:0:0:0:
488,132,72206,2,0,P|446:113|393:124,1,92.4000028198243,2|2,1:2|1:2,0:0:0:0:
324,224,72531,1,10,0:0:0:0:
330,58,72693,6,0,B|225:65|280:127|163:133,1,184.800005639649,2|2,1:2|1:2,0:0:0:0:
76,42,73179,2,0,P|113:21|176:34,1,92.4000028198243,8|2,0:0|0:0,0:0:0:0:
155,224,73503,2,0,L|170:116,1,92.4000028198243,0|2,1:2|1:2,0:0:0:0:
229,287,73828,1,10,0:0:0:0:
70,187,73990,6,0,B|41:282|41:282|85:372,1,184.800005639649,6|0,1:2|1:2,0:0:0:0:
195,302,74476,1,10,0:0:0:0:
315,351,74639,2,0,P|388:357|461:276,1,184.800005639649,2|2,1:2|1:2,0:0:0:0:
481,185,75125,1,10,0:0:0:0:
377,68,75287,6,0,P|293:70|234:151,1,184.800005639649,6|10,1:2|0:0,0:0:0:0:
137,237,75774,2,0,P|79:249|45:231,1,92.4000028198243,8|8,0:0|0:0,0:0:0:0:
27,216,76017,1,8,0:0:0:0:
27,216,76098,1,2,0:0:0:0:
92,161,76260,1,8,0:0:0:0:
23,103,76422,1,10,0:0:0:0:
89,54,76585,1,0,1:2:0:0:
137,237,76747,6,0,P|182:237|223:202,1,92.4000028198243,14|0,0:0|0:0,0:0:0:0:
240,82,77071,2,0,P|195:82|154:117,1,92.4000028198243,8|0,0:0|1:0,0:0:0:0:
298,221,77395,2,0,P|343:221|384:186,1,92.4000028198243,10|0,0:0|1:2,0:0:0:0:
401,66,77719,2,0,P|356:66|315:101,1,92.4000028198243,10|0,0:0|1:2,0:0:0:0:
285,235,78044,6,0,B|330:206|401:199|401:199|448:230|465:266,1,184.800005639649,10|10,0:0|0:0,0:0:0:0:
364,362,78531,1,0,1:0:0:0:
211,245,78693,2,0,L|218:146,1,92.4000028198243,10|0,0:0|1:2,0:0:0:0:
372,276,79017,2,0,L|362:394,1,92.4000028198243,10|0,0:0|1:2,0:0:0:0:
288,199,79341,6,0,P|350:187|390:228,1,92.4000028198243,14|0,0:0|0:0,0:0:0:0:
256,341,79666,2,0,P|207:355|150:312,1,92.4000028198243,8|0,0:0|1:0,0:0:0:0:
93,108,79990,1,10,0:0:0:0:
211,245,80152,1,8,0:0:0:0:
20,330,80314,1,8,3:0:0:0:
140,194,80476,1,4,3:0:0:0:
256,341,80639,6,0,B|392:347|327:242|490:253,1,252,6|0,1:2|0:0,0:0:0:0:
503,368,81774,6,0,B|466:284|466:284|501:197,1,168,6|0,1:2|1:2,0:0:0:0:
506,96,82260,2,0,P|446:89|415:122,1,84,10|0,0:0|0:0,0:0:0:0:
309,169,82585,2,0,P|346:183|405:160,1,84,2|0,1:2|1:2,0:0:0:0:
226,20,82909,2,0,L|241:122,1,84,10|0,0:0|0:0,0:0:0:0:
137,195,83233,6,0,L|145:106,1,84,2|2,1:2|1:2,0:0:0:0:
57,37,83558,1,10,0:0:0:0:
1,238,83720,2,0,P|56:180|149:207,1,168,6|2,0:0|1:2,0:0:0:0:
172,314,84206,1,10,0:0:0:0:
411,253,84368,6,0,B|310:236|340:303|217:272,1,168,6|0,1:2|1:2,0:0:0:0:
160,201,84855,2,0,P|151:158|175:108,1,84,10|0,0:0|1:2,0:0:0:0:
270,184,85179,1,10,0:0:0:0:
172,314,85341,1,8,0:0:0:0:
270,184,85503,1,4,0:0:0:0:
247,380,85666,5,6,1:2:0:0:
256,192,85747,12,0,89720,0:0:0:0:
