osu file format v14

[General]
AudioFilename: Egao no Kanata.mp3
AudioLeadIn: 0
PreviewTime: 60531
Countdown: 0
SampleSet: Soft
StackLeniency: 0.7
Mode: 0
LetterboxInBreaks: 0
WidescreenStoryboard: 0

[Editor]
DistanceSpacing: 1.4
BeatDivisor: 4
GridSize: 32
TimelineZoom: 1.9

[Metadata]
Title:Egao no Kanata (TV Size)
TitleUnicode:エガオノカナタ (TV Size)
Artist:Chiho feat. majiko
ArtistUnicode:Chiho feat. majiko
Creator:C O N N E R
Version:Frontier's Insane
Source:エガオノダイカ
Tags:牧野圭祐 宮田“レフティ”リョウ the cost price of smiles opening op anime japanese egao no daika h△g hag [_lost_] conner c_o_n_n_e_r left xHappy- P_KunG GalaxySkys_ -_frontier_- frontier shockolatte GalaxySkys
BeatmapID:2076937
BeatmapSetID:915403

[Difficulty]
HPDrainRate:6.2
CircleSize:4.2
OverallDifficulty:8.2
ApproachRate:9.2
SliderMultiplier:1.72
SliderTickRate:1

[Events]
//Background and Video events
0,0,"brontier.jpg",0,0
Video,995,"Kanata.flv"
//Break Periods
//Storyboard Layer 0 (Background)
//Storyboard Layer 1 (Fail)
//Storyboard Layer 2 (Pass)
//Storyboard Layer 3 (Foreground)
//Storyboard Layer 4 (Overlay)
//Storyboard Sound Samples

[TimingPoints]
1504,324.324324324324,4,2,1,50,1,0
1504,-142.857142857143,4,2,1,50,0,0
1828,-142.857142857143,4,2,1,30,0,0
1990,-142.857142857143,4,2,1,40,0,0
2314,-142.857142857143,4,2,1,30,0,0
2476,-142.857142857143,4,2,1,40,0,0
2801,-142.857142857143,4,2,1,30,0,0
2963,-142.857142857143,4,2,1,40,0,0
3287,-142.857142857143,4,2,1,30,0,0
3449,-142.857142857143,4,2,1,40,0,0
6044,-100,4,2,1,60,0,0
6531,-100,4,2,1,60,0,1
6612,-100,4,2,1,60,0,0
7909,-100,4,2,1,5,0,0
7990,-100,4,2,1,60,0,0
10503,-100,4,2,1,5,0,0
10585,-100,4,2,1,60,0,0
13098,-100,4,2,1,5,0,0
13179,-100,4,2,1,60,0,0
15287,-100,4,3,1,60,0,0
15612,-166.666666666667,4,2,1,50,0,0
16585,-166.666666666667,4,3,1,40,0,0
16990,-166.666666666667,4,2,1,5,0,0
17071,-166.666666666667,4,2,1,30,0,0
17152,-166.666666666667,4,2,1,30,0,0
27044,-166.666666666667,4,2,1,5,0,0
27125,-100,4,2,1,60,0,0
37828,-125,4,2,1,60,0,0
37990,-125,4,2,1,50,0,0
48125,-125,4,2,1,5,0,0
48206,-111.111111111111,4,2,1,60,0,0
51531,-111.111111111111,4,2,1,5,0,0
51612,-111.111111111111,4,2,1,60,0,0
53314,-111.111111111111,4,2,1,5,0,0
53395,-100,4,2,1,60,0,0
53720,-100,4,2,1,50,0,0
53882,-100,4,2,1,60,0,0
54206,-100,4,2,1,50,0,0
54368,-100,4,2,1,60,0,0
54693,-100,4,2,1,50,0,0
54855,-111.111111111111,4,2,1,50,0,0
55909,-111.111111111111,4,2,1,5,0,0
55990,-100,4,2,1,60,0,0
56314,-100,4,2,1,50,0,0
56476,-100,4,2,1,60,0,0
56801,-100,4,2,1,50,0,0
56963,-100,4,2,1,60,0,0
57287,-111.111111111111,4,2,1,50,0,0
58260,-142.857142857143,4,2,1,50,0,0
58503,-142.857142857143,4,2,1,5,0,0
58585,-90.9090909090909,4,2,1,70,0,0
60531,-90.9090909090909,4,2,1,30,0,0
60693,-125,4,2,1,30,0,0
60774,-125,4,2,1,30,0,0
60936,-125,4,2,1,5,0,0
61017,-83.3333333333333,4,2,1,80,0,1
61260,-83.3333333333333,4,2,1,5,0,1
61341,-83.3333333333333,4,2,1,80,0,1
62558,-83.3333333333333,4,2,1,5,0,1
62639,-83.3333333333333,4,2,1,80,0,1
68395,-83.3333333333333,4,2,1,5,0,1
68476,-83.3333333333333,4,2,1,80,0,1
69044,-83.3333333333333,4,2,1,5,0,1
69125,-83.3333333333333,4,2,1,80,0,1
69693,-83.3333333333333,4,2,1,5,0,1
69774,-83.3333333333333,4,2,1,80,0,1
70341,-83.3333333333333,4,2,1,5,0,1
70422,-83.3333333333333,4,2,1,80,0,1
71314,-83.3333333333333,4,2,1,80,0,0
71395,-83.3333333333333,4,2,1,80,0,1
71639,-83.3333333333333,4,2,1,5,0,1
71720,-83.3333333333333,4,2,1,80,0,1
72936,-83.3333333333333,4,2,1,5,0,1
73017,-83.3333333333333,4,2,1,80,0,1
75531,-83.3333333333333,4,2,1,5,0,1
75612,-83.3333333333333,4,2,1,80,0,1
80639,-200,4,2,1,80,0,1
81774,-100,4,2,1,60,0,0
83152,-100,4,2,1,5,0,0
83233,-100,4,2,1,60,0,0
84612,-100,4,2,1,60,0,0
84693,-100,4,2,1,60,0,0
85341,-100,4,3,1,60,0,0
85666,-200,4,2,1,60,0,0
85828,-200,4,2,1,55,0,0
86152,-200,4,2,1,50,0,0
86476,-200,4,2,1,45,0,0
86801,-200,4,2,1,40,0,0
87125,-200,4,2,1,35,0,0

[Colours]
Combo1 : 151,203,255
Combo2 : 255,176,176

[HitObjects]
116,317,1504,6,0,B|120:270|150:248|150:248|143:221|131:211,1,120.399996325684,2|0,0:0|0:0,0:0:0:0:
292,359,1990,2,0,B|248:340|236:305|236:305|209:303|196:312,1,120.399996325684,2|0,0:0|0:0,0:0:0:0:
387,204,2476,2,0,B|356:239|318:239|318:239|308:265|312:280,1,120.399996325684,2|0,0:0|0:0,0:0:0:0:
269,65,2963,2,0,B|293:105|282:140|282:140|303:158|318:158,1,120.399996325684,2|0,0:0|0:0,0:0:0:0:
101,136,3449,2,0,B|146:125|177:147|177:147|200:132|205:118,1,120.399996325684,2|2,0:0|0:0,0:0:0:0:
205,118,4098,6,0,P|193:182|182:247,1,120.399996325684,2|0,0:0|0:0,0:0:0:0:
119,176,4585,2,0,P|131:240|142:305,1,120.399996325684,2|0,0:0|0:0,0:0:0:0:
79,339,5071,2,0,B|204:352|170:250|308:263,1,240.799992651367,2|0,0:0|0:0,0:0:0:0:
297,262,6044,1,8,0:0:0:0:
501,328,6206,1,8,0:0:0:0:
501,328,6531,6,0,P|437:338|311:369,1,172,6|2,1:2|1:2,0:0:0:0:
362,210,7017,2,0,P|400:219|465:226,1,86,10|0,0:0|0:0,0:0:0:0:
244,384,7341,2,0,B|224:345|224:345|238:296,1,86,2|0,1:2|1:2,0:0:0:0:
223,163,7666,2,0,P|173:164|114:87,1,129,10|0,0:0|0:0,0:0:0:0:
118,111,7990,5,2,1:2:0:0:
72,229,8152,1,2,1:2:0:0:
237,157,8314,1,10,0:0:0:0:
104,96,8476,6,0,P|61:87|14:53,1,86,6|2,0:0|1:2,0:0:0:0:
190,274,8801,2,0,P|226:251|268:242,1,86,2|10,1:2|0:0,0:0:0:0:
77,384,9125,6,0,L|52:179,1,172,6|2,1:2|1:2,0:0:0:0:
268,242,9612,2,0,P|258:295|254:327,1,86,10|0,0:0|0:0,0:0:0:0:
155,165,9936,2,0,P|201:160|230:134,1,86,2|0,1:2|1:2,0:0:0:0:
452,238,10260,2,0,B|387:246|412:301|322:301,1,129,10|0,0:0|0:0,0:0:0:0:
343,299,10585,5,2,1:2:0:0:
477,233,10747,1,2,1:2:0:0:
331,163,10909,1,10,0:0:0:0:
471,54,11071,6,0,P|459:94|450:150,1,86,6|2,0:0|1:2,0:0:0:0:
367,384,11395,1,2,1:2:0:0:
347,300,11557,1,10,0:0:0:0:
169,206,11720,6,0,B|267:222|242:150|359:165,1,172,6|2,1:2|1:2,0:0:0:0:
195,99,12206,2,0,P|173:58|187:0,1,86,10|0,0:0|0:0,0:0:0:0:
155,226,12531,2,0,L|54:205,1,86,2|0,1:2|1:2,0:0:0:0:
314,249,12855,2,0,B|335:295|335:295|319:340|304:384,1,129,10|0,0:0|0:0,0:0:0:0:
309,369,13179,5,2,1:2:0:0:
256,192,13341,1,2,1:2:0:0:
487,316,13504,1,10,0:0:0:0:
433,138,13666,6,0,B|451:101|451:101|437:47,1,86,6|2,0:0|1:2,0:0:0:0:
314,249,13990,2,0,P|364:260|402:272,1,86,2|10,1:2|0:0,0:0:0:0:
289,115,14314,6,0,P|226:110|164:191,1,172,6|0,1:2|1:2,0:0:0:0:
148,173,14720,1,0,1:2:0:0:
148,173,14801,2,0,L|162:277,1,86,10|0,0:0|1:2,0:0:0:0:
33,103,15125,1,10,0:0:0:0:
251,37,15287,1,8,0:0:0:0:
169,279,15449,1,4,0:0:0:0:
151,135,15612,6,0,B|275:151|218:245|367:268,1,257.999992126465,6|0,0:0|0:0,0:0:0:0:
437,237,16585,1,8,0:0:0:0:
437,237,16747,2,0,B|443:273|443:273|416:319,1,77.3999976379395,4|0,0:0|0:0,0:0:0:0:
428,308,17071,6,0,P|328:319|272:329,2,154.799995275879,6|2|2,0:0|0:0|0:0,0:0:0:0:
128,211,19666,6,0,P|202:205|246:135,2,154.799995275879,2|2|2,0:0|0:0|0:0,0:0:0:0:
454,164,22260,6,0,P|443:99|384:131,2,154.799995275879,2|2|2,0:0|0:0|0:0,0:0:0:0:
92,342,24206,5,2,0:0:0:0:
92,342,24855,6,0,B|168:331|139:283|229:271,2,154.799995275879,2|2|2,0:0|0:0|0:0,0:0:0:0:
347,369,26801,6,0,L|356:290,1,77.3999976379395,2|0,0:0|0:0,0:0:0:0:
378,269,27125,1,8,0:0:0:0:
335,275,27206,1,8,0:0:0:0:
295,263,27287,1,8,0:0:0:0:
263,234,27368,1,8,0:0:0:0:
247,194,27449,1,6,1:2:0:0:
247,194,27774,6,0,P|263:128|277:15,1,172,10|2,0:0|0:0,0:0:0:0:
358,111,28260,2,0,B|397:117|397:117|437:92,1,86,2|8,1:2|0:0,0:0:0:0:
386,286,28585,2,0,B|294:264|345:215|231:189,1,172,2|0,0:0|1:2,0:0:0:0:
457,208,29071,2,0,P|441:266|426:386,1,172,8|0,0:0|1:2,0:0:0:0:
365,135,29558,2,0,P|407:130|451:103,1,86,2|10,1:2|0:0,0:0:0:0:
325,286,29882,6,0,B|265:274|223:244|223:244|191:255|197:305,1,172,2|0,0:0|0:0,0:0:0:0:
80,283,30368,2,0,P|98:326|106:366,1,86,10|0,0:0|0:0,0:0:0:0:
114,182,30693,1,2,0:0:0:0:
114,182,30855,2,0,B|69:183|69:183|29:144,1,86,2|8,1:2|0:0,0:0:0:0:
205,221,31179,6,0,P|235:163|346:154,1,172,2|0,0:0|1:2,0:0:0:0:
445,104,31666,2,0,P|372:88|299:29,1,129,8|8,0:0|0:0,0:0:0:0:
328,61,31990,2,0,L|333:160,1,86,2|0,1:2|1:2,0:0:0:0:
427,267,32314,2,0,L|432:181,1,86,10|0,0:0|0:0,0:0:0:0:
493,306,32639,6,0,P|429:304|351:385,1,172,2|8,1:2|0:0,0:0:0:0:
178,260,33125,1,2,0:0:0:0:
241,305,33287,2,0,P|283:296|317:261,1,86,2|0,1:2|1:2,0:0:0:0:
110,298,33612,2,0,B|92:338|92:338|105:384,1,86,10|0,0:0|0:0,0:0:0:0:
197,180,33936,6,0,P|166:139|31:129,2,172,2|10|2,1:2|0:0|1:2,0:0:0:0:
269,130,34747,1,0,1:2:0:0:
269,130,34909,2,0,P|287:79|291:17,1,86,10|0,0:0|0:0,0:0:0:0:
329,258,35233,6,0,B|397:206|397:206|481:246,1,172,6|8,1:2|0:0,0:0:0:0:
421,329,35720,1,2,0:0:0:0:
346,352,35882,2,0,P|276:339|227:329,1,86,2|0,1:2|1:2,0:0:0:0:
116,263,36206,1,8,0:0:0:0:
184,368,36368,1,0,0:0:0:0:
43,318,36531,5,2,1:2:0:0:
43,318,36693,2,0,B|33:258|33:258|51:217|51:217|41:144,1,172,8|8,0:0|3:0,0:0:0:0:
115,17,37179,5,8,3:0:0:0:
160,157,37341,1,4,3:0:0:0:
263,52,37503,5,0,1:2:0:0:
246,135,37666,1,8,0:0:0:0:
459,154,37828,6,0,P|399:121|332:113,1,137.6,6|0,1:2|0:0,0:0:0:0:
308,198,38314,1,8,0:0:0:0:
311,358,38639,1,0,1:2:0:0:
311,358,38801,2,0,P|238:348|180:314,2,137.6,2|0|0,1:2|0:0|0:0,0:0:0:0:
187,239,39612,1,2,1:2:0:0:
115,355,39774,2,0,P|76:360|31:363,1,68.8,10|0,0:0|1:2,0:0:0:0:
173,222,40098,2,0,B|191:190|191:190|186:157,1,68.8,2|0,1:2|0:0,0:0:0:0:
58,150,40422,5,2,1:2:0:0:
58,150,40585,2,0,P|64:215|73:298,1,137.6,0|10,1:2|0:0,0:0:0:0:
288,54,41233,1,0,1:2:0:0:
222,89,41395,2,0,B|151:84|172:39|90:31,1,137.6,2|0,1:2|0:0,0:0:0:0:
284,177,41882,2,0,P|317:165|368:158,1,68.8,10|0,0:0|0:0,0:0:0:0:
420,192,42206,1,0,1:2:0:0:
361,310,42368,6,0,L|354:228,1,68.8,10|8,0:0|0:0,0:0:0:0:
427,108,42693,2,0,L|432:176,1,68.8,0|0,0:0|0:0,0:0:0:0:
417,357,43017,6,0,P|358:357|268:313,1,137.6,6|0,1:2|0:0,0:0:0:0:
153,302,43503,2,0,B|167:333|167:333|155:372,1,68.8,8|2,0:0|0:0,0:0:0:0:
82,339,43828,1,0,1:2:0:0:
122,222,43990,2,0,P|179:220|237:294,1,137.6,10|0,0:0|0:0,0:0:0:0:
216,201,44476,6,0,P|202:168|204:131,1,68.8,8|2,0:0|0:0,0:0:0:0:
274,93,44801,1,0,1:0:0:0:
328,198,44963,2,0,P|322:233|316:281,1,68.8,10|0,0:0|0:0,0:0:0:0:
411,174,45287,1,2,1:2:0:0:
421,247,45449,1,2,0:0:0:0:
496,148,45612,6,0,B|419:143|449:109|361:102,1,137.6,0|0,1:2|0:0,0:0:0:0:
278,68,46098,2,0,B|295:39|295:39|290:0,1,68.8,8|0,0:0|0:0,0:0:0:0:
214,21,46422,1,2,1:2:0:0:
203,116,46585,2,0,P|270:125|333:174,1,137.6,2|2,1:2|1:2,0:0:0:0:
246,290,47071,2,0,P|241:260|234:215,2,68.8,10|2|2,0:0|0:0|0:0,0:0:0:0:
325,164,47558,2,0,P|319:197|314:231,2,68.8,8|8|4,0:0|3:0|3:0,0:0:0:0:
314,353,48044,6,0,L|269:362,1,34.4,0|0,0:0|0:0,0:0:0:0:
235,353,48206,2,0,L|320:338,1,77.3999976379395,6|2,1:2|0:0,0:0:0:0:
406,321,48531,1,2,1:2:0:0:
296,232,48693,2,0,B|274:201|274:201|282:154,1,77.3999976379395,2|0,0:0|1:2,0:0:0:0:
483,206,49017,2,0,P|445:195|399:190,1,77.3999976379395,2|10,1:2|0:0,0:0:0:0:
205,76,49341,5,10,0:0:0:0:
209,86,49422,1,8,0:0:0:0:
213,96,49503,2,0,L|318:80,1,77.3999976379395,0|2,1:2|0:0,0:0:0:0:
416,62,49828,1,2,1:2:0:0:
296,232,49990,2,0,B|274:201|274:201|282:154,1,77.3999976379395,2|4,0:0|3:0,0:0:0:0:
483,206,50314,2,0,P|445:195|399:190,1,77.3999976379395,8|4,3:0|3:0,0:0:0:0:
352,131,50639,1,0,0:0:0:0:
104,190,50801,6,0,P|66:195|29:206,1,77.3999976379395,6|0,1:2|0:0,0:0:0:0:
96,62,51125,1,2,1:2:0:0:
280,162,51287,2,0,P|262:216|248:300,1,116.099996456909,10|0,0:0|0:0,0:0:0:0:
255,275,51612,2,0,P|271:309|260:355,1,77.3999976379395,10|2,0:0|1:2,0:0:0:0:
399,234,51936,5,10,0:0:0:0:
386,235,52017,1,0,0:0:0:0:
372,227,52098,1,0,1:2:0:0:
401,151,52260,1,8,0:0:0:0:
428,323,52422,2,0,P|470:313|508:309,1,77.3999976379395,0|10,1:2|0:0,0:0:0:0:
372,227,52747,2,0,P|333:222|296:213,1,77.3999976379395,4|8,3:0|3:0,0:0:0:0:
159,344,53071,2,0,P|204:306|271:311,1,116.099996456909,4|0,3:0|0:0,0:0:0:0:
257,303,53395,6,0,B|241:261|252:226|252:226|290:191|281:139,1,172,6|0,1:2|0:0,0:0:0:0:
62,57,53882,2,0,B|106:64|131:91|131:91|143:141|190:159,1,172,6|0,1:2|0:0,0:0:0:0:
372,10,54368,2,0,B|343:45|307:53|307:53|258:37|220:69,1,172,6|0,1:2|0:0,0:0:0:0:
436,198,54855,1,10,0:0:0:0:
436,198,55017,2,0,P|409:141|327:120,1,116.099996456909,2|0,1:2|1:0,0:0:0:0:
362,120,55341,2,0,P|402:102|455:109,1,77.3999976379395,10|8,0:0|0:0,0:0:0:0:
332,240,55666,6,0,P|384:279|397:349,1,116.099996456909,4|0,3:0|0:0,0:0:0:0:
404,341,55990,6,0,B|312:321|312:321|284:353|234:343,1,172,6|0,1:2|0:0,0:0:0:0:
114,250,56476,2,0,B|178:240|220:219|220:219|261:254|250:286,1,172,6|0,1:2|0:0,0:0:0:0:
130,361,56963,2,0,B|115:269|57:311|44:216,1,172,6|0,1:2|0:0,0:0:0:0:
113,33,57449,2,0,B|166:69|166:69|147:127|130:174,1,154.799995275879,8|0,0:0|1:0,0:0:0:0:
60,102,57936,5,10,0:0:0:0:
263,62,58098,1,10,0:0:0:0:
331,108,58260,2,0,P|383:100|424:85,1,90.2999972442628,4|0,3:0|0:0,0:0:0:0:
418,87,58585,5,8,0:0:0:0:
377,286,58747,2,0,P|394:323|407:379,1,94.600002886963,8|0,0:0|0:0,0:0:0:0:
318,37,59071,5,8,0:0:0:0:
282,269,59233,2,0,P|238:288|180:293,1,94.600002886963,8|0,0:0|0:0,0:0:0:0:
86,35,59558,5,8,0:0:0:0:
247,189,59720,2,0,B|270:147|270:147|255:96,1,94.600002886963,8|0,0:0|0:0,0:0:0:0:
186,6,60044,5,8,0:0:0:0:
114,315,60206,2,0,P|58:291|12:281,1,94.600002886963,8|0,0:0|0:0,0:0:0:0:
381,178,60531,5,2,0:0:0:0:
394,195,60693,2,0,L|500:185,1,103.2,0|0,0:0|0:0,0:0:0:0:
381,178,61017,6,0,P|302:178|264:294,1,206.399993701172,6|2,1:2|1:2,0:0:0:0:
178,163,61503,2,0,B|206:115|206:115|196:53,1,103.199996850586,10|2,0:0|0:0,0:0:0:0:
47,321,61828,2,0,P|104:330|161:344,1,103.199996850586,2|2,1:2|1:2,0:0:0:0:
116,93,62152,1,10,0:0:0:0:
187,266,62314,6,0,P|108:244|32:233,1,154.799995275879,2|0,1:2|0:0,0:0:0:0:
36,237,62639,2,0,P|60:191|48:141,1,103.199996850586,2|8,1:2|0:0,0:0:0:0:
157,355,62963,1,0,0:0:0:0:
283,172,63125,1,2,1:2:0:0:
283,172,63287,2,0,P|228:162|175:144,1,103.199996850586,0|10,1:0|0:0,0:0:0:0:
306,365,63612,6,0,B|379:297|379:297|490:340,1,206.399993701172,6|2,1:2|1:2,0:0:0:0:
360,203,64098,2,0,P|337:155|350:101,1,103.199996850586,10|2,0:0|0:0,0:0:0:0:
221,279,64422,2,0,P|166:268|86:250,1,103.199996850586,2|2,1:2|1:2,0:0:0:0:
272,56,64747,1,10,0:0:0:0:
313,332,64909,6,0,B|422:338|378:251|495:250,1,206.399993701172,2|2,1:2|1:2,0:0:0:0:
221,279,65395,2,0,P|215:329|207:386,1,103.199996850586,10|0,0:0|0:0,0:0:0:0:
143,158,65720,1,2,1:2:0:0:
346,100,65882,2,0,P|352:150|360:207,1,103.199996850586,2|10,1:2|0:0,0:0:0:0:
64,96,66206,6,0,P|134:98|253:27,1,206.399993701172,6|2,1:2|1:2,0:0:0:0:
201,201,66693,1,10,0:0:0:0:
144,250,66855,2,0,P|93:235|23:226,1,103.199996850586,2|0,0:0|1:2,0:0:0:0:
316,250,67179,2,0,B|331:303|331:303|304:347,1,103.199996850586,2|10,1:2|0:0,0:0:0:0:
261,138,67503,6,0,B|370:157|345:73|461:87,1,206.399993701172,6|0,1:2|1:2,0:0:0:0:
199,32,67990,1,10,0:0:0:0:
201,201,68152,2,0,B|150:123|58:151,1,154.799995275879,2|0,1:2|0:0,0:0:0:0:
66,153,68476,2,0,P|80:100|91:47,1,103.199996850586,0|8,1:2|0:0,0:0:0:0:
156,300,68801,6,0,B|244:327|291:253,1,154.799995275879,6|0,1:2|0:0,0:0:0:0:
311,271,69125,2,0,B|336:227|336:227|325:172,1,103.199996850586,10|8,0:0|0:0,0:0:0:0:
165,101,69449,2,0,P|260:91|340:85,1,154.799995275879,6|0,1:2|0:0,0:0:0:0:
345,61,69774,2,0,P|402:64|445:29,1,103.199996850586,10|8,0:0|0:0,0:0:0:0:
438,219,70098,6,0,B|358:204|381:263|252:251,1,154.799995275879,6|0,1:2|0:0,0:0:0:0:
274,230,70422,1,2,1:2:0:0:
215,351,70585,1,10,0:0:0:0:
195,333,70666,1,0,1:0:0:0:
176,316,70747,1,0,1:2:0:0:
156,299,70828,1,0,1:0:0:0:
137,283,70909,1,8,0:0:0:0:
113,293,70990,1,8,0:0:0:0:
90,303,71071,1,8,0:0:0:0:
66,314,71152,1,8,0:0:0:0:
43,324,71233,2,0,L|65:400,1,51.599998425293,0|0,1:0|1:0,0:0:0:0:
15,168,71395,6,0,B|105:180|78:128|176:138,1,154.799995275879,6|0,1:2|0:0,0:0:0:0:
183,153,71720,1,2,1:2:0:0:
297,14,71882,2,0,B|268:57|268:57|285:110,1,103.199996850586,14|2,0:0|0:0,0:0:0:0:
379,204,72206,2,0,P|436:192|501:189,1,103.199996850586,2|2,1:2|1:2,0:0:0:0:
363,294,72531,5,10,0:0:0:0:
310,345,72693,2,0,B|218:363|176:275,1,154.799995275879,2|0,1:2|0:0,0:0:0:0:
182,284,73017,2,0,P|190:339|196:389,1,103.199996850586,2|8,1:2|0:0,0:0:0:0:
121,186,73341,1,2,0:0:0:0:
121,186,73422,1,0,0:0:0:0:
121,186,73503,2,0,P|69:190|30:156,1,103.199996850586,0|2,1:2|1:2,0:0:0:0:
239,45,73828,1,10,0:0:0:0:
303,215,73990,6,0,B|343:219|375:224|375:224|419:183|419:183|457:188|506:194,1,206.399993701172,6|0,1:2|1:2,0:0:0:0:
254,63,74476,1,10,0:0:0:0:
253,292,74639,2,0,P|159:280|124:170,1,206.399993701172,2|2,1:2|1:2,0:0:0:0:
346,137,75125,1,10,0:0:0:0:
492,192,75287,6,0,P|475:259|464:368,1,154.799995275879,6|0,1:2|0:0,0:0:0:0:
469,345,75612,2,0,P|419:372|364:360,1,103.199996850586,10|8,0:0|0:0,0:0:0:0:
215,206,75936,1,8,0:0:0:0:
215,206,76017,1,8,0:0:0:0:
215,206,76098,2,0,P|266:201|310:227,1,103.199996850586,2|8,0:0|0:0,0:0:0:0:
131,363,76422,2,0,L|118:255,1,103.199996850586,10|0,0:0|1:2,0:0:0:0:
93,34,76747,5,14,0:0:0:0:
93,34,77071,5,8,0:0:0:0:
24,277,77233,1,0,1:0:0:0:
242,145,77395,5,10,0:0:0:0:
28,290,77558,1,0,1:2:0:0:
268,328,77720,5,10,0:0:0:0:
32,303,77882,1,0,1:2:0:0:
256,134,78044,6,0,P|307:143|362:167,1,103.199996850586,10|0,0:0|0:0,0:0:0:0:
130,331,78368,2,0,P|79:322|24:298,1,103.199996850586,10|0,0:0|1:0,0:0:0:0:
385,255,78693,6,0,L|371:357,1,103.199996850586,10|0,0:0|1:2,0:0:0:0:
162,133,79017,2,0,P|145:78|172:22,1,103.199996850586,10|0,0:0|1:2,0:0:0:0:
343,37,79341,6,0,P|361:84|333:142,1,103.199996850586,14|0,0:0|0:0,0:0:0:0:
144,127,79666,5,8,0:0:0:0:
385,255,79828,1,0,1:0:0:0:
82,321,79990,5,10,0:0:0:0:
399,71,80152,1,8,0:0:0:0:
175,30,80314,5,8,3:0:0:0:
251,244,80476,1,4,3:0:0:0:
392,163,80639,6,0,B|249:132|296:252|139:226,1,258,6|0,1:2|0:0,0:0:0:0:
390,173,81774,6,0,B|287:153|250:247,1,172,6|0,1:2|1:2,0:0:0:0:
138,384,82260,2,0,B|163:349|163:349|155:296,1,86,10|0,0:0|0:0,0:0:0:0:
331,335,82585,2,0,P|378:326|440:320,1,86,2|0,1:2|1:2,0:0:0:0:
226,148,82909,2,0,P|167:137|114:196,1,129,10|0,0:0|0:0,0:0:0:0:
118,179,83233,5,2,1:2:0:0:
246,69,83395,1,2,1:2:0:0:
251,244,83558,1,10,0:0:0:0:
101,188,83720,2,0,P|86:160|100:97,1,86,6|2,0:0|1:2,0:0:0:0:
314,123,84044,2,0,P|329:151|315:214,1,86,2|10,1:2|0:0,0:0:0:0:
195,333,84368,6,0,P|101:312|30:301,1,129,6|0,1:2|0:0,0:0:0:0:
45,301,84693,1,0,1:2:0:0:
185,248,84855,2,0,B|210:212|210:212|202:163,1,86,10|0,0:0|1:2,0:0:0:0:
202,353,85179,5,10,0:0:0:0:
128,192,85341,1,8,0:0:0:0:
64,384,85503,5,4,0:0:0:0:
153,120,85666,2,0,P|156:121|510:3,1,387,6|0,1:2|0:0,0:0:0:0:
