osu file format v14

[General]
AudioFilename: Egao no Kanata.mp3
AudioLeadIn: 0
PreviewTime: 60531
Countdown: 0
SampleSet: Soft
StackLeniency: 0.7
Mode: 0
LetterboxInBreaks: 0
WidescreenStoryboard: 0

[Editor]
DistanceSpacing: 1.4
BeatDivisor: 4
GridSize: 32
TimelineZoom: 1

[Metadata]
Title:Egao no Kanata (TV Size)
TitleUnicode:エガオノカナタ (TV Size)
Artist:Chiho feat. majiko
ArtistUnicode:Chiho feat. majiko
Creator:C O N N E R
Version:Fearless
Source:エガオノダイカ
Tags:牧野圭祐 宮田“レフティ”リョウ the cost price of smiles opening op anime japanese egao no daika h△g hag [_lost_] conner c_o_n_n_e_r left xHappy- P_KunG GalaxySkys_ -_frontier_- frontier shockolatte GalaxySkys
BeatmapID:1911794
BeatmapSetID:915403

[Difficulty]
HPDrainRate:7
CircleSize:4
OverallDifficulty:8.5
ApproachRate:9.3
SliderMultiplier:1.88
SliderTickRate:1

[Events]
//Background and Video events
0,0,"BG.jpg",0,0
Video,995,"Kanata.flv"
//Break Periods
//Storyboard Layer 0 (Background)
//Storyboard Layer 1 (Fail)
//Storyboard Layer 2 (Pass)
//Storyboard Layer 3 (Foreground)
//Storyboard Layer 4 (Overlay)
//Storyboard Sound Samples

[TimingPoints]
1504,324.324324324324,4,2,1,50,1,0
1504,-142.857142857143,4,2,1,40,0,0
1828,-142.857142857143,4,2,1,30,0,0
1990,-142.857142857143,4,2,1,40,0,0
2314,-142.857142857143,4,2,1,30,0,0
2476,-142.857142857143,4,2,1,40,0,0
2801,-142.857142857143,4,2,1,30,0,0
2963,-142.857142857143,4,2,1,40,0,0
3287,-142.857142857143,4,2,1,30,0,0
3449,-142.857142857143,4,2,1,40,0,0
3612,-142.857142857143,4,2,1,30,0,0
3774,-142.857142857143,4,2,1,40,0,0
3936,-142.857142857143,4,2,1,30,0,0
4098,-142.857142857143,4,2,1,40,0,0
5963,-142.857142857143,4,2,1,5,0,0
6044,-100,4,2,1,60,0,0
6531,-100,4,2,1,60,0,1
6612,-100,4,2,1,60,0,0
15287,-100,4,3,1,60,0,0
15612,-166.666666666667,4,2,1,50,0,0
16585,-166.666666666667,4,3,1,40,0,0
16990,-166.666666666667,4,2,1,5,0,0
17071,-166.666666666667,4,2,1,30,0,0
17152,-166.666666666667,4,2,1,30,0,0
27125,-100,4,2,1,60,0,0
37990,-125,4,2,1,50,0,0
48125,-125,4,2,1,5,0,0
48206,-111.111111111111,4,2,1,60,0,0
53395,-100,4,2,1,60,0,0
53720,-100,4,2,1,50,0,0
53882,-100,4,2,1,60,0,0
54206,-100,4,2,1,50,0,0
54368,-100,4,2,1,60,0,0
54693,-100,4,2,1,50,0,0
54855,-111.111111111111,4,2,1,50,0,0
55990,-100,4,2,1,60,0,0
56314,-100,4,2,1,50,0,0
56476,-100,4,2,1,60,0,0
56801,-100,4,2,1,50,0,0
56963,-100,4,2,1,60,0,0
57287,-111.111111111111,4,2,1,50,0,0
58260,-142.857142857143,4,2,1,50,0,0
58503,-142.857142857143,4,2,1,5,0,0
58585,-90.9090909090909,4,2,1,70,0,0
60531,-200,4,2,1,30,0,0
60936,-125,4,2,1,5,0,0
61017,-83.3333333333333,4,2,1,80,0,1
61260,-83.3333333333333,4,2,1,5,0,1
61341,-83.3333333333333,4,2,1,80,0,1
63044,-83.3333333333333,4,2,1,5,0,1
63125,-83.3333333333333,4,2,1,80,0,1
69044,-83.3333333333333,4,2,1,5,0,1
69125,-83.3333333333333,4,2,1,80,0,1
69449,-71.4285714285714,4,2,1,80,0,1
69693,-71.4285714285714,4,2,1,5,0,1
69774,-71.4285714285714,4,2,1,80,0,1
70098,-62.5,4,2,1,80,0,1
70341,-83.3333333333333,4,2,1,5,0,1
70422,-83.3333333333333,4,2,1,80,0,1
70909,-66.6666666666667,4,2,1,80,0,1
71314,-83.3333333333333,4,2,1,80,0,0
71395,-83.3333333333333,4,2,1,80,0,1
71639,-83.3333333333333,4,2,1,5,0,1
71720,-83.3333333333333,4,2,1,80,0,1
75531,-83.3333333333333,4,2,1,5,0,1
75612,-83.3333333333333,4,2,1,80,0,1
76990,-83.3333333333333,4,2,1,5,0,1
77071,-83.3333333333333,4,2,1,80,0,1
79585,-83.3333333333333,4,2,1,5,0,1
79666,-83.3333333333333,4,2,1,80,0,1
80639,-200,4,2,1,80,0,1
81774,-100,4,2,1,60,0,0
84612,-100,4,2,1,5,0,0
84693,-100,4,2,1,60,0,0
85341,-100,4,3,1,60,0,0
85666,-200,4,2,1,60,0,0
85828,-200,4,2,1,55,0,0
86152,-200,4,2,1,50,0,0
86476,-200,4,2,1,45,0,0
86801,-200,4,2,1,40,0,0
87125,-200,4,2,1,35,0,0
87449,-200,4,2,1,25,0,0
87774,-200,4,2,1,15,0,0
89720,-200,4,2,1,5,0,0

[Colours]
Combo1 : 255,255,151
Combo2 : 255,128,128
Combo3 : 108,182,255
Combo4 : 190,20,50

[HitObjects]
23,184,1504,6,0,P|71:189|119:118,1,131.599995983887,2|0,0:0|0:0,0:0:0:0:
184,64,1990,2,0,P|155:103|193:180,1,131.599995983887,2|0,0:0|0:0,0:0:0:0:
208,263,2476,2,0,P|188:218|102:212,1,131.599995983887,2|0,0:0|0:0,0:0:0:0:
264,177,2963,2,0,P|312:175|413:157,1,131.599995983887,2|0,0:0|0:0,0:0:0:0:
473,209,3449,2,0,L|459:278,1,65.7999979919434,2|0,0:0|0:0,0:0:0:0:
394,161,3774,2,0,L|380:92,1,65.7999979919434,2|0,0:0|0:0,0:0:0:0:
490,195,4098,6,0,P|476:257|463:331,1,131.599995983887,2|0,0:0|0:0,0:0:0:0:
371,314,4585,2,0,B|293:308|312:358|244:362,1,131.599995983887,2|0,0:0|0:0,0:0:0:0:
182,297,5071,6,0,B|284:260|267:355|374:357|443:314|429:243|359:183|300:230|301:256,1,361.899988955689,2|0,0:0|0:0,0:0:0:0:
301,250,6044,5,8,0:0:0:0:
490,195,6206,1,8,0:0:0:0:
490,195,6531,6,0,P|446:137|318:152,1,188,6|2,1:2|1:2,0:0:0:0:
132,189,7017,2,0,B|176:206|176:206|223:200,1,94,10|0,0:0|0:0,0:0:0:0:
275,23,7341,2,0,B|239:53|239:53|221:97,1,94,2|0,1:2|1:2,0:0:0:0:
349,227,7666,2,0,B|342:180|342:180|314:143,1,94,10|0,0:0|0:0,0:0:0:0:
270,279,7990,5,2,1:2:0:0:
132,189,8152,1,2,1:2:0:0:
314,143,8314,1,10,0:0:0:0:
181,322,8476,1,6,0:0:0:0:
93,101,8639,2,0,P|141:86|187:95,1,94,2|2,1:2|1:2,0:0:0:0:
248,197,8963,1,10,0:0:0:0:
44,250,9125,6,0,P|9:204|19:70,1,188,6|2,1:2|1:2,0:0:0:0:
189,249,9612,2,0,L|184:347,1,94,10|0,0:0|0:0,0:0:0:0:
271,183,9936,2,0,L|266:85,1,94,2|0,1:2|1:2,0:0:0:0:
354,254,10260,2,0,P|404:254|446:229,1,94,10|0,0:0|0:0,0:0:0:0:
487,115,10585,5,2,1:2:0:0:
354,254,10747,1,2,1:2:0:0:
500,318,10909,1,10,0:0:0:0:
379,131,11071,1,6,0:0:0:0:
270,279,11233,2,0,B|258:325|258:325|281:386,1,94,2|2,1:2|1:2,0:0:0:0:
383,154,11558,1,10,0:0:0:0:
262,100,11720,6,0,B|159:83|198:153|72:141,1,188,6|2,1:2|1:2,0:0:0:0:
12,70,12206,2,0,P|55:50|101:55,1,94,10|0,0:0|0:0,0:0:0:0:
86,239,12531,2,0,L|72:137,1,94,2|0,1:2|1:2,0:0:0:0:
191,228,12855,2,0,L|177:330,1,94,10|0,0:0|0:0,0:0:0:0:
50,350,13179,5,2,1:2:0:0:
191,228,13341,1,2,1:2:0:0:
0,262,13503,1,10,0:0:0:0:
230,382,13666,1,6,0:0:0:0:
260,152,13828,2,0,P|219:128|173:125,1,94,2|2,1:2|1:2,0:0:0:0:
86,239,14152,1,10,0:0:0:0:
312,264,14314,6,0,P|356:217|365:130,1,141,6|0,1:2|0:0,0:0:0:0:
343,66,14639,2,0,L|288:82,1,47,0|0,1:2|1:2,0:0:0:0:
442,112,14801,2,0,B|456:61|456:61|438:11,1,94,10|0,0:0|1:2,0:0:0:0:
260,152,15125,5,10,0:0:0:0:
441,225,15287,1,8,0:0:0:0:
239,300,15449,1,4,0:0:0:0:
220,54,15612,6,0,B|373:26|293:170|478:143,1,281.999991394043,6|0,0:0|0:0,0:0:0:0:
419,32,16585,1,8,0:0:0:0:
467,160,16747,6,0,P|419:161|365:143,1,84.599997418213,4|0,0:0|0:0,0:0:0:0:
374,147,17071,6,0,P|270:140|232:199,2,169.199994836426,6|2|2,0:0|0:0|0:0,0:0:0:0:
316,333,19666,6,0,P|378:337|493:350,2,169.199994836426,2|2|2,0:0|0:0|0:0,0:0:0:0:
83,361,22260,6,0,B|71:329|51:307|51:307|64:244|58:182,2,169.199994836426,2|2|2,0:0|0:0|0:0,0:0:0:0:
235,184,24206,1,2,0:0:0:0:
375,113,24855,6,0,B|427:113|493:124|493:124|513:104|511:75,2,169.199994836426,2|2|2,0:0|0:0|0:0,0:0:0:0:
375,113,26801,2,0,P|379:144|383:169,1,56.3999982788086,2|0,0:0|0:0,0:0:0:0:
445,315,27125,1,8,0:0:0:0:
428,331,27206,1,8,0:0:0:0:
406,340,27287,1,8,0:0:0:0:
382,344,27368,1,8,0:0:0:0:
358,343,27449,6,0,P|297:268|325:166,1,188,6|10,1:2|0:0,0:0:0:0:
402,115,27936,1,2,0:0:0:0:
472,228,28098,2,0,P|421:248|375:245,1,94,2|2,0:0|1:2,0:0:0:0:
229,141,28422,2,0,P|275:141|318:159,1,94,8|2,0:0|0:0,0:0:0:0:
179,265,28747,5,0,1:2:0:0:
58,134,28909,1,0,1:2:0:0:
165,32,29071,2,0,P|187:99|157:173,1,141,8|8,0:0|0:0,0:0:0:0:
144,171,29395,2,0,P|186:144|253:148,1,94,0|2,1:2|1:2,0:0:0:0:
157,280,29720,2,0,L|59:263,1,94,10|2,0:0|0:0,0:0:0:0:
236,214,30044,6,0,B|338:208|304:282|418:268,1,188,0|10,1:2|0:0,0:0:0:0:
382,158,30531,1,0,0:0:0:0:
262,290,30693,2,0,L|275:383,1,94,2|2,0:0|1:2,0:0:0:0:
409,250,31017,2,0,B|424:202|424:202|404:154,1,94,8|2,0:0|0:0,0:0:0:0:
320,89,31341,5,0,1:2:0:0:
483,140,31503,1,0,1:2:0:0:
409,250,31666,2,0,P|365:198|377:117,1,141,8|8,0:0|0:0,0:0:0:0:
376,113,31990,2,0,P|334:112|288:81,1,94,2|0,1:2|1:2,0:0:0:0:
401,14,32314,2,0,P|443:15|489:46,1,94,10|0,0:0|0:0,0:0:0:0:
489,243,32639,6,0,L|295:226,1,188,2|8,1:2|0:0,0:0:0:0:
222,306,33125,1,2,0:0:0:0:
216,172,33287,2,0,P|271:191|295:233,1,94,2|0,1:2|1:2,0:0:0:0:
131,126,33612,2,0,P|120:69|145:28,1,94,10|0,0:0|0:0,0:0:0:0:
140,224,33936,6,0,P|97:263|48:262,1,94,2|0,1:2|1:0,0:0:0:0:
214,81,34260,1,10,0:0:0:0:
56,186,34422,1,0,1:0:0:0:
56,186,34503,1,0,1:0:0:0:
56,186,34585,2,0,B|47:90,1,94,2|0,1:2|1:2,0:0:0:0:
216,172,34909,2,0,B|210:269,1,94,10|0,0:0|0:0,0:0:0:0:
129,344,35233,6,0,P|168:303|295:300,1,188,6|8,1:2|0:0,0:0:0:0:
404,365,35720,1,2,0:0:0:0:
383,195,35882,2,0,L|365:300,1,94,2|0,1:2|1:2,0:0:0:0:
494,228,36206,2,0,B|508:181|508:181|488:127,1,94,8|0,0:0|0:0,0:0:0:0:
383,195,36531,5,2,1:2:0:0:
342,44,36693,2,0,P|394:63|418:107,1,94,8|0,0:0|0:0,0:0:0:0:
244,177,37017,1,8,3:0:0:0:
133,105,37179,2,0,L|137:-5,1,94,8|4,3:0|3:0,0:0:0:0:
247,83,37503,2,0,L|243:193,1,94,0|8,1:2|0:0,0:0:0:0:
52,86,37828,5,6,1:2:0:0:
107,256,37990,2,0,B|124:216|158:196|158:196|191:192|243:205,1,150.4,2|8,1:2|0:0,0:0:0:0:
227,201,38639,1,0,1:2:0:0:
107,256,38801,1,2,1:2:0:0:
107,256,38963,2,0,L|103:169,1,75.2,0|0,1:2|0:0,0:0:0:0:
22,220,39287,2,0,L|26:307,1,75.2,10|0,0:0|0:0,0:0:0:0:
77,369,39612,1,2,1:2:0:0:
160,367,39774,2,0,P|197:365|226:342,1,75.2,10|0,0:0|1:2,0:0:0:0:
243,253,40098,2,0,P|205:256|176:278,1,75.2,2|0,1:2|0:0,0:0:0:0:
309,321,40422,5,2,1:2:0:0:
309,321,40585,2,0,P|335:254|298:181,1,150.4,0|10,1:2|0:0,0:0:0:0:
304,186,41233,1,0,1:2:0:0:
204,225,41395,1,2,1:2:0:0:
204,225,41558,2,0,P|163:222|127:197,1,75.2,0|0,1:2|0:0,0:0:0:0:
173,71,41882,2,0,P|190:108|187:151,1,75.2,10|0,0:0|0:0,0:0:0:0:
104,120,42206,1,0,1:2:0:0:
240,27,42368,1,10,0:0:0:0:
104,120,42531,2,0,P|45:100|32:13,1,150.4,8|0,0:0|0:0,0:0:0:0:
173,71,43017,5,6,1:2:0:0:
82,224,43179,1,0,1:2:0:0:
82,224,43503,1,8,0:0:0:0:
194,154,43666,2,0,P|217:154|271:182,1,75.2,2|0,0:0|1:2,0:0:0:0:
155,272,43990,1,10,0:0:0:0:
237,337,44152,2,0,P|310:336|361:283,1,150.4,0|8,1:2|0:0,0:0:0:0:
360,125,44639,2,0,P|346:186|344:207,1,75.2,2|0,0:0|1:0,0:0:0:0:
499,195,44963,2,0,P|453:152|435:140,1,75.2,10|0,0:0|0:0,0:0:0:0:
361,283,45287,2,0,P|420:264|440:255,1,75.2,2|2,1:2|0:0,0:0:0:0:
443,144,45612,5,0,1:2:0:0:
344,198,45774,2,0,L|357:348,1,150.4,0|8,1:2|0:0,0:0:0:0:
449,218,46260,2,0,L|442:140,1,75.2,0|2,0:0|1:2,0:0:0:0:
431,313,46585,2,0,P|475:313|509:292,1,75.2,2|10,1:2|0:0,0:0:0:0:
270,212,46909,6,0,L|349:196,1,75.2,2|10,1:2|0:0,0:0:0:0:
294,58,47233,1,2,0:0:0:0:
218,131,47395,1,2,0:0:0:0:
218,131,47476,1,0,1:0:0:0:
218,131,47558,2,0,P|181:122|148:104,1,75.2,8|8,0:0|3:0,0:0:0:0:
55,32,47882,6,0,B|96:73|96:73|86:149,1,112.8,4|0,3:0|0:0,0:0:0:0:
78,140,48206,6,0,P|108:110|160:107,1,84.599997418213,6|2,1:2|0:0,0:0:0:0:
80,245,48531,2,0,B|34:248|34:248|-6:224,1,84.599997418213,2|2,1:2|0:0,0:0:0:0:
210,163,48855,1,0,1:2:0:0:
183,369,49017,1,2,1:2:0:0:
169,353,49098,1,0,1:0:0:0:
158,335,49179,1,10,0:0:0:0:
153,311,49260,1,8,0:0:0:0:
154,290,49341,1,10,0:0:0:0:
159,270,49422,1,8,0:0:0:0:
171,252,49503,6,0,L|265:264,1,84.599997418213,0|2,1:2|0:0,0:0:0:0:
354,358,49828,2,0,L|260:346,1,84.599997418213,2|2,1:2|0:0,0:0:0:0:
338,216,50152,1,4,3:0:0:0:
457,329,50314,1,8,3:0:0:0:
446,150,50476,2,0,P|433:195|430:235,1,84.599997418213,4|0,3:0|0:0,0:0:0:0:
457,329,50801,6,0,P|411:264|326:266,1,169.199994836426,6|2,1:2|1:2,0:0:0:0:
234,337,51287,1,10,0:0:0:0:
247,164,51449,1,0,1:0:0:0:
322,274,51612,1,10,0:0:0:0:
128,228,51774,1,2,1:2:0:0:
270,84,51936,1,10,0:0:0:0:
128,228,52098,6,0,P|77:218|43:191,1,84.599997418213,0|8,1:2|0:0,0:0:0:0:
140,44,52422,1,0,1:2:0:0:
257,162,52585,1,10,0:0:0:0:
257,162,52666,1,8,0:0:0:0:
257,162,52747,2,0,P|308:152|342:125,1,84.599997418213,4|8,3:0|3:0,0:0:0:0:
117,146,53071,2,0,P|113:191|133:235,1,84.599997418213,4|0,3:0|0:0,0:0:0:0:
211,330,53395,6,0,P|282:285|386:297,1,188,6|0,1:2|0:0,0:0:0:0:
488,373,53882,2,0,B|452:285|452:285|500:192,1,188,6|0,1:2|0:0,0:0:0:0:
496,70,54368,2,0,P|459:120|312:103,1,188,6|0,1:2|0:0,0:0:0:0:
268,33,54855,5,10,0:0:0:0:
341,127,55017,1,2,1:2:0:0:
178,103,55179,1,0,1:0:0:0:
165,91,55260,1,0,1:0:0:0:
152,80,55341,2,0,B|137:40|137:40|154:-6,1,84.599997418213,10|8,0:0|0:0,0:0:0:0:
262,150,55666,2,0,L|256:245,1,84.599997418213,4|0,3:0|0:0,0:0:0:0:
149,310,55990,6,0,B|61:315|61:315|19:220,1,188,6|0,1:2|0:0,0:0:0:0:
215,217,56476,2,0,B|259:302|259:302|202:374,1,188,6|0,1:2|0:0,0:0:0:0:
97,198,56962,2,0,B|134:119|134:119|240:129,1,188,6|0,1:2|0:0,0:0:0:0:
327,202,57449,5,8,0:0:0:0:
400,77,57612,2,0,P|359:87|319:102,1,84.599997418213,0|0,1:2|1:0,0:0:0:0:
502,144,57936,1,10,0:0:0:0:
307,17,58098,1,10,0:0:0:0:
415,262,58260,6,0,L|423:148,1,98.6999969879151,4|0,3:0|0:0,0:0:0:0:
423,150,58585,5,8,0:0:0:0:
224,218,58747,2,0,P|274:209|326:201,1,103.400003155518,8|0,0:0|0:0,0:0:0:0:
140,122,59071,5,8,0:0:0:0:
319,305,59233,2,0,L|327:186,1,103.400003155518,8|0,0:0|0:0,0:0:0:0:
67,281,59558,5,8,0:0:0:0:
230,114,59720,2,0,L|222:233,1,103.400003155518,8|0,0:0|0:0,0:0:0:0:
31,14,60044,5,8,0:0:0:0:
133,225,60206,2,0,L|141:106,1,103.400003155518,8|0,0:0|0:0,0:0:0:0:
67,281,60531,6,0,P|116:314|181:299,1,117.5,2|0,0:0|0:0,0:0:0:0:
195,296,61017,6,0,P|265:260|346:306,1,169.199994836426,6|0,1:2|0:0,0:0:0:0:
399,359,61341,1,2,1:2:0:0:
492,260,61503,2,0,P|506:200|487:149,1,112.799996557617,10|2,0:0|0:0,0:0:0:0:
351,82,61828,2,0,P|337:142|356:193,1,112.799996557617,2|2,1:2|1:2,0:0:0:0:
451,79,62152,1,10,0:0:0:0:
320,0,62314,6,0,B|202:-8|247:98|119:82,1,225.599993115235,2|2,1:2|1:2,0:0:0:0:
0,183,62801,2,0,P|56:175|112:213,1,112.799996557617,8|0,0:0|0:0,0:0:0:0:
171,343,63125,2,0,P|115:351|59:313,1,112.799996557617,2|0,1:2|1:0,0:0:0:0:
193,136,63449,1,10,0:0:0:0:
272,329,63612,6,0,P|347:337|434:223,1,225.599993115235,6|2,1:2|1:2,0:0:0:0:
323,102,64098,1,10,0:0:0:0:
188,257,64260,1,2,0:0:0:0:
183,7,64422,1,2,1:2:0:0:
327,240,64585,1,2,1:2:0:0:
92,161,64747,1,10,0:0:0:0:
275,0,64909,6,0,B|403:8|328:114|487:111,1,225.599993115235,2|2,1:2|1:2,0:0:0:0:
435,259,65395,2,0,P|376:252|323:219,1,112.799996557617,10|0,0:0|0:0,0:0:0:0:
201,82,65720,2,0,P|260:89|313:122,1,112.799996557617,2|2,1:2|1:2,0:0:0:0:
348,349,66044,1,10,0:0:0:0:
128,297,66206,6,0,P|202:215|314:216,1,225.599993115235,6|2,1:2|1:2,0:0:0:0:
446,355,66693,1,10,0:0:0:0:
312,216,66855,1,2,0:0:0:0:
495,117,67017,2,0,P|486:178|483:232,1,112.799996557617,0|2,1:2|1:2,0:0:0:0:
341,24,67341,1,10,0:0:0:0:
312,216,67503,6,0,P|425:204|473:109,1,225.599993115235,6|0,1:2|1:2,0:0:0:0:
341,24,67990,1,10,0:0:0:0:
216,121,68152,2,0,L|235:352,1,225.599993115235,2|0,1:2|1:2,0:0:0:0:
368,126,68639,1,8,0:0:0:0:
248,22,68801,6,0,B|156:18|202:98|72:109,1,169.199994836426,6|0,1:2|0:0,0:0:0:0:
32,97,69125,1,10,0:0:0:0:
198,184,69287,1,8,0:0:0:0:
32,97,69449,6,0,B|135:100|78:193|224:184,1,197.39999397583,6|0,1:2|0:0,0:0:0:0:
278,142,69774,1,10,0:0:0:0:
101,266,69936,1,8,0:0:0:0:
278,142,70098,6,0,B|163:148|193:254|95:268,1,225.6,6|0,1:2|0:0,0:0:0:0:
18,215,70422,1,2,1:2:0:0:
247,356,70585,1,10,0:0:0:0:
18,215,70747,1,0,1:2:0:0:
247,356,70909,6,0,P|282:351|314:322,1,70.5000026893617,8|8,0:0|0:0,0:0:0:0:
339,115,71071,2,0,P|304:120|272:149,1,70.5000026893617,8|8,0:0|0:0,0:0:0:0:
443,340,71233,2,0,P|478:335|510:306,1,70.5000026893617,0|0,1:0|1:0,0:0:0:0:
297,226,71395,6,0,B|238:262|238:262|119:240,1,169.199994836426,6|0,1:2|0:0,0:0:0:0:
84,178,71720,1,2,1:2:0:0:
227,376,71882,2,0,P|292:371|332:338,1,112.799996557617,14|2,0:0|0:0,0:0:0:0:
223,158,72206,1,2,1:2:0:0:
60,267,72368,2,0,L|75:381,1,112.799996557617,2|10,1:2|0:0,0:0:0:0:
212,300,72693,6,0,P|259:215|200:97,1,225.599993115235,2|2,1:2|1:2,0:0:0:0:
64,45,73179,2,0,P|86:99|141:114,1,112.799996557617,8|2,0:0|0:0,0:0:0:0:
263,23,73503,1,0,1:2:0:0:
177,185,73666,1,2,1:2:0:0:
143,0,73828,1,10,0:0:0:0:
333,97,73990,6,0,P|329:218|326:335,1,225.599993115235,6|0,1:2|1:2,0:0:0:0:
207,167,74476,1,10,0:0:0:0:
326,322,74639,2,0,P|380:314|420:274,1,112.799996557617,2|0,1:2|0:0,0:0:0:0:
217,178,74963,2,0,L|95:203,1,112.799996557617,2|10,1:2|0:0,0:0:0:0:
10,326,75287,6,0,B|107:310|75:385|193:363,1,169.199994836426,6|0,1:2|0:0,0:0:0:0:
228,305,75612,1,10,0:0:0:0:
28,148,75774,1,8,0:0:0:0:
228,305,75936,1,8,0:0:0:0:
231,279,76017,1,8,0:0:0:0:
235,255,76098,1,2,0:0:0:0:
10,326,76260,1,8,0:0:0:0:
128,91,76422,1,10,0:0:0:0:
115,245,76585,1,0,1:2:0:0:
0,0,76747,6,0,P|46:69|150:66,1,169.199994836426,14|0,0:0|0:0,0:0:0:0:
185,26,77071,5,8,0:0:0:0:
28,148,77233,1,0,1:0:0:0:
280,91,77395,1,10,0:0:0:0:
89,0,77558,1,0,1:2:0:0:
235,255,77720,1,10,0:0:0:0:
185,26,77882,1,0,1:2:0:0:
12,172,78044,6,0,P|72:162|108:120,1,112.799996557617,10|0,0:0|0:0,0:0:0:0:
173,340,78368,2,0,P|134:293|79:282,1,112.799996557617,10|0,0:0|1:0,0:0:0:0:
297,113,78693,2,0,P|246:128|180:141,1,112.799996557617,10|0,0:0|1:2,0:0:0:0:
450,312,79017,2,0,P|399:297|333:284,1,112.799996557617,10|0,0:0|1:2,0:0:0:0:
509,45,79341,6,0,P|460:116|375:131,1,169.199994836426,14|0,0:0|0:0,0:0:0:0:
297,113,79666,5,8,0:0:0:0:
450,312,79828,1,0,1:0:0:0:
175,151,79990,1,10,0:0:0:0:
408,0,80152,1,8,0:0:0:0:
272,358,80314,1,8,3:0:0:0:
175,151,80476,1,4,3:0:0:0:
19,222,80639,6,0,B|173:196|138:298|291:272,1,282,6|0,1:2|0:0,0:0:0:0:
347,105,81774,6,0,B|243:86|243:86|198:110|216:175,1,188,6|0,1:2|1:2,0:0:0:0:
428,168,82260,2,0,P|448:125|443:79,1,94,10|0,0:0|0:0,0:0:0:0:
298,182,82585,2,0,B|286:231|286:231|310:285,1,94,2|0,1:2|1:2,0:0:0:0:
480,258,82909,2,0,P|429:248|378:244,1,94,10|0,0:0|0:0,0:0:0:0:
252,345,83233,5,2,1:2:0:0:
298,182,83395,1,2,1:2:0:0:
159,264,83557,1,10,0:0:0:0:
351,365,83720,1,6,0:0:0:0:
324,94,83882,2,0,P|277:97|237:121,1,94,2|2,1:2|1:2,0:0:0:0:
159,264,84206,1,10,0:0:0:0:
48,128,84368,6,0,B|122:108|122:108|160:131|172:169,1,141,6|0,1:2|0:0,0:0:0:0:
240,204,84693,2,0,L|295:188,1,47,0|0,1:2|1:2,0:0:0:0:
159,264,84855,2,0,P|105:259|66:227,1,94,10|0,0:0|1:2,0:0:0:0:
237,121,85179,5,10,0:0:0:0:
159,264,85341,1,8,0:0:0:0:
179,39,85503,1,4,0:0:0:0:
361,175,85666,5,6,1:2:0:0:
256,192,85747,12,0,89720,0:0:0:0:
