osu file format v14

[General]
AudioFilename: Egao no Kanata.mp3
AudioLeadIn: 0
PreviewTime: 60531
Countdown: 0
SampleSet: Soft
StackLeniency: 0.7
Mode: 0
LetterboxInBreaks: 0
WidescreenStoryboard: 1

[Editor]
DistanceSpacing: 1
BeatDivisor: 4
GridSize: 32
TimelineZoom: 1

[Metadata]
Title:Egao no Kanata (TV Size)
TitleUnicode:エガオノカナタ (TV Size)
Artist:Chiho feat. majiko
ArtistUnicode:Chiho feat. majiko
Creator:C O N N E R
Version:ExHappy's Normal
Source:エガオノダイカ
Tags:牧野圭祐 宮田“レフティ”リョウ the cost price of smiles opening op anime japanese egao no daika h△g hag [_lost_] conner c_o_n_n_e_r left xHappy- P_KunG GalaxySkys_ -_frontier_- frontier shockolatte GalaxySkys
BeatmapID:2076936
BeatmapSetID:915403

[Difficulty]
HPDrainRate:3.5
CircleSize:3.2
OverallDifficulty:4
ApproachRate:5.5
SliderMultiplier:0.999999999999999
SliderTickRate:1

[Events]
//Background and Video events
0,0,"xHappy.jpg",0,0
Video,995,"Kanata.flv"
//Break Periods
//Storyboard Layer 0 (Background)
//Storyboard Layer 1 (Fail)
//Storyboard Layer 2 (Pass)
//Storyboard Layer 3 (Foreground)
//Storyboard Layer 4 (Overlay)
//Storyboard Sound Samples

[TimingPoints]
1504,324.324324324324,4,2,1,40,1,0
1504,-100,4,2,1,40,0,0
1828,-100,4,2,1,30,0,0
1990,-100,4,2,1,40,0,0
2314,-100,4,2,1,30,0,0
2476,-100,4,2,1,40,0,0
2801,-100,4,2,1,30,0,0
2963,-100,4,2,1,40,0,0
3287,-100,4,2,1,30,0,0
3449,-100,4,2,1,40,0,0
6044,-100,4,2,1,60,0,0
6531,-100,4,2,1,60,0,1
6612,-100,4,2,1,60,0,0
15287,-100,4,3,1,60,0,0
15612,-100,4,2,1,50,0,0
16585,-100,4,3,1,40,0,0
17071,-100,4,2,1,30,0,0
17152,-100,4,2,1,30,0,0
27125,-100,4,2,1,60,0,0
37990,-100,4,2,1,50,0,0
48206,-100,4,2,1,60,0,0
53395,-100,4,2,1,60,0,0
53720,-100,4,2,1,50,0,0
53882,-100,4,2,1,60,0,0
54206,-100,4,2,1,50,0,0
54368,-100,4,2,1,60,0,0
54693,-100,4,2,1,50,0,0
54855,-100,4,2,1,50,0,0
55990,-100,4,2,1,60,0,0
56314,-100,4,2,1,50,0,0
56476,-100,4,2,1,60,0,0
56801,-100,4,2,1,50,0,0
56963,-100,4,2,1,60,0,0
57287,-100,4,2,1,50,0,0
58260,-100,4,2,1,50,0,0
58585,-100,4,2,1,70,0,0
60531,-100,4,2,1,30,0,0
61017,-100,4,2,1,80,0,1
71314,-100,4,2,1,80,0,0
71395,-100,4,2,1,80,0,1
80639,-100,4,2,1,80,0,1
81774,-100,4,2,1,60,0,0
85341,-100,4,3,1,60,0,0
85666,-100,4,2,1,60,0,0
85828,-100,4,2,1,55,0,0
86152,-100,4,2,1,50,0,0
86476,-100,4,2,1,45,0,0
86801,-100,4,2,1,40,0,0
87125,-100,4,2,1,35,0,0
87449,-100,4,2,1,25,0,0
87774,-100,4,2,1,15,0,0
89720,-100,4,2,1,5,0,0

[Colours]
Combo1 : 18,10,188
Combo2 : 255,128,128
Combo3 : 108,182,255
Combo4 : 190,20,50

[HitObjects]
43,325,1504,6,0,P|91:328|147:300,1,99.9999999999999,2|0,0:0|0:0,0:0:0:0:
181,283,1990,2,0,L|190:173,1,99.9999999999999,2|0,0:0|0:0,0:0:0:0:
193,133,2476,1,2,0:0:0:0:
123,60,2801,1,0,0:0:0:0:
123,60,2963,2,0,P|166:35|217:35,1,99.9999999999999,2|0,0:0|0:0,0:0:0:0:
264,41,3449,1,2,0:0:0:0:
360,12,3774,1,2,0:0:0:0:
455,41,4098,6,0,P|461:89|439:143,1,99.9999999999999,2|0,0:0|0:0,0:0:0:0:
402,165,4585,2,0,L|294:160,1,99.9999999999999,2|0,0:0|0:0,0:0:0:0:
252,157,5071,2,0,P|196:177|189:308,1,200,2|0,0:0|0:0,0:0:0:0:
266,357,6044,1,8,0:0:0:0:
266,357,6206,1,8,0:0:0:0:
339,287,6531,6,0,P|393:278|439:299,1,99.9999999999999,6|2,1:2|1:2,0:0:0:0:
478,317,7017,1,10,0:0:0:0:
510,222,7341,2,0,L|502:171,1,50,2|0,1:2|1:2,0:0:0:0:
496,122,7666,1,10,0:0:0:0:
414,63,7990,1,2,1:2:0:0:
414,63,8152,2,0,L|357:68,1,50,2|10,1:2|0:0,0:0:0:0:
314,62,8476,2,0,P|274:59|222:85,1,99.9999999999999,6|2,0:0|1:2,0:0:0:0:
130,44,9125,6,0,P|121:94|137:142,1,99.9999999999999,6|2,1:2|1:2,0:0:0:0:
157,185,9612,1,10,0:0:0:0:
68,231,9936,2,0,L|64:288,1,50,2|0,1:2|1:2,0:0:0:0:
59,330,10260,1,10,0:0:0:0:
149,372,10585,2,0,L|207:368,1,50,2|2,1:2|1:2,0:0:0:0:
248,365,10909,1,10,0:0:0:0:
248,365,11071,2,0,P|299:371|349:350,1,99.9999999999999,6|2,0:0|1:2,0:0:0:0:
286,271,11720,5,6,1:2:0:0:
327,179,12044,1,2,1:2:0:0:
327,179,12206,2,0,P|276:173|226:194,1,99.9999999999999,10|2,0:0|1:2,0:0:0:0:
190,219,12693,2,0,L|123:213,1,50,0|10,1:2|0:0,0:0:0:0:
42,193,13179,2,0,P|39:160|47:127,1,50,2|2,1:2|1:2,0:0:0:0:
52,94,13503,1,10,0:0:0:0:
52,94,13666,2,0,L|168:85,1,99.9999999999999,6|2,0:0|1:2,0:0:0:0:
245,53,14314,6,0,P|302:60|334:85,1,99.9999999999999,6|0,1:2|1:2,0:0:0:0:
360,128,14801,1,10,0:0:0:0:
457,107,15125,2,0,L|457:156,1,50,10|8,0:0|0:0,0:0:0:0:
462,206,15449,1,4,0:0:0:0:
462,206,15612,1,6,0:0:0:0:
192,337,16585,1,8,0:0:0:0:
192,337,16747,1,4,0:0:0:0:
263,267,17071,6,0,B|344:260|329:306|406:300,2,150,6|2|2,0:0|0:0|0:0,0:0:0:0:
169,40,19666,6,0,B|88:33|103:79|26:73,2,150,2|2|2,0:0|0:0|0:0,0:0:0:0:
512,49,22260,6,0,P|509:132|414:189,1,200,2|0,0:0|0:0,0:0:0:0:
342,123,23233,2,0,B|231:112|248:172|150:161,1,200,2|0,0:0|0:0,0:0:0:0:
51,148,24206,1,2,0:0:0:0:
64,347,24855,6,0,P|159:334|215:253,1,200,2|0,0:0|0:0,0:0:0:0:
121,215,25828,2,0,L|129:15,1,200,2|0,0:0|0:0,0:0:0:0:
229,0,26801,1,2,0:0:0:0:
327,15,27125,2,0,L|330:64,1,50,8|8,0:0|0:0,0:0:0:0:
335,114,27449,5,6,1:2:0:0:
261,182,27774,1,10,0:0:0:0:
261,182,27936,2,0,L|258:248,1,50,2|2,0:0|0:0,0:0:0:0:
305,320,28422,1,8,0:0:0:0:
401,291,28747,2,0,L|455:288,1,50,0|0,1:2|1:2,0:0:0:0:
500,286,29071,2,0,P|483:251|482:187,1,99.9999999999999,8|0,0:0|1:2,0:0:0:0:
488,140,29558,1,2,1:2:0:0:
488,140,29720,1,10,0:0:0:0:
410,76,30044,5,0,1:2:0:0:
312,95,30368,1,10,0:0:0:0:
225,41,30693,1,2,0:0:0:0:
225,41,30855,2,0,L|156:48,1,50,2|8,1:2|0:0,0:0:0:0:
103,115,31341,1,0,1:2:0:0:
40,36,31666,2,0,P|9:74|6:135,1,99.9999999999999,8|2,0:0|1:2,0:0:0:0:
12,172,32152,1,0,1:2:0:0:
12,172,32314,1,10,0:0:0:0:
72,252,32639,6,0,P|107:235|171:234,1,99.9999999999999,2|8,1:2|0:0,0:0:0:0:
215,244,33125,1,2,0:0:0:0:
215,244,33287,2,0,L|215:296,1,50,2|0,1:2|1:2,0:0:0:0:
218,344,33612,1,10,0:0:0:0:
307,383,33936,1,2,1:2:0:0:
399,344,34260,2,0,P|416:310|413:244,1,99.9999999999999,10|2,0:0|1:2,0:0:0:0:
403,203,34747,1,0,1:2:0:0:
403,203,34909,1,10,0:0:0:0:
304,196,35233,6,0,P|263:209|201:204,1,99.9999999999999,6|8,1:2|0:0,0:0:0:0:
156,202,35720,1,2,0:0:0:0:
156,202,35882,2,0,L|155:139,1,50,2|0,1:2|1:2,0:0:0:0:
155,102,36206,1,8,0:0:0:0:
235,42,36531,1,2,1:2:0:0:
235,42,36693,2,0,P|288:37|334:53,1,99.9999999999999,8|8,0:0|3:0,0:0:0:0:
377,72,37179,1,8,3:0:0:0:
369,171,37503,1,0,1:2:0:0:
303,245,37828,6,0,P|352:267|407:265,1,99.9999999999999,6|0,1:2|0:0,0:0:0:0:
445,251,38314,1,8,0:0:0:0:
445,251,38476,1,0,0:0:0:0:
501,335,38801,1,2,1:2:0:0:
404,358,39125,2,0,L|342:356,1,50,0|8,0:0|0:0,0:0:0:0:
304,355,39449,1,0,0:0:0:0:
213,312,39774,1,10,0:0:0:0:
126,361,40098,1,2,1:2:0:0:
39,311,40422,6,0,P|16:267|22:218,1,99.9999999999999,2|2,1:2|0:2,0:0:0:0:
62,187,40909,1,10,0:0:0:0:
1,107,41233,1,0,1:2:0:0:
1,107,41395,2,0,P|45:80|95:79,1,99.9999999999999,2|0,1:2|0:0,0:0:0:0:
136,103,41882,1,10,0:0:0:0:
229,66,42206,1,0,1:2:0:0:
229,66,42368,2,0,L|294:70,1,50,10|8,0:0|0:0,0:0:0:0:
329,72,42693,1,0,0:0:0:0:
414,123,43017,6,0,P|409:163|372:212,1,99.9999999999999,6|0,1:2|0:0,0:0:0:0:
326,222,43503,1,8,0:0:0:0:
326,222,43666,1,2,0:0:0:0:
231,190,43990,2,0,P|181:184|135:202,1,99.9999999999999,10|0,0:0|0:0,0:0:0:0:
102,239,44476,1,8,0:0:0:0:
102,239,44639,1,2,0:0:0:0:
125,335,44963,1,10,0:0:0:0:
224,328,45287,2,0,L|278:333,1,50,2|2,1:2|0:0,0:0:0:0:
321,315,45612,5,0,1:2:0:0:
321,315,45774,2,0,P|368:332|424:329,1,99.9999999999999,0|8,1:2|0:0,0:0:0:0:
466,322,46260,2,0,L|473:207,1,99.9999999999999,2|0,0:0|1:0,0:0:0:0:
494,124,46909,2,0,L|487:68,2,50,2|10|2,0:0|0:0|0:0,0:0:0:0:
444,133,47395,2,0,P|394:134|352:109,1,99.9999999999999,2|2,1:2|0:0,0:0:0:0:
330,64,47882,1,4,3:0:0:0:
238,24,48206,6,0,P|186:41|134:38,1,99.9999999999999,6|2,1:2|1:2,0:0:0:0:
92,27,48693,1,2,0:0:0:0:
92,27,48855,1,0,1:2:0:0:
14,90,49179,2,0,L|18:155,1,50,10|10,0:0|0:0,0:0:0:0:
24,189,49503,2,0,P|76:172|128:175,1,99.9999999999999,0|2,1:2|1:2,0:0:0:0:
169,184,49990,1,2,0:0:0:0:
169,184,50152,1,4,3:0:0:0:
255,134,50476,1,4,3:0:0:0:
341,183,50801,6,0,P|354:136|341:90,1,99.9999999999999,6|2,1:2|1:2,0:0:0:0:
318,42,51287,2,0,L|427:37,1,99.9999999999999,2|8,0:0|0:0,0:0:0:0:
467,28,51774,2,0,P|480:58|484:81,1,50,2|8,1:2|0:0,0:0:0:0:
486,124,52098,1,0,1:2:0:0:
428,205,52422,1,0,1:2:0:0:
485,286,52747,2,0,P|445:305|387:296,1,99.9999999999999,4|4,3:0|3:0,0:0:0:0:
294,271,53395,6,0,L|140:282,1,150,6|6,1:2|1:2,0:0:0:0:
52,163,54368,2,0,P|29:114|28:64,1,99.9999999999999,6|0,1:2|0:0,0:0:0:0:
35,19,54855,2,0,P|55:5|80:0,1,50,10|2,0:0|1:2,0:0:0:0:
171,38,55341,1,10,0:0:0:0:
268,16,55666,1,4,3:0:0:0:
253,114,55990,6,0,P|240:161|271:255,1,150,6|6,1:2|1:2,0:0:0:0:
420,247,56963,2,0,P|433:294|421:342,1,99.9999999999999,6|0,1:2|0:0,0:0:0:0:
382,375,57449,1,8,0:0:0:0:
288,339,57774,1,0,1:0:0:0:
288,339,57936,2,0,L|230:343,1,50,10|10,0:0|0:0,0:0:0:0:
188,345,58260,1,4,3:0:0:0:
95,382,58585,5,8,0:0:0:0:
95,382,58747,1,8,0:0:0:0:
11,327,59071,1,8,0:0:0:0:
11,327,59233,1,8,0:0:0:0:
53,236,59558,1,8,0:0:0:0:
53,236,59720,1,8,0:0:0:0:
150,255,60044,1,8,0:0:0:0:
150,255,60206,1,8,0:0:0:0:
188,345,60531,2,0,L|237:342,1,50,2|0,0:0|0:0,0:0:0:0:
337,337,61017,6,0,P|372:307|380:251,1,99.9999999999999,6|2,1:2|1:2,0:0:0:0:
356,212,61503,1,8,0:0:0:0:
387,116,61828,2,0,L|392:62,1,50,2|2,1:2|1:2,0:0:0:0:
398,16,62152,1,10,0:0:0:0:
398,16,62314,2,0,P|349:13|298:35,1,99.9999999999999,2|2,1:2|1:2,0:0:0:0:
260,59,62801,1,8,0:0:0:0:
165,33,63125,1,2,1:2:0:0:
165,33,63287,2,0,L|112:29,1,50,0|10,1:0|0:0,0:0:0:0:
65,24,63612,6,0,P|30:60|23:107,1,99.9999999999999,6|2,1:2|1:2,0:0:0:0:
52,148,64098,1,10,0:0:0:0:
21,243,64422,2,0,L|24:292,1,50,2|2,1:2|1:2,0:0:0:0:
32,342,64747,1,10,0:0:0:0:
32,342,64909,2,0,P|79:375|143:376,1,99.9999999999999,2|2,1:2|1:2,0:0:0:0:
169,373,65395,1,10,0:0:0:0:
263,339,65720,1,2,1:2:0:0:
263,339,65882,2,0,L|261:286,1,50,2|10,1:2|0:0,0:0:0:0:
256,239,66206,6,0,P|284:215|357:212,1,99.9999999999999,6|2,1:2|1:2,0:0:0:0:
394,215,66693,1,10,0:0:0:0:
394,215,66855,1,2,0:0:0:0:
461,288,67179,2,0,L|457:338,1,50,2|10,1:2|0:0,0:0:0:0:
415,366,67503,1,6,1:2:0:0:
314,366,67828,2,0,L|250:359,1,50,0|10,1:2|0:0,0:0:0:0:
215,349,68152,2,0,P|179:376|119:381,1,99.9999999999999,2|0,1:2|1:2,0:0:0:0:
32,344,68801,6,0,P|4:306|-2:257,1,99.9999999999999,6|10,1:2|0:0,0:0:0:0:
36,223,69287,1,8,0:0:0:0:
36,223,69449,1,6,1:2:0:0:
2,128,69774,2,0,P|24:123|54:125,1,50,10|8,0:0|0:0,0:0:0:0:
100,132,70098,2,0,P|148:142|197:132,1,99.9999999999999,6|2,1:2|1:2,0:0:0:0:
245,119,70585,1,10,0:0:0:0:
245,119,70747,1,0,1:2:0:0:
316,189,71071,2,0,P|338:157|342:143,1,50,8|0,0:0|1:0,0:0:0:0:
348,97,71395,6,0,P|332:52|279:16,1,99.9999999999999,6|2,1:2|1:2,0:0:0:0:
242,16,71882,1,14,0:0:0:0:
145,43,72206,2,0,L|93:40,1,50,2|2,1:2|1:2,0:0:0:0:
45,33,72531,1,10,0:0:0:0:
45,33,72693,2,0,P|18:89|21:134,1,99.9999999999999,2|2,1:2|1:2,0:0:0:0:
32,173,73179,1,8,0:0:0:0:
1,268,73503,1,0,1:2:0:0:
1,268,73666,2,0,P|33:275|63:267,1,50,2|10,1:2|0:0,0:0:0:0:
98,261,73990,6,0,P|150:260|194:291,1,99.9999999999999,6|0,1:2|1:2,0:0:0:0:
229,314,74476,1,10,0:2:0:0:
229,314,74639,1,2,1:2:0:0:
305,249,74963,2,0,L|295:192,1,50,2|10,1:2|0:2,0:0:0:0:
251,176,75287,1,6,1:2:0:0:
315,99,75612,1,10,0:0:0:0:
315,99,75774,2,0,L|376:97,1,50,8|8,0:0|0:0,0:0:0:0:
403,64,76098,2,0,L|464:66,1,50,2|8,0:0|0:0,0:0:0:0:
499,85,76422,1,10,0:0:0:0:
469,180,76747,6,0,P|463:229|469:278,1,99.9999999999999,14|8,0:0|0:0,0:0:0:0:
404,355,77395,2,0,L|354:352,1,50,10|0,0:0|1:2,0:0:0:0:
307,333,77720,2,0,L|257:336,1,50,10|0,0:0|1:2,0:0:0:0:
210,353,78044,1,10,0:0:0:0:
164,264,78368,1,10,0:0:0:0:
224,184,78693,2,0,P|231:156|231:128,1,50,10|0,0:0|1:2,0:0:0:0:
199,96,79017,2,0,P|192:68|192:40,1,50,10|0,0:0|1:2,0:0:0:0:
155,11,79341,6,0,P|121:33|45:36,1,99.9999999999999,14|8,0:0|0:0,0:0:0:0:
12,34,79828,1,0,1:0:0:0:
12,34,79990,2,0,L|9:89,1,50,10|8,0:0|0:0,0:0:0:0:
33,126,80314,2,0,L|36:181,1,50,8|4,3:0|3:0,0:0:0:0:
41,225,80639,1,6,1:2:0:0:
327,24,81774,6,0,L|323:124,1,99.9999999999999,6|0,1:2|1:2,0:0:0:0:
322,173,82260,1,10,0:0:0:0:
379,254,82584,2,0,P|363:267|329:275,1,50,2|0,1:2|1:2,0:0:0:0:
284,278,82909,1,10,0:0:0:0:
195,232,83233,1,2,1:2:0:0:
195,232,83395,2,0,P|183:255|182:286,1,50,2|10,1:2|0:0,0:0:0:0:
182,328,83720,2,0,L|61:322,1,99.9999999999999,6|2,0:0|1:2,0:0:0:0:
7,254,84368,6,0,P|-3:206|7:158,1,99.9999999999999,6|0,1:2|1:2,0:0:0:0:
43,122,84855,1,10,0:0:0:0:
142,135,85179,2,0,L|191:135,1,50,10|8,0:0|0:0,0:0:0:0:
241,135,85503,1,4,0:0:0:0:
241,135,85666,1,6,1:2:0:0:
256,192,85828,12,0,89720,0:0:0:0:
