osu file format v14

[General]
AudioFilename: Egao no Kanata.mp3
AudioLeadIn: 0
PreviewTime: 60531
Countdown: 0
SampleSet: Soft
StackLeniency: 0.7
Mode: 0
LetterboxInBreaks: 0
WidescreenStoryboard: 1

[Editor]
DistanceSpacing: 1
BeatDivisor: 4
GridSize: 32
TimelineZoom: 1

[Metadata]
Title:Egao no Kanata (TV Size)
TitleUnicode:エガオノカナタ (TV Size)
Artist:Chiho feat. majiko
ArtistUnicode:Chiho feat. majiko
Creator:C O N N E R
Version:ExHappy's Easy
Source:エガオノダイカ
Tags:牧野圭祐 宮田“レフティ”リョウ the cost price of smiles opening op anime japanese egao no daika h△g hag [_lost_] conner c_o_n_n_e_r left xHappy- P_KunG GalaxySkys_ -_frontier_- frontier shockolatte GalaxySkys
BeatmapID:2076935
BeatmapSetID:915403

[Difficulty]
HPDrainRate:2
CircleSize:3
OverallDifficulty:2
ApproachRate:3
SliderMultiplier:0.799999999999999
SliderTickRate:1

[Events]
//Background and Video events
Video,995,"Kanata.flv"
0,0,"xHappy.jpg",0,0
//Break Periods
//Storyboard Layer 0 (Background)
//Storyboard Layer 1 (Fail)
//Storyboard Layer 2 (Pass)
//Storyboard Layer 3 (Foreground)
//Storyboard Layer 4 (Overlay)
//Storyboard Sound Samples

[TimingPoints]
1504,324.324324324324,4,2,1,40,1,0
1504,-100,4,2,1,40,0,0
6044,-100,4,2,1,60,0,0
6531,-100,4,2,1,60,0,1
6612,-100,4,2,1,60,0,0
15612,-100,4,2,1,50,0,0
17071,-100,4,2,1,30,0,0
17152,-100,4,2,1,30,0,0
27125,-100,4,2,1,60,0,0
37990,-100,4,2,1,50,0,0
48206,-100,4,2,1,60,0,0
53395,-100,4,2,1,60,0,0
54855,-100,4,2,1,50,0,0
55990,-100,4,2,1,60,0,0
57449,-100,4,2,1,50,0,0
58585,-100,4,2,1,70,0,0
60531,-100,4,2,1,30,0,0
61017,-100,4,2,1,80,0,1
71314,-100,4,2,1,80,0,0
71395,-100,4,2,1,80,0,1
81774,-100,4,2,1,60,0,0
85828,-100,4,2,1,55,0,0
86152,-100,4,2,1,50,0,0
86476,-100,4,2,1,45,0,0
86801,-100,4,2,1,40,0,0
87125,-100,4,2,1,35,0,0
87449,-100,4,2,1,25,0,0
87774,-100,4,2,1,15,0,0
89720,-100,4,2,1,5,0,0

[Colours]
Combo1 : 18,10,188
Combo2 : 255,128,128
Combo3 : 108,182,255
Combo4 : 190,20,50

[HitObjects]
461,284,1504,6,0,P|401:328|349:332,2,120,2|2|2,0:0|0:0|0:0,0:0:0:0:
367,210,2963,1,2,0:0:0:0:
461,135,3449,2,0,P|430:106|396:94,1,79.9999999999999,2|2,0:0|0:0,0:0:0:0:
319,117,4098,6,0,P|261:125|212:94,1,120,2|2,0:0|0:0,0:0:0:0:
108,154,5071,2,0,P|155:190|159:290,1,160,2|0,0:0|0:0,0:0:0:0:
141,363,6044,1,8,0:0:0:0:
261,374,6531,6,0,P|308:370|371:315,1,120,6|10,1:2|0:0,0:0:0:0:
420,269,7341,1,2,1:2:0:0:
376,202,7666,1,10,0:0:0:0:
443,159,7990,2,0,P|397:124|338:133,1,120,2|6,1:2|0:0,0:0:0:0:
265,163,8801,1,2,1:2:0:0:
208,109,9125,6,0,P|186:163|207:217,1,120,6|10,1:2|0:0,0:0:0:0:
261,277,9936,1,2,1:2:0:0:
230,351,10260,1,10,0:0:0:0:
151,341,10585,2,0,L|33:323,1,120,2|6,1:2|0:0,0:0:0:0:
1,250,11395,1,2,1:2:0:0:
41,181,11720,6,0,P|99:169|139:120,1,120,6|10,1:2|0:0,0:0:0:0:
145,45,12531,1,2,1:2:0:0:
218,13,12855,1,10,0:0:0:0:
292,45,13179,2,0,P|309:103|302:162,1,120,2|6,1:2|0:0,0:0:0:0:
288,241,13990,1,2,1:2:0:0:
222,287,14314,6,0,P|270:319|330:308,1,120,6|10,1:2|0:0,0:0:0:0:
402,277,15125,2,0,L|398:158,1,120,10|6,0:0|0:0,0:0:0:0:
56,45,17071,6,0,L|62:174,2,120,6|2|2,0:0|0:0|0:0,0:0:0:0:
419,211,19666,6,0,L|425:82,2,120,2|2|2,0:0|0:0|0:0,0:0:0:0:
27,286,22260,6,0,B|162:275|130:355|254:341,1,240,2|2,0:0|0:0,0:0:0:0:
492,324,24206,1,2,0:0:0:0:
422,179,24855,6,0,B|406:100|439:42|439:42|396:19|340:28,1,240,2|2,0:0|0:0,0:0:0:0:
103,40,26801,1,2,0:0:0:0:
78,116,27125,1,8,0:0:0:0:
123,182,27449,6,0,P|137:230|132:270,1,79.9999999999999,6|10,1:2|0:0,0:0:0:0:
82,319,28098,2,0,P|126:338|163:333,1,79.9999999999999,2|8,0:0|0:0,0:0:0:0:
236,321,28747,2,0,L|228:157,1,160,0|0,1:2|1:2,0:0:0:0:
278,99,29720,1,10,0:0:0:0:
227,38,30044,6,0,P|289:19|356:81,1,160,0|2,1:2|0:0,0:0:0:0:
418,128,31017,1,8,0:0:0:0:
394,205,31341,2,0,L|376:369,1,160,0|2,1:2|1:2,0:0:0:0:
300,341,32314,1,10,0:0:0:0:
224,367,32639,6,0,P|185:371|149:355,1,79.9999999999999,2|8,1:2|0:0,0:0:0:0:
91,300,33287,1,2,1:2:0:0:
122,226,33612,1,10,0:0:0:0:
91,153,33936,2,0,P|83:115|91:76,1,79.9999999999999,2|10,1:2|0:0,0:0:0:0:
134,8,34585,1,2,1:2:0:0:
211,31,34909,1,10,0:0:0:0:
291,20,35233,6,0,P|287:66|262:94,1,79.9999999999999,6|8,1:2|0:0,0:0:0:0:
215,153,35882,2,0,P|292:158|333:224,1,160,2|2,1:2|1:2,0:0:0:0:
203,318,37179,1,8,3:0:0:0:
360,353,37828,6,0,P|427:343|484:274,1,160,6|0,1:2|0:0,0:0:0:0:
448,204,38801,1,2,1:2:0:0:
488,135,39125,2,0,P|492:92|479:48,1,79.9999999999999,0|0,0:0|0:0,0:0:0:0:
417,13,39774,2,0,L|321:21,1,79.9999999999999,10|2,0:0|1:2,0:0:0:0:
258,23,40422,6,0,P|210:40|187:148,1,160,2|0,1:2|0:0,0:0:0:0:
194,217,41395,2,0,L|25:206,1,160,2|0,1:2|0:0,0:0:0:0:
6,282,42368,1,10,0:0:0:0:
60,342,42693,1,0,0:0:0:0:
138,324,43017,6,0,L|309:313,1,160,6|2,1:2|0:0,0:0:0:0:
365,358,43990,1,10,0:0:0:0:
431,313,44314,2,0,P|451:277|450:226,1,79.9999999999999,0|2,0:0|0:0,0:0:0:0:
413,170,44963,2,0,L|333:173,1,79.9999999999999,10|2,0:0|1:2,0:0:0:0:
265,215,45612,6,0,B|178:217|211:165|113:167,1,160,0|0,1:2|0:0,0:0:0:0:
60,224,46585,1,2,1:2:0:0:
2,170,46909,2,0,P|-1:131|12:93,1,79.9999999999999,2|2,1:2|0:0,0:0:0:0:
66,35,47558,1,8,0:0:0:0:
141,64,47882,1,4,3:0:0:0:
215,33,48206,6,0,L|295:39,1,79.9999999999999,6|2,1:2|1:2,0:0:0:0:
355,93,48855,2,0,L|435:87,1,79.9999999999999,0|10,1:2|0:0,0:0:0:0:
499,39,49503,2,0,P|514:77|509:118,1,79.9999999999999,0|2,1:2|1:2,0:0:0:0:
474,187,50152,1,4,3:0:0:0:
502,262,50476,1,4,3:0:0:0:
437,309,50801,6,0,P|399:321|355:315,1,79.9999999999999,6|2,1:2|1:2,0:0:0:0:
284,293,51449,2,0,L|288:213,1,79.9999999999999,0|2,1:0|1:2,0:0:0:0:
334,148,52098,2,0,P|295:134|252:142,1,79.9999999999999,0|0,1:2|1:2,0:0:0:0:
187,177,52747,1,4,3:0:0:0:
117,140,53071,1,4,3:0:0:0:
47,178,53395,6,0,P|38:121|71:72,1,120,6|6,1:2|1:2,0:0:0:0:
186,38,54368,1,6,1:2:0:0:
302,72,54855,2,0,P|336:121|326:179,1,120,10|10,0:0|0:0,0:0:0:0:
282,245,55666,1,4,3:0:0:0:
322,315,55990,6,0,L|442:312,1,120,6|6,1:2|1:2,0:0:0:0:
504,208,56963,1,6,1:2:0:0:
442,106,57449,2,0,L|323:103,1,120,8|10,0:0|0:0,0:0:0:0:
256,147,58260,1,4,3:0:0:0:
183,112,58585,6,0,B|158:189|218:190|188:274,1,160,8|8,0:0|0:0,0:0:0:0:
262,299,59558,2,0,P|212:344|127:318,1,160,8|8,0:0|0:0,0:0:0:0:
67,272,60531,1,2,0:0:0:0:
0,172,61017,6,0,P|-4:112|35:52,1,120,6|10,1:2|0:0,0:0:0:0:
90,15,61828,2,0,L|213:23,1,120,2|2,1:2|1:2,0:0:0:0:
289,29,62639,1,2,1:2:0:0:
406,6,63125,2,0,P|442:56|444:115,1,120,2|6,1:2|1:2,0:0:0:0:
397,223,64098,5,10,0:0:0:0:
332,269,64422,2,0,L|200:262,1,120,2|2,1:2|1:2,0:0:0:0:
92,255,65395,1,10,0:0:0:0:
49,323,65720,2,0,P|18:282|24:214,1,120,2|6,1:2|1:2,0:0:0:0:
62,146,66531,5,2,1:2:0:0:
135,176,66855,2,0,P|174:181|213:171,1,79.9999999999999,2|2,0:0|1:2,0:0:0:0:
281,129,67503,2,0,P|351:96|428:114,1,160,6|2,1:2|1:2,0:0:0:0:
495,157,68476,1,0,1:2:0:0:
490,237,68801,6,0,L|401:234,1,79.9999999999999,6|10,1:2|0:0,0:0:0:0:
347,283,69449,2,0,P|309:293|269:290,1,79.9999999999999,6|10,1:2|0:0,0:0:0:0:
190,276,70098,2,0,L|194:151,1,120,6|10,1:2|0:0,0:0:0:0:
195,76,70909,2,0,P|138:53|80:58,1,120,8|6,0:0|1:2,0:0:0:0:
17,160,71882,5,14,0:0:0:0:
0,238,72206,2,0,P|-2:279|39:350,1,120,2|2,1:2|1:2,0:0:0:0:
110,372,73017,2,0,L|208:366,1,79.9999999999999,2|2,1:2|0:0,0:0:0:0:
262,333,73666,2,0,P|268:293|263:253,1,79.9999999999999,2|6,1:2|1:2,0:0:0:0:
154,204,74476,6,0,P|170:152|237:119,1,120,10|2,0:0|1:2,0:0:0:0:
300,144,75287,2,0,L|432:143,1,120,6|8,1:2|0:0,0:0:0:0:
481,91,76098,2,0,P|497:129|494:173,1,79.9999999999999,2|10,0:0|0:0,0:0:0:0:
474,244,76747,6,0,L|383:241,1,79.9999999999999,14|8,0:0|0:0,0:0:0:0:
321,275,77395,1,10,0:0:0:0:
251,234,77720,1,10,0:0:0:0:
181,274,78044,2,0,P|171:238|185:188,1,79.9999999999999,10|10,0:0|0:0,0:0:0:0:
211,123,78693,1,10,0:0:0:0:
176,50,79017,1,10,0:0:0:0:
96,41,79341,6,0,P|48:34|14:47,1,79.9999999999999,14|8,0:0|0:0,0:0:0:0:
60,112,79990,2,0,P|38:144|34:184,1,79.9999999999999,10|8,0:0|3:0,0:0:0:0:
42,263,80639,1,6,1:2:0:0:
319,299,81774,6,0,P|358:254|357:194,1,120,6|10,1:2|0:0,0:0:0:0:
316,128,82585,1,2,1:2:0:0:
370,70,82909,1,10,0:0:0:0:
446,96,83233,2,0,P|480:136|491:213,1,120,2|6,1:2|0:0,0:0:0:0:
467,277,84044,1,2,1:2:0:0:
503,349,84368,6,0,P|452:356|398:319,1,120,6|10,1:2|0:0,0:0:0:0:
321,300,85179,2,0,P|263:305|219:344,1,120,10|6,0:0|1:2,0:0:0:0:
256,192,85828,12,0,89720,0:0:0:0:
