osu file format v14

[General]
AudioFilename: audio.mp3
AudioLeadIn: 0
PreviewTime: 316
Countdown: 0
SampleSet: Soft
StackLeniency: 0.2
Mode: 0
LetterboxInBreaks: 0
WidescreenStoryboard: 0

[Editor]
DistanceSpacing: 1
BeatDivisor: 4
GridSize: 32
TimelineZoom: 0.8999999

[Metadata]
Title:Mika Ranman no Utage nite
TitleUnicode:美歌爛漫ノ宴ニテ
Artist:Chihara Minori
ArtistUnicode:茅原実里
Creator:Mordred
Version:Normal
Source:
Tags:amy エイミー lasse japanese pop
BeatmapID:2408239
BeatmapSetID:1152086

[Difficulty]
HPDrainRate:4
CircleSize:3
OverallDifficulty:4
ApproachRate:5.5
SliderMultiplier:1.1
SliderTickRate:1

[Events]
//Background and Video events
0,0,"293132.jpg",0,0
//Break Periods
2,175818,181500
2,191374,197267
//Storyboard Layer 0 (Background)
//Storyboard Layer 1 (Fail)
//Storyboard Layer 2 (Pass)
//Storyboard Layer 3 (Foreground)
//Storyboard Layer 4 (Overlay)
//Storyboard Sound Samples

[TimingPoints]
436,437.956204379562,4,2,3,60,1,0
3939,-100,4,2,1,70,0,0
4596,-100,4,2,1,60,0,0
5691,-100,4,2,1,70,0,0
6348,-100,4,2,1,60,0,0
7388,-100,4,2,1,5,0,0
7443,-100,4,2,1,70,0,0
8100,-100,4,2,1,60,0,0
9195,-100,4,2,1,70,0,0
10946,-100,4,2,1,70,0,0
16202,-100,4,2,1,70,0,0
17516,-100,4,2,1,80,0,0
17954,-100,4,2,1,90,0,1
31968,-100,4,2,1,70,0,0
35472,-100,4,2,1,60,0,0
38976,-100,4,2,1,60,0,0
40946,-100,4,2,1,80,0,0
41165,-100,4,2,1,5,0,0
41274,-100,4,2,1,80,0,0
41494,-100,4,2,1,5,0,0
41603,-100,4,2,1,80,0,0
41822,-100,4,2,1,5,0,0
41931,-100,4,2,1,80,0,0
42151,-100,4,2,1,5,0,0
42260,-100,4,2,1,80,0,0
42479,-100,4,2,1,70,0,0
44450,-100,4,2,1,5,0,0
44560,-100,4,2,1,70,0,0
44779,-100,4,2,1,5,0,0
44888,-100,4,2,1,70,0,0
45983,-100,4,2,1,70,0,0
47735,-100,4,2,1,60,0,0
48392,-100,4,2,1,70,0,0
49049,-100,4,2,1,80,0,0
49706,-100,4,2,1,90,0,0
50363,-100,4,2,1,70,0,0
50691,-100,4,2,1,5,0,0
50800,-100,4,2,1,70,0,0
51129,-100,4,2,1,5,0,0
51457,-100,4,2,1,80,0,0
51676,-100,4,2,1,5,0,0
51785,-100,4,2,1,80,0,0
52005,-100,4,2,1,5,0,0
52114,-100,4,2,1,80,0,0
52333,-100,4,2,1,5,0,0
52442,-100,4,2,1,80,0,0
52662,-100,4,2,1,5,0,0
52771,-100,4,2,1,80,0,0
54085,-100,4,2,3,80,0,0
54523,-100,4,2,1,60,0,0
54742,-100,4,2,1,70,0,0
56713,-100,4,2,4,70,0,0
58246,-100,4,2,1,70,0,0
59998,-100,4,2,1,70,0,0
61749,-100,4,2,1,80,0,0
62844,-100,4,2,1,70,0,0
63063,-100,4,2,2,70,0,0
63501,-100,4,2,1,80,0,0
64596,-100,4,2,1,70,0,0
64815,-100,4,2,2,70,0,0
65253,-100,4,2,1,70,0,0
70290,-100,4,2,1,80,0,0
71822,-100,4,2,5,80,0,0
72041,-100,4,2,1,80,0,0
72260,-100,4,2,1,90,0,1
86275,-100,4,2,1,80,0,0
87151,-100,4,2,1,70,0,0
88027,-100,4,2,1,60,0,0
89286,-100,4,2,1,5,0,0
89341,-100,4,2,1,70,0,0
90654,-100,4,2,1,80,0,0
91384,-100,4,2,1,70,0,0
93282,-100,4,2,1,70,0,0
93939,-100,4,2,1,60,0,0
95034,-100,4,2,1,70,0,0
95691,-100,4,2,1,60,0,0
96731,-100,4,2,1,5,0,0
96786,-100,4,2,1,70,0,0
97443,-100,4,2,1,60,0,0
98538,-100,4,2,1,70,0,0
100290,-100,4,2,1,70,0,0
105545,-100,4,2,1,70,0,0
106859,-100,4,2,1,80,0,0
107297,-100,4,2,1,90,0,1
121311,-100,4,2,1,70,0,0
124815,-100,4,2,1,40,0,0
125034,-100,4,2,1,50,0,0
125144,-100,4,2,1,55,0,0
125253,-100,4,2,1,60,0,0
125363,-100,4,2,1,65,0,0
125472,-100,4,2,1,70,0,0
125581,-100,4,2,1,75,0,0
125691,-100,4,2,1,80,0,0
125800,-100,4,2,1,5,0,0
125910,-100,4,2,1,70,0,0
126786,-100,4,2,1,50,0,0
126896,-100,4,2,1,55,0,0
127005,-100,4,2,1,60,0,0
127115,-100,4,2,1,65,0,0
127224,-100,4,2,1,70,0,0
127333,-100,4,2,1,75,0,0
127443,-100,4,2,1,80,0,0
127552,-100,4,2,1,5,0,0
127662,-100,4,2,1,70,0,0
128319,-100,4,2,1,70,0,0
128921,-100,4,2,1,5,0,0
128976,-100,4,2,1,70,0,0
130290,-100,4,2,1,80,0,0
130508,-100,4,2,1,5,0,0
130617,-100,4,2,1,80,0,0
130837,-100,4,2,1,5,0,0
130946,-100,4,2,1,80,0,0
131165,-100,4,2,1,5,0,0
131274,-100,4,2,1,80,0,0
131494,-100,4,2,1,5,0,0
131603,-100,4,2,1,80,0,0
131822,-100,4,2,1,70,0,0
137078,-100,4,2,1,60,0,0
137735,-100,4,2,1,70,0,0
138392,-100,4,2,1,80,0,0
139049,-100,4,2,1,90,0,0
139706,-100,4,2,1,70,0,0
140034,-100,4,2,1,5,0,0
140144,-100,4,2,1,70,0,0
140472,-100,4,2,1,5,0,0
140800,-100,4,2,1,80,0,0
141019,-100,4,2,1,5,0,0
141128,-100,4,2,1,80,0,0
141348,-100,4,2,1,5,0,0
141457,-100,4,2,1,80,0,0
141676,-100,4,2,1,5,0,0
141785,-100,4,2,1,80,0,0
142005,-100,4,2,1,5,0,0
142114,-100,4,2,1,80,0,0
143428,-100,4,2,3,80,0,0
143866,-100,4,2,1,60,0,0
144085,-100,4,2,1,70,0,0
146056,-100,4,2,4,70,0,0
147589,-100,4,2,1,70,0,0
149341,-100,4,2,1,70,0,0
151092,-100,4,2,1,80,0,0
152187,-100,4,2,1,70,0,0
152406,-100,4,2,2,70,0,0
152844,-100,4,2,1,80,0,0
153939,-100,4,2,1,70,0,0
154158,-100,4,2,2,70,0,0
154596,-100,4,2,1,70,0,0
159633,-100,4,2,1,80,0,0
161165,-100,4,2,5,80,0,0
161384,-100,4,2,1,80,0,0
161603,-100,4,2,1,90,0,1
175618,-100,4,2,1,70,0,0
181530,-100,4,2,4,70,0,0
182625,-100,4,2,1,70,0,0
183063,-100,4,2,1,75,0,0
183501,-100,4,2,1,80,0,0
183939,-100,4,2,1,85,0,0
184377,-100,4,2,1,90,0,0
184815,-100,4,2,1,85,0,0
185253,-100,4,2,1,80,0,0
185691,-100,4,2,1,75,0,0
186129,-100,4,2,1,70,0,0
187881,-100,4,2,4,80,0,0
198392,-100,4,2,1,70,0,0
199268,-100,4,2,1,80,0,0
199925,-100,4,2,1,70,0,0
201019,-100,4,2,1,80,0,0
201676,-100,4,2,1,70,0,0
203428,-100,4,2,1,75,0,0
204523,-100,4,2,1,80,0,0
205399,-100,4,2,1,90,0,1
219414,-100,4,2,1,80,0,0
220290,-100,4,2,1,70,0,0
221165,-100,4,2,1,60,0,0
222425,-100,4,2,1,5,0,0
222479,-100,4,2,1,70,0,0
223793,-100,4,2,1,80,0,0
224523,-100,4,2,1,70,0,0
227078,-100,4,2,1,60,0,0
228173,-100,4,2,1,70,0,0
228830,-100,4,2,1,60,0,0
229870,-100,4,2,1,5,0,0
229925,-100,4,2,1,70,0,0
230581,-100,4,2,1,60,0,0
231676,-100,4,2,1,70,0,0
233428,-100,4,2,1,70,0,0
238684,-100,4,2,1,80,0,0
239779,-100,4,2,1,90,0,1
239888,-100,4,2,1,70,0,0
239998,-100,4,2,1,90,0,1
240107,-100,4,2,1,5,0,0
241311,-100,4,2,1,5,0,0

[Colours]
Combo1 : 250,180,240
Combo2 : 120,200,230
Combo3 : 255,230,130
Combo4 : 160,230,150

[HitObjects]
84,239,3939,5,14,1:2:0:0:
84,239,4158,1,14,1:2:0:0:
84,239,4377,1,14,1:2:0:0:
382,317,5691,5,14,1:2:0:0:
382,317,5910,1,14,1:2:0:0:
382,317,6129,1,14,1:2:0:0:
301,19,7443,5,14,1:2:0:0:
301,19,7662,1,14,1:2:0:0:
301,19,7881,1,14,1:2:0:0:
33,253,9195,5,6,1:1:0:0:
33,253,10071,1,6,1:1:0:0:
257,342,10946,5,14,1:2:0:0:
257,342,11165,1,14,1:2:0:0:
257,342,11384,1,14,1:2:0:0:
357,297,11822,2,0,L|449:310,2,82.5,8|8|8,0:2|0:2|0:2,0:0:0:0:
333,265,12698,1,14,1:2:0:0:
333,265,12917,1,14,1:2:0:0:
333,265,13136,1,14,1:2:0:0:
396,174,13574,2,0,L|488:161,2,82.5,8|8|8,0:2|0:2|0:2,0:0:0:0:
367,138,14450,1,14,1:2:0:0:
367,138,14669,1,14,1:2:0:0:
367,138,14888,1,14,1:2:0:0:
297,52,15326,2,0,B|257:45|257:45|201:57,1,82.5,8|8,0:2|0:2,0:0:0:0:
184,132,15983,1,8,0:2:0:0:
184,132,16202,6,0,P|153:179|63:144,1,165,6|8,1:1|0:2,0:0:0:0:
32,102,17078,2,0,L|49:271,1,165,10|8,0:2|0:2,0:0:0:0:
17,311,17954,5,6,1:1:0:0:
110,368,18392,1,10,0:2:0:0:
221,307,18830,1,2,1:2:0:0:
323,372,19268,1,10,0:2:0:0:
442,352,19706,2,0,L|452:289,1,55,2|2,1:2|0:2,0:0:0:0:
398,266,20144,2,0,L|388:203,1,55,10|2,0:2|0:2,0:0:0:0:
435,173,20581,2,0,L|445:110,1,55,2|2,1:2|0:2,0:0:0:0:
393,84,21019,2,0,L|383:21,1,55,10|2,0:2|0:2,0:0:0:0:
329,4,21457,5,2,1:2:0:0:
261,104,21895,1,10,0:2:0:0:
159,38,22333,1,2,1:2:0:0:
74,124,22771,1,10,0:2:0:0:
122,234,23209,2,0,L|187:225,1,55,4|2,1:2|0:1,0:0:0:0:
224,263,23647,2,0,L|289:254,1,55,4|2,1:2|0:2,0:0:0:0:
326,217,24085,2,0,L|342:118,2,82.5,0|0|2,1:2|1:2|1:2,0:0:0:0:
372,256,24961,5,6,1:2:0:0:
460,173,25399,1,10,0:2:0:0:
490,290,25837,1,2,1:2:0:0:
405,377,26275,1,10,0:2:0:0:
284,366,26713,2,0,L|274:303,1,55,2|2,1:2|0:2,0:0:0:0:
231,270,27151,2,0,L|168:280,1,55,10|2,0:2|0:2,0:0:0:0:
140,327,27589,2,0,L|85:335,1,55,2|2,1:2|0:2,0:0:0:0:
41,294,28027,2,0,L|32:239,1,55,10|2,0:2|0:2,0:0:0:0:
55,183,28465,5,2,1:2:0:0:
3,73,28903,1,10,0:2:0:0:
113,23,29341,1,2,1:2:0:0:
165,132,29779,1,10,0:2:0:0:
272,75,30217,2,0,L|337:66,1,55,4|2,1:2|0:2,0:0:0:0:
379,96,30654,2,0,L|444:87,1,55,12|2,0:2|0:2,0:0:0:0:
482,124,31092,2,0,B|487:167|487:167|462:205,1,82.5,0|0,1:2|1:2,0:0:0:0:
429,285,31749,1,8,0:2:0:0:
429,285,31968,6,0,L|439:373,2,82.5,6|0|0,0:1|1:2|3:2,0:0:0:0:
380,248,32844,1,10,0:2:0:0:
165,296,33720,2,0,B|121:309|121:309|70:291,1,82.5,10|8,0:2|0:2,0:0:0:0:
6,292,34377,1,8,0:2:0:0:
6,292,34596,2,0,B|-6:330|-6:330|7:370,2,82.5,2|0|0,3:2|3:2|3:2,0:0:0:0:
1,236,35472,5,0,1:2:0:0:
1,236,35691,2,0,L|16:177,1,55,0|0,1:2|1:2,0:0:0:0:
57,148,36129,2,0,L|85:145,1,27.5,0|0,1:2|1:2,0:0:0:0:
303,272,37224,1,0,1:2:0:0:
303,272,37443,2,0,L|318:331,1,55,0|0,1:2|1:2,0:0:0:0:
359,360,37881,2,0,L|387:363,1,27.5,0|0,1:2|1:2,0:0:0:0:
502,144,38976,6,0,P|467:116|399:194,1,165,6|0,1:1|0:2,0:0:0:0:
434,223,39852,2,0,L|211:193,1,220,6|0,1:1|0:2,0:0:0:0:
173,228,40946,6,0,B|186:267|186:267|171:322,1,82.5,6|6,1:2|1:2,0:0:0:0:
98,355,41603,2,0,B|85:316|85:316|100:261,1,82.5,6|6,1:2|1:2,0:0:0:0:
47,205,42260,1,14,1:2:0:0:
47,205,42479,6,0,L|27:77,1,110,2|2,1:2|0:2,0:0:0:0:
54,49,43136,1,2,1:2:0:0:
54,49,43355,1,10,0:2:0:0:
193,212,44231,2,0,P|184:250|145:286,2,82.5,2|2|2,1:2|1:2|1:2,0:0:0:0:
236,177,45107,2,0,B|271:167|271:167|325:182,1,82.5,8|8,0:2|0:2,0:0:0:0:
403,285,45983,6,0,L|413:366,2,82.5,2|2|2,1:2|1:2|1:2,0:0:0:0:
446,250,46859,1,8,0:2:0:0:
486,147,47297,2,0,L|476:73,1,55,2|2,0:2|0:2,0:0:0:0:
436,57,47735,6,0,L|440:11,2,27.5,14|10|10,0:2|0:2|0:2,0:0:0:0:
343,117,48392,2,0,L|339:163,2,27.5,14|10|10,0:2|0:2|0:2,0:0:0:0:
262,41,49049,2,0,L|266:-5,2,27.5,14|10|10,0:2|0:2|0:2,0:0:0:0:
178,113,49706,1,6,1:2:0:0:
175,140,49925,1,6,1:2:0:0:
173,167,50144,1,6,1:2:0:0:
171,194,50363,2,0,L|291:223,1,110,6|6,1:2|1:2,0:0:0:0:
424,294,51457,6,0,B|413:333|413:333|426:372,1,82.5,6|6,1:2|1:2,0:0:0:0:
504,325,52114,2,0,B|514:285|514:285|501:246,1,82.5,6|6,1:2|1:2,0:0:0:0:
431,202,52771,1,6,1:2:0:0:
431,202,52990,2,0,B|424:153|424:153|434:139|434:139|423:77,1,110,14|4,1:2|1:2,0:0:0:0:
406,44,53647,2,0,L|369:39,1,27.5,10|14,0:2|0:2,0:0:0:0:
303,75,54085,1,10,0:2:0:0:
303,75,54304,1,10,0:2:0:0:
333,180,54742,6,0,L|326:234,1,55,6|2,1:2|0:2,0:0:0:0:
335,289,55180,2,0,L|280:295,1,55,10|2,0:2|0:2,0:0:0:0:
242,336,55618,2,0,P|189:317|127:312,1,110,2|8,1:2|0:2,0:0:0:0:
89,343,56275,1,2,0:2:0:0:
89,343,56494,1,2,1:2:0:0:
11,265,56932,1,10,0:2:0:0:
71,172,57370,2,0,L|83:55,1,110,2|10,1:2|0:2,0:0:0:0:
186,19,58246,5,2,1:2:0:0:
186,19,58465,2,0,L|307:7,1,110,2|2,0:2|0:2,0:0:0:0:
345,31,59122,1,2,1:2:0:0:
345,30,59341,2,0,P|325:82|311:135,1,110,2|2,0:2|1:2,0:0:0:0:
336,183,59998,2,0,P|376:175|417:177,2,82.5,2|0|0,1:2|1:2|1:2,0:0:0:0:
294,220,60873,1,0,1:2:0:0:
352,312,61311,2,0,L|303:357,1,55,8|0,0:2|1:2,0:0:0:0:
261,375,61749,6,0,B|223:378|200:357|200:357|179:376|155:374|155:374|126:340|61:345,1,192.5,2|2,1:2|1:2,0:0:0:0:
18,297,62844,1,0,3:2:0:0:
18,297,63063,1,2,0:2:0:0:
76,203,63501,2,0,B|114:206|137:185|137:185|158:204|182:202|182:202|211:168|276:173,1,192.5,2|2,1:2|1:2,0:0:0:0:
320,125,64596,1,2,3:2:0:0:
320,125,64815,1,2,0:2:0:0:
359,227,65253,6,0,L|350:281,2,55,6|0|0,1:1|0:2|0:2,0:0:0:0:
415,214,65910,1,0,1:2:0:0:
415,214,66129,1,10,0:2:0:0:
486,130,66567,2,0,L|474:69,1,55,0|0,0:2|0:2,0:0:0:0:
431,42,67005,6,0,P|468:36|512:15,2,82.5,2|0|2,1:2|1:2|1:2,0:0:0:0:
379,22,67881,2,0,L|314:13,1,55,10|2,0:2|0:2,0:0:0:0:
277,43,68319,2,0,L|212:34,1,55,2|2,0:2|0:2,0:0:0:0:
171,13,68757,1,10,0:2:0:0:
140,118,69195,1,8,0:2:0:0:
109,223,69633,1,8,0:2:0:0:
78,328,70071,1,8,0:2:0:0:
78,328,70290,2,0,L|132:320,1,55,2|14,1:2|0:2,0:0:0:0:
183,341,70727,2,0,L|237:333,1,55,2|14,1:2|0:2,0:0:0:0:
288,354,71165,2,0,L|342:346,1,55,2|14,1:2|0:2,0:0:0:0:
447,381,71822,1,2,0:2:0:0:
496,282,72260,6,0,L|503:227,1,55,2|2,1:2|0:2,0:0:0:0:
489,168,72698,2,0,L|434:160,1,55,10|2,0:2|0:2,0:0:0:0:
379,186,73136,1,6,1:2:0:0:
369,211,73355,1,6,1:2:0:0:
359,236,73574,1,6,1:2:0:0:
280,328,74012,2,0,L|225:335,1,55,6|2,1:2|0:2,0:0:0:0:
173,304,74450,2,0,L|118:311,1,55,10|2,0:2|0:2,0:0:0:0:
64,283,74888,1,6,1:2:0:0:
54,258,75107,1,6,1:2:0:0:
44,233,75326,1,6,1:2:0:0:
106,128,75764,6,0,P|160:122|216:147,1,110,6|10,1:2|0:2,0:0:0:0:
245,198,76421,1,2,0:2:0:0:
245,198,76640,1,2,1:2:0:0:
219,316,77078,2,0,L|168:305,2,36.6666666666667,10|2|2,0:2|0:2|0:2,0:0:0:0:
245,347,77516,2,0,L|363:333,1,110,2|8,1:2|0:2,0:0:0:0:
415,359,78173,1,2,0:2:0:0:
415,359,78392,1,2,1:2:0:0:
458,245,78830,1,8,0:2:0:0:
381,151,79268,6,0,L|392:89,1,55,6|2,1:2|0:2,0:0:0:0:
371,39,79706,2,0,L|309:28,1,55,10|2,0:2|0:2,0:0:0:0:
258,12,80144,1,6,1:2:0:0:
233,22,80363,1,6,1:2:0:0:
208,32,80582,1,6,1:2:0:0:
261,140,81019,2,0,L|272:202,1,55,6|2,1:2|0:2,0:0:0:0:
251,252,81457,2,0,L|189:263,1,55,10|2,0:2|0:2,0:0:0:0:
138,279,81895,1,6,1:2:0:0:
113,269,82114,1,6,1:2:0:0:
88,259,82333,1,6,1:2:0:0:
22,156,82771,6,0,P|53:115|32:54,1,110,2|8,1:2|0:2,0:0:0:0:
2,12,83428,1,2,0:2:0:0:
2,12,83647,2,0,L|129:26,1,110,2|8,1:2|0:2,0:0:0:0:
170,9,84304,1,2,3:2:0:0:
170,9,84523,1,6,1:2:0:0:
220,119,84961,1,14,0:2:0:0:
136,206,85399,1,14,0:2:0:0:
128,235,85618,1,6,1:2:0:0:
122,264,85837,1,6,1:2:0:0:
184,367,86275,6,0,L|139:379,2,36.6666666666667,10|10|10,0:3|0:3|0:3,0:0:0:0:
222,381,86713,1,10,0:3:0:0:
316,325,87151,2,0,L|361:337,2,36.6666666666667,6|6|6,0:3|0:3|0:3,0:0:0:0:
295,290,87589,1,4,0:3:0:0:
365,205,88027,1,10,0:3:0:0:
300,116,88465,1,10,0:3:0:0:
365,27,88903,2,0,P|423:20|486:19,1,110,10|14,0:3|0:0,0:0:0:0:
505,124,89779,6,0,L|514:170,2,36.6666666666667,6|6|6,0:3|0:3|0:3,0:0:0:0:
468,119,90217,1,6,0:3:0:0:
388,194,90654,2,0,L|342:185,2,36.6666666666667,10|10|10,0:3|0:3|0:3,0:0:0:0:
415,219,91092,1,10,0:3:0:0:
370,319,91530,1,6,0:3:0:0:
264,287,91968,1,6,0:3:0:0:
177,355,92406,2,0,P|127:370|58:372,1,110,6|14,0:3|0:2,0:0:0:0:
11,293,93282,5,6,1:2:0:0:
11,293,93501,1,6,1:2:0:0:
11,293,93720,1,6,1:2:0:0:
301,19,95034,5,6,1:2:0:0:
301,19,95253,1,6,1:2:0:0:
301,19,95472,1,6,1:2:0:0:
382,317,96786,5,6,1:2:0:0:
382,317,97005,1,6,1:2:0:0:
382,317,97224,1,6,1:2:0:0:
33,253,98538,5,6,1:1:0:0:
33,253,99414,1,6,1:1:0:0:
142,66,100289,5,6,1:2:0:0:
142,66,100508,1,6,1:2:0:0:
142,66,100727,1,6,1:2:0:0:
245,102,101165,2,0,L|263:12,2,82.5,8|8|8,0:2|0:2|0:2,0:0:0:0:
277,159,102041,1,6,1:2:0:0:
277,159,102260,1,6,1:2:0:0:
277,159,102479,1,6,1:2:0:0:
185,220,102917,2,0,L|93:207,2,82.5,8|8|8,0:2|0:2|0:2,0:0:0:0:
227,271,103793,1,4,1:2:0:0:
227,271,104012,1,4,1:2:0:0:
227,271,104231,1,4,1:2:0:0:
313,202,104669,2,0,B|320:162|320:162|308:106,1,82.5,8|8,0:2|0:2,0:0:0:0:
355,51,105326,1,8,0:2:0:0:
355,51,105545,6,0,P|434:26|488:90,1,165,6|8,1:2|0:2,0:0:0:0:
491,133,106421,2,0,L|467:321,1,165,10|8,0:2|1:2,0:0:0:0:
502,348,107297,5,6,1:2:0:0:
385,381,107735,1,10,0:2:0:0:
281,318,108173,1,2,1:2:0:0:
171,370,108611,1,10,0:2:0:0:
57,328,109049,2,0,L|47:265,1,55,2|2,1:2|0:2,0:0:0:0:
84,224,109487,2,0,L|147:233,1,55,10|2,0:2|0:2,0:0:0:0:
181,275,109925,2,0,L|244:265,1,55,2|2,1:2|0:2,0:0:0:0:
281,227,110363,2,0,L|344:237,1,55,10|2,0:2|0:2,0:0:0:0:
377,278,110800,5,2,1:2:0:0:
488,230,111238,1,10,0:2:0:0:
391,157,111676,1,2,1:2:0:0:
461,58,112114,1,10,0:2:0:0:
347,15,112552,2,0,L|292:22,1,55,4|2,1:2|0:2,0:0:0:0:
253,68,112990,2,0,L|188:59,1,55,4|2,1:2|0:2,0:0:0:0:
146,92,113428,2,0,L|130:-7,2,82.5,0|0|2,1:2|1:2|1:2,0:0:0:0:
125,149,114304,5,6,1:2:0:0:
235,199,114742,1,10,0:2:0:0:
343,145,115180,1,2,1:2:0:0:
443,212,115618,1,10,0:2:0:0:
412,329,116056,2,0,L|349:339,1,55,2|2,0:2|0:2,0:0:0:0:
304,308,116494,2,0,L|241:318,1,55,10|2,0:2|0:2,0:0:0:0:
210,363,116932,2,0,L|155:371,1,55,2|2,1:2|0:2,0:0:0:0:
104,337,117370,2,0,L|49:345,1,55,10|2,0:2|0:2,0:0:0:0:
2,306,117808,5,2,1:2:0:0:
89,222,118246,1,10,0:2:0:0:
3,136,118684,1,2,1:2:0:0:
59,28,119122,1,10,0:2:0:0:
136,120,119560,2,0,L|201:111,1,55,4|2,1:2|0:2,0:0:0:0:
239,147,119998,2,0,L|304:138,1,55,4|2,1:2|0:2,0:0:0:0:
349,164,120435,2,0,B|370:131|370:131|365:88,1,82.5,0|0,1:2|1:2,0:0:0:0:
414,13,121092,1,0,1:2:0:0:
414,13,121311,6,0,L|502:3,2,82.5,6|0|0,1:2|1:2|1:2,0:0:0:0:
367,3,122187,1,10,0:2:0:0:
165,296,123063,2,0,B|121:309|121:309|70:291,1,82.5,10|8,0:2|0:2,0:0:0:0:
6,292,123720,1,8,0:2:0:0:
6,292,123939,2,0,B|-6:330|-6:330|7:370,2,82.5,10|8|8,0:2|0:2|0:2,0:0:0:0:
2,236,124815,5,2,0:2:0:0:
218,66,125910,2,0,L|226:18,2,27.5,8|8|8,0:3|0:3|0:3,0:0:0:0:
505,322,127662,2,0,L|500:349,2,27.5,8|8|8,0:3|0:3|0:3,0:0:0:0:
500,211,128319,6,0,P|472:239|386:171,1,165,6|0,1:1|1:2,0:0:0:0:
378,127,129195,2,0,L|363:352,1,220,8|0,0:2|0:2,0:0:0:0:
314,370,130289,6,0,B|275:383|275:383|220:368,1,82.5,6|6,1:2|1:2,0:0:0:0:
195,299,130946,2,0,B|234:286|234:286|289:301,1,82.5,6|6,1:2|1:2,0:0:0:0:
346,254,131603,1,14,0:2:0:0:
346,254,131822,6,0,L|353:144,1,110,6|2,1:2|1:2,0:0:0:0:
309,120,132479,1,2,0:2:0:0:
309,120,132698,2,0,L|226:114,1,82.5,8|8,0:2|0:2,0:0:0:0:
92,82,133574,2,0,P|87:41|74:2,2,82.5,2|2|2,1:2|0:2|0:2,0:0:0:0:
58,126,134450,2,0,B|45:167|45:167|60:208,1,82.5,8|8,0:2|0:2,0:0:0:0:
81,288,135107,1,10,0:2:0:0:
81,288,135326,6,0,L|0:278,2,82.5,2|2|2,1:2|0:2|0:2,0:0:0:0:
118,328,136202,1,8,0:2:0:0:
219,369,136640,2,0,L|293:359,1,55,2|2,1:2|0:2,0:0:0:0:
322,335,137078,6,0,L|368:339,2,27.5,14|10|10,0:2|0:2|0:2,0:0:0:0:
262,242,137735,2,0,L|216:238,2,27.5,14|10|10,0:2|0:2|0:2,0:0:0:0:
338,161,138392,2,0,L|384:165,2,27.5,14|10|10,0:2|0:2|0:2,0:0:0:0:
242,105,139049,1,6,1:2:0:0:
239,78,139268,1,6,1:2:0:0:
237,51,139487,1,6,1:2:0:0:
235,24,139706,2,0,L|361:38,1,110,6|6,1:2|1:2,0:0:0:0:
508,18,140800,6,0,B|521:57|521:57|510:96,1,82.5,6|6,1:2|1:2,0:0:0:0:
438,138,141457,2,0,B|428:178|428:178|441:217,1,82.5,6|6,1:2|1:2,0:0:0:0:
450,303,142114,1,6,1:2:0:0:
450,303,142333,2,0,B|401:296|401:296|387:306|387:306|325:295,1,110,14|6,0:2|1:2,0:0:0:0:
295,325,142990,2,0,L|258:320,1,27.5,8|12,0:2|0:2,0:0:0:0:
198,362,143428,1,10,0:2:0:0:
198,362,143647,1,10,0:2:0:0:
90,337,144085,6,0,L|83:283,1,55,6|2,1:2|0:2,0:0:0:0:
33,256,144523,2,0,L|26:202,1,55,10|2,0:2|0:2,0:0:0:0:
1,151,144961,2,0,P|54:132|116:127,1,110,2|10,1:2|0:2,0:0:0:0:
158,159,145618,1,2,0:2:0:0:
158,159,145837,1,2,1:2:0:0:
259,116,146275,1,10,0:2:0:0:
307,214,146713,2,0,L|295:323,1,110,2|10,1:2|0:2,0:0:0:0:
397,378,147589,5,2,1:2:0:0:
397,378,147808,2,0,L|408:268,1,110,2|2,0:2|0:2,0:0:0:0:
454,237,148465,1,2,1:2:0:0:
455,238,148684,2,0,P|401:223|350:204,1,110,2|2,0:2|1:2,0:0:0:0:
324,155,149341,2,0,P|332:115|330:74,2,82.5,2|0|0,1:2|1:2|1:2,0:0:0:0:
271,170,150216,1,0,1:2:0:0:
178,230,150654,2,0,L|115:218,1,55,8|0,0:2|1:0,0:0:0:0:
80,253,151092,6,0,B|83:215|62:192|62:192|81:171|79:147|79:147|45:118|50:53,1,192.5,6|2,1:2|1:2,0:0:0:0:
97,11,152187,1,2,1:2:0:0:
97,11,152406,1,2,0:2:0:0:
170,92,152844,2,0,B|165:132|199:161|199:161|201:185|182:206|182:206|203:229|200:267,1,192.5,2|2,1:2|1:2,0:0:0:0:
166,343,153939,1,2,1:2:0:0:
166,343,154158,1,2,0:2:0:0:
275,329,154596,6,0,L|284:383,2,55,6|0|0,1:1|0:2|0:2,0:0:0:0:
307,285,155253,1,0,1:2:0:0:
307,285,155472,1,10,0:2:0:0:
239,198,155910,2,0,L|178:186,1,55,0|0,0:2|0:2,0:0:0:0:
144,224,156348,6,0,P|138:261|117:305,2,82.5,2|0|2,1:2|1:2|1:2,0:0:0:0:
94,198,157224,2,0,L|85:133,1,55,10|2,0:2|0:2,0:0:0:0:
113,95,157662,2,0,L|104:30,1,55,2|2,0:2|0:2,0:0:0:0:
143,0,158100,1,8,0:2:0:0:
250,25,158538,1,8,0:2:0:0:
357,50,158976,1,8,0:2:0:0:
464,75,159414,1,8,0:2:0:0:
464,75,159633,2,0,L|456:129,1,55,2|14,1:2|0:2,0:0:0:0:
477,180,160071,2,0,L|469:234,1,55,2|14,1:2|0:2,0:0:0:0:
490,285,160508,2,0,L|482:339,1,55,2|14,1:2|0:2,0:0:0:0:
379,378,161165,1,2,0:2:0:0:
284,321,161603,6,0,L|229:313,1,55,6|2,1:2|0:2,0:0:0:0:
175,340,162041,2,0,L|120:332,1,55,10|2,0:2|0:2,0:0:0:0:
72,294,162479,1,6,1:2:0:0:
62,269,162698,1,6,1:2:0:0:
52,244,162917,1,6,1:2:0:0:
98,132,163355,2,0,L|153:124,1,55,6|2,1:2|0:2,0:0:0:0:
207,151,163793,2,0,L|262:143,1,55,10|2,0:2|0:2,0:0:0:0:
310,105,164231,1,6,1:2:0:0:
320,80,164450,1,6,1:2:0:0:
330,55,164669,1,6,1:2:0:0:
449,34,165107,6,0,P|468:84|459:145,1,110,6|8,1:2|0:2,0:0:0:0:
425,188,165764,1,2,0:2:0:0:
425,188,165983,1,0,1:2:0:0:
408,307,166421,2,0,L|400:363,2,36.6666666666667,10|2|2,0:2|0:2|0:2,0:0:0:0:
371,288,166859,2,0,L|261:300,1,110,2|10,1:2|0:2,0:0:0:0:
218,267,167516,1,2,0:2:0:0:
218,267,167735,1,2,1:2:0:0:
270,158,168173,1,8,0:2:0:0:
220,47,168611,6,0,L|158:36,1,55,6|2,1:2|0:2,0:0:0:0:
109,60,169049,2,0,L|98:122,1,55,10|2,0:2|0:2,0:0:0:0:
51,151,169487,1,6,1:2:0:0:
46,177,169706,1,6,1:2:0:0:
41,204,169925,1,6,1:2:0:0:
83,317,170363,2,0,L|145:328,1,55,6|2,1:2|0:2,0:0:0:0:
194,304,170801,2,0,L|205:242,1,55,10|2,0:2|0:2,0:0:0:0:
252,213,171239,1,6,1:2:0:0:
257,187,171458,1,6,1:2:0:0:
262,160,171677,1,6,1:2:0:0:
317,52,172114,6,0,P|360:24|419:50,1,110,2|8,1:2|0:2,0:0:0:0:
456,92,172771,1,2,0:2:0:0:
456,92,172990,2,0,L|442:219,1,110,0|8,1:2|0:2,0:0:0:0:
477,258,173647,1,2,3:2:0:0:
477,258,173866,1,6,1:2:0:0:
402,352,174304,1,14,0:2:0:0:
294,296,174742,1,14,0:2:0:0:
265,304,174961,1,6,1:2:0:0:
236,312,175180,1,6,1:2:0:0:
122,269,175618,5,4,1:2:0:0:
56,270,182625,5,6,1:2:0:0:
0,174,183063,1,10,0:2:0:0:
74,92,183501,1,2,1:2:0:0:
175,137,183939,1,10,0:2:0:0:
165,248,184377,1,2,1:2:0:0:
266,293,184815,1,10,0:2:0:0:
340,211,185253,1,2,1:2:0:0:
284,115,185691,1,10,0:2:0:0:
345,23,186129,6,0,B|371:13|371:13|442:28,1,82.5,6|8,1:2|0:2,0:0:0:0:
438,48,186567,2,0,L|446:102,1,55,8|8,0:2|0:2,0:0:0:0:
425,153,187005,1,8,0:2:0:0:
480,248,187443,1,0,1:2:0:0:
433,347,187881,2,0,L|376:359,1,55,10|10,0:2|0:2,0:0:0:0:
331,329,188319,2,0,L|274:317,1,55,10|10,0:2|0:2,0:0:0:0:
223,330,188757,1,10,0:2:0:0:
196,336,188976,1,10,0:2:0:0:
169,342,189195,1,10,0:2:0:0:
63,287,198392,6,0,P|52:248|49:207,2,82.5,4|8|8,1:2|0:2|0:2,0:0:0:0:
103,326,199268,1,6,1:2:0:0:
128,336,199487,1,6,1:2:0:0:
153,347,199706,1,6,1:2:0:0:
237,276,200144,2,0,P|276:287|317:290,2,82.5,0|8|8,1:2|0:2|0:2,0:0:0:0:
198,236,201020,1,6,1:2:0:0:
188,211,201239,1,6,1:2:0:0:
177,186,201458,1,6,1:2:0:0:
219,85,201895,6,0,P|267:57|321:53,1,110,2|0,1:2|1:2,0:0:0:0:
375,33,202552,1,2,0:2:0:0:
375,33,202771,2,0,P|379:87|406:134,1,110,2|0,1:2|1:2,0:0:0:0:
450,176,203428,1,10,0:2:0:0:
450,176,203647,2,0,L|439:230,1,55,10|10,0:2|0:2,0:0:0:0:
467,277,204085,2,0,L|456:331,1,55,2|10,1:2|0:2,0:0:0:0:
412,364,204523,1,6,1:2:0:0:
385,356,204742,1,6,1:2:0:0:
358,348,204961,1,10,0:2:0:0:
251,376,205399,6,0,L|196:383,1,55,6|2,1:2|0:2,0:0:0:0:
137,369,205837,2,0,L|128:314,1,55,10|2,0:2|0:2,0:0:0:0:
155,259,206275,1,6,1:2:0:0:
180,249,206494,1,6,1:2:0:0:
205,239,206713,1,6,1:2:0:0:
315,289,207151,2,0,L|370:296,1,55,6|2,1:2|0:2,0:0:0:0:
429,282,207589,2,0,L|438:227,1,55,10|2,0:2|0:2,0:0:0:0:
411,172,208027,1,6,1:2:0:0:
386,162,208246,1,6,1:2:0:0:
361,152,208465,1,6,1:2:0:0:
288,55,208903,6,0,P|237:74|176:65,1,110,6|10,1:2|0:2,0:0:0:0:
136,38,209560,1,2,0:2:0:0:
136,38,209779,1,2,1:2:0:0:
39,111,210217,2,0,L|-12:100,2,36.6666666666667,10|2|2,0:2|0:2|0:2,0:0:0:0:
60,145,210655,2,0,L|74:263,1,110,2|8,1:2|0:2,0:0:0:0:
51,313,211312,1,2,0:2:0:0:
51,313,211531,1,0,1:2:0:0:
154,375,211969,1,8,0:2:0:0:
263,322,212407,6,0,L|274:260,1,55,6|2,1:2|0:2,0:0:0:0:
229,225,212844,2,0,L|218:163,1,55,10|2,0:2|0:2,0:0:0:0:
259,124,213283,1,6,1:2:0:0:
269,99,213502,1,6,1:2:0:0:
279,74,213721,1,6,1:2:0:0:
382,12,214158,2,0,L|444:23,1,55,6|2,1:2|0:2,0:0:0:0:
473,69,214596,2,0,L|484:131,1,55,10|2,0:2|0:2,0:0:0:0:
495,182,215034,1,6,1:2:0:0:
485,207,215253,1,6,1:2:0:0:
475,232,215472,1,6,1:2:0:0:
510,347,215910,6,0,L|396:363,1,110,6|8,1:2|0:2,0:0:0:0:
343,381,216567,1,2,0:2:0:0:
342,381,216786,2,0,P|359:329|346:276,1,110,0|8,1:2|0:2,0:0:0:0:
302,243,217443,1,0,3:2:0:0:
302,243,217662,1,6,1:2:0:0:
202,312,218100,1,6,1:2:0:0:
91,263,218538,1,6,1:2:0:0:
83,234,218757,1,6,1:2:0:0:
77,205,218976,1,6,1:2:0:0:
34,91,219414,6,0,L|-11:79,2,36.6666666666667,10|10|10,0:3|0:3|0:3,0:0:0:0:
67,75,219852,1,10,0:3:0:0:
176,62,220290,2,0,L|186:17,2,36.6666666666667,6|6|6,0:3|0:3|0:3,0:0:0:0:
196,92,220728,1,6,0:3:0:0:
264,178,221166,1,8,0:3:0:0:
340,98,221604,1,8,0:3:0:0:
438,147,222042,2,0,P|454:202|466:264,1,110,8|10,0:3|0:2,0:0:0:0:
401,343,222918,6,0,L|410:389,2,36.6666666666667,6|6|6,0:3|0:3|0:3,0:0:0:0:
367,326,223356,1,6,0:3:0:0:
259,332,223793,2,0,L|268:286,2,36.6666666666667,10|10|10,0:3|0:3|0:3,0:0:0:0:
229,353,224231,1,10,0:3:0:0:
122,380,224669,1,6,0:3:0:0:
33,313,225107,1,6,0:3:0:0:
10,205,225545,2,0,P|17:150|37:99,1,110,6|14,0:3|0:2,0:0:0:0:
132,39,226421,5,6,1:2:0:0:
132,39,226640,1,6,1:2:0:0:
132,39,226859,1,6,1:2:0:0:
218,367,228173,5,6,1:2:0:0:
218,367,228392,1,6,1:2:0:0:
218,367,228611,1,6,1:2:0:0:
460,129,229925,5,6,1:2:0:0:
460,129,230144,1,6,1:2:0:0:
460,129,230363,1,6,1:2:0:0:
480,352,231677,5,6,1:1:0:0:
480,352,232553,1,6,1:1:0:0:
282,282,233428,5,6,1:2:0:0:
282,282,233647,1,6,1:2:0:0:
282,282,233866,1,6,1:2:0:0:
174,303,234304,2,0,L|157:383,2,82.5,8|8|8,0:2|0:2|0:2,0:0:0:0:
149,266,235180,1,6,1:2:0:0:
149,266,235399,1,6,1:2:0:0:
149,266,235618,1,6,1:2:0:0:
89,173,236056,2,0,L|-3:160,2,82.5,8|8|8,0:2|0:2|0:2,0:0:0:0:
143,150,236932,1,6,1:2:0:0:
143,150,237151,1,6,1:2:0:0:
143,150,237370,1,6,1:2:0:0:
178,46,237808,2,0,B|218:37|218:37|258:44,1,82.5,8|8,0:2|0:2,0:0:0:0:
328,98,238465,1,8,0:2:0:0:
328,98,238684,6,0,B|343:140|343:140|335:188,1,82.5,10|10,0:2|0:2,0:0:0:0:
348,202,239122,2,0,B|387:200|387:200|449:224,1,82.5,10|10,0:2|0:2,0:0:0:0:
475,289,239779,1,6,1:2:0:0:
475,289,239998,1,6,1:2:0:0:
