osu file format v14

[General]
AudioFilename: audio.mp3
AudioLeadIn: 0
PreviewTime: 316
Countdown: 0
SampleSet: Soft
StackLeniency: 0.3
Mode: 0
LetterboxInBreaks: 0
WidescreenStoryboard: 0

[Editor]
DistanceSpacing: 1
BeatDivisor: 4
GridSize: 32
TimelineZoom: 2.2

[Metadata]
Title:Mika Ranman no Utage nite
TitleUnicode:美歌爛漫ノ宴ニテ
Artist:Chihara Minori
ArtistUnicode:茅原実里
Creator:Mordred
Version:Insane
Source:
Tags:amy エイミー lasse japanese pop
BeatmapID:2441293
BeatmapSetID:1152086

[Difficulty]
HPDrainRate:5.5
CircleSize:4
OverallDifficulty:7
ApproachRate:8
SliderMultiplier:1.6
SliderTickRate:1

[Events]
//Background and Video events
0,0,"293132.jpg",0,0
//Break Periods
2,191374,197642
//Storyboard Layer 0 (Background)
//Storyboard Layer 1 (Fail)
//Storyboard Layer 2 (Pass)
//Storyboard Layer 3 (Foreground)
//Storyboard Layer 4 (Overlay)
//Storyboard Sound Samples

[TimingPoints]
436,437.956204379562,4,2,3,60,1,0
3939,-100,4,2,1,70,0,0
4596,-100,4,2,1,60,0,0
5691,-100,4,2,1,70,0,0
6348,-100,4,2,1,60,0,0
7388,-100,4,2,1,5,0,0
7443,-100,4,2,1,70,0,0
8100,-100,4,2,1,60,0,0
9195,-125,4,2,1,70,0,0
10946,-100,4,2,1,70,0,0
16202,-100,4,2,1,70,0,0
17516,-125,4,2,1,80,0,0
17954,-76.9230769230769,4,2,1,90,0,1
31968,-100,4,2,1,70,0,0
35472,-100,4,2,1,60,0,0
38976,-166.666666666667,4,2,1,60,0,0
40946,-55.5555555555556,4,2,1,80,0,0
41165,-55.5555555555556,4,2,1,5,0,0
41274,-55.5555555555556,4,2,1,80,0,0
41494,-55.5555555555556,4,2,1,5,0,0
41603,-55.5555555555556,4,2,1,80,0,0
41822,-55.5555555555556,4,2,1,5,0,0
41931,-55.5555555555556,4,2,1,80,0,0
42151,-55.5555555555556,4,2,1,5,0,0
42260,-55.5555555555556,4,2,1,80,0,0
42479,-100,4,2,1,70,0,0
44450,-100,4,2,1,5,0,0
44560,-100,4,2,1,70,0,0
44779,-100,4,2,1,5,0,0
44888,-100,4,2,1,70,0,0
45983,-125,4,2,1,70,0,0
47735,-125,4,2,1,60,0,0
48392,-125,4,2,1,70,0,0
49049,-125,4,2,1,80,0,0
49706,-100,4,2,1,90,0,0
50363,-100,4,2,1,70,0,0
50691,-100,4,2,1,5,0,0
50800,-100,4,2,1,70,0,0
51129,-100,4,2,1,5,0,0
51457,-55.5555555555556,4,2,1,80,0,0
51676,-55.5555555555556,4,2,1,5,0,0
51785,-55.5555555555556,4,2,1,80,0,0
52005,-55.5555555555556,4,2,1,5,0,0
52114,-55.5555555555556,4,2,1,80,0,0
52333,-55.5555555555556,4,2,1,5,0,0
52442,-55.5555555555556,4,2,1,80,0,0
52662,-55.5555555555556,4,2,1,5,0,0
52771,-76.9230769230769,4,2,1,80,0,0
54085,-55.5555555555556,4,2,3,80,0,0
54523,-100,4,2,1,60,0,0
54742,-100,4,2,1,70,0,0
56713,-100,4,2,4,70,0,0
58246,-100,4,2,1,70,0,0
59998,-100,4,2,1,70,0,0
61749,-100,4,2,1,80,0,0
62844,-100,4,2,1,70,0,0
63063,-100,4,2,2,70,0,0
63501,-100,4,2,1,80,0,0
64596,-100,4,2,1,70,0,0
64815,-100,4,2,2,70,0,0
65253,-125,4,2,1,70,0,0
70290,-125,4,2,1,80,0,0
71822,-125,4,2,5,80,0,0
72041,-125,4,2,1,80,0,0
72260,-66.6666666666667,4,2,1,90,0,1
86275,-100,4,2,1,80,0,0
87151,-100,4,2,1,70,0,0
88027,-100,4,2,1,60,0,0
89286,-100,4,2,1,5,0,0
89341,-100,4,2,1,70,0,0
90654,-100,4,2,1,80,0,0
91384,-100,4,2,1,70,0,0
93282,-100,4,2,1,70,0,0
93939,-100,4,2,1,60,0,0
95034,-100,4,2,1,70,0,0
95691,-100,4,2,1,60,0,0
96731,-100,4,2,1,5,0,0
96786,-100,4,2,1,70,0,0
97443,-100,4,2,1,60,0,0
98538,-125,4,2,1,70,0,0
100290,-100,4,2,1,70,0,0
105545,-100,4,2,1,70,0,0
106859,-125,4,2,1,80,0,0
107297,-76.9230769230769,4,2,1,90,0,1
121311,-100,4,2,1,70,0,0
124815,-100,4,2,1,40,0,0
125034,-100,4,2,1,50,0,0
125144,-100,4,2,1,55,0,0
125253,-100,4,2,1,60,0,0
125363,-100,4,2,1,65,0,0
125472,-100,4,2,1,70,0,0
125581,-100,4,2,1,75,0,0
125691,-100,4,2,1,80,0,0
125800,-100,4,2,1,5,0,0
125910,-100,4,2,1,70,0,0
126786,-100,4,2,1,50,0,0
126896,-100,4,2,1,55,0,0
127005,-100,4,2,1,60,0,0
127115,-100,4,2,1,65,0,0
127224,-100,4,2,1,70,0,0
127333,-100,4,2,1,75,0,0
127443,-100,4,2,1,80,0,0
127552,-100,4,2,1,5,0,0
127662,-100,4,2,1,70,0,0
128319,-166.666666666667,4,2,1,70,0,0
128921,-142.857142857143,4,2,1,5,0,0
128976,-166.666666666667,4,2,1,70,0,0
130290,-55.5555555555556,4,2,1,80,0,0
130508,-55.5555555555556,4,2,1,5,0,0
130617,-55.5555555555556,4,2,1,80,0,0
130837,-55.5555555555556,4,2,1,5,0,0
130946,-55.5555555555556,4,2,1,80,0,0
131165,-55.5555555555556,4,2,1,5,0,0
131274,-55.5555555555556,4,2,1,80,0,0
131494,-55.5555555555556,4,2,1,5,0,0
131603,-55.5555555555556,4,2,1,80,0,0
131822,-100,4,2,1,70,0,0
137078,-100,4,2,1,60,0,0
137735,-100,4,2,1,70,0,0
138392,-100,4,2,1,80,0,0
139049,-100,4,2,1,90,0,0
139706,-100,4,2,1,70,0,0
140034,-100,4,2,1,5,0,0
140144,-100,4,2,1,70,0,0
140472,-100,4,2,1,5,0,0
140800,-55.5555555555556,4,2,1,80,0,0
141019,-55.5555555555556,4,2,1,5,0,0
141128,-55.5555555555556,4,2,1,80,0,0
141348,-55.5555555555556,4,2,1,5,0,0
141457,-55.5555555555556,4,2,1,80,0,0
141676,-55.5555555555556,4,2,1,5,0,0
141785,-55.5555555555556,4,2,1,80,0,0
142005,-55.5555555555556,4,2,1,5,0,0
142114,-55.5555555555556,4,2,1,80,0,0
143428,-50,4,2,3,80,0,0
143866,-100,4,2,1,60,0,0
144085,-100,4,2,1,70,0,0
146056,-100,4,2,4,70,0,0
147589,-100,4,2,1,70,0,0
149341,-100,4,2,1,70,0,0
151092,-100,4,2,1,80,0,0
152187,-100,4,2,1,70,0,0
152406,-100,4,2,2,70,0,0
152844,-100,4,2,1,80,0,0
153939,-100,4,2,1,70,0,0
154158,-100,4,2,2,70,0,0
154596,-125,4,2,1,70,0,0
159633,-125,4,2,1,80,0,0
161165,-125,4,2,5,80,0,0
161384,-125,4,2,1,80,0,0
161603,-66.6666666666667,4,2,1,90,0,1
175618,-100,4,2,1,70,0,0
181530,-100,4,2,4,70,0,0
182625,-66.6666666666667,4,2,1,70,0,0
183063,-100,4,2,1,75,0,0
183501,-66.6666666666667,4,2,1,80,0,0
183939,-100,4,2,1,85,0,0
184377,-66.6666666666667,4,2,1,90,0,0
184815,-66.6666666666667,4,2,1,85,0,0
185253,-83.3333333333333,4,2,1,80,0,0
185691,-83.3333333333333,4,2,1,75,0,0
186129,-66.6666666666667,4,2,1,70,0,0
187881,-66.6666666666667,4,2,4,80,0,0
198392,-142.857142857143,4,2,1,70,0,0
199268,-142.857142857143,4,2,1,80,0,0
199925,-142.857142857143,4,2,1,70,0,0
201019,-142.857142857143,4,2,1,80,0,0
201676,-142.857142857143,4,2,1,70,0,0
203428,-142.857142857143,4,2,1,75,0,0
204523,-66.6666666666667,4,2,1,80,0,0
205399,-66.6666666666667,4,2,1,90,0,1
219414,-100,4,2,1,80,0,0
220290,-100,4,2,1,70,0,0
221165,-100,4,2,1,60,0,0
222425,-100,4,2,1,5,0,0
222479,-100,4,2,1,70,0,0
223793,-100,4,2,1,80,0,0
224523,-100,4,2,1,70,0,0
227078,-100,4,2,1,60,0,0
228173,-100,4,2,1,70,0,0
228830,-100,4,2,1,60,0,0
229870,-100,4,2,1,5,0,0
229925,-100,4,2,1,70,0,0
230581,-100,4,2,1,60,0,0
231676,-125,4,2,1,70,0,0
233428,-100,4,2,1,70,0,0
238684,-76.9230769230769,4,2,1,80,0,0
239779,-50,4,2,1,90,0,1
239888,-50,4,2,1,70,0,0
239998,-66.6666666666667,4,2,1,90,0,1
240107,-66.6666666666667,4,2,1,5,0,0
241311,-66.6666666666667,4,2,1,5,0,0

[Colours]
Combo1 : 250,180,240
Combo2 : 120,200,230
Combo3 : 255,230,130
Combo4 : 160,230,150

[HitObjects]
0,57,436,5,2,0:2:0:0:
12,136,873,1,2,0:2:0:0:
24,215,1311,1,2,0:2:0:0:
141,175,1530,5,2,0:2:0:0:
136,202,1640,1,2,0:2:0:0:
132,230,1749,1,2,0:2:0:0:
167,329,1968,1,0,1:2:0:0:
167,329,2078,1,0,1:2:0:0:
167,329,2187,5,2,1:2:0:0:
204,342,2296,1,2,0:2:0:0:
243,338,2405,1,2,0:2:0:0:
276,316,2515,1,2,1:2:0:0:
320,256,2625,5,2,0:2:0:0:
357,242,2734,1,2,0:2:0:0:
396,246,2843,1,2,1:2:0:0:
429,268,2953,1,2,0:2:0:0:
467,332,3063,5,2,1:2:0:0:
512,224,3282,1,2,0:2:0:0:
512,224,3392,1,2,1:2:0:0:
512,224,3501,2,0,L|498:136,1,80,2|0,0:2|1:2,0:0:0:0:
448,32,3939,5,14,1:2:0:0:
352,240,4158,1,14,1:2:0:0:
224,0,4377,1,14,1:2:0:0:
160,64,4596,1,0,0:2:0:0:
140,67,4706,1,0,0:2:0:0:
120,70,4815,1,0,0:2:0:0:
100,73,4925,1,0,0:2:0:0:
64,160,5144,1,0,0:2:0:0:
28,247,5363,1,0,0:2:0:0:
8,250,5472,1,0,0:2:0:0:
58,340,5691,5,14,1:2:0:0:
192,128,5910,1,14,1:2:0:0:
288,384,6129,1,14,1:2:0:0:
374,319,6348,2,0,L|425:310,1,40,0|0,0:2|0:2,0:0:0:0:
502,342,6567,1,0,0:2:0:0:
505,322,6676,1,0,0:2:0:0:
497,237,6895,1,0,0:2:0:0:
489,152,7114,2,0,L|381:135,1,100,0|0,0:2|0:2,0:0:0:0:
357,104,7443,5,14,1:2:0:0:
192,224,7662,1,14,1:2:0:0:
416,288,7881,1,14,1:2:0:0:
352,352,8100,1,0,0:2:0:0:
332,355,8210,1,0,0:2:0:0:
312,358,8319,1,0,0:2:0:0:
292,361,8429,1,0,0:2:0:0:
207,333,8647,1,0,0:2:0:0:
134,384,8866,1,0,0:2:0:0:
114,381,8976,1,0,0:2:0:0:
31,320,9195,6,0,B|13:223|13:223|33:244,1,128,6|0,1:1|0:2,0:0:0:0:
480,320,10071,2,0,B|498:223|498:223|478:244,1,128,6|0,1:1|0:2,0:0:0:0:
256,384,10946,5,14,1:2:0:0:
256,192,11165,1,14,1:2:0:0:
256,0,11384,1,14,1:2:0:0:
318,81,11603,1,0,0:2:0:0:
357,83,11712,1,0,0:2:0:0:
389,61,11821,1,8,0:2:0:0:
399,23,11931,1,0,0:2:0:0:
496,0,12151,1,8,0:2:0:0:
512,96,12370,1,0,0:2:0:0:
500,125,12479,1,8,0:2:0:0:
512,224,12698,5,14,1:2:0:0:
318,81,12917,1,14,1:2:0:0:
318,81,13027,1,2,0:2:0:0:
318,81,13136,1,14,1:2:0:0:
246,179,13355,1,8,0:2:0:0:
416,153,13574,1,8,0:2:0:0:
431,232,13903,1,8,0:2:0:0:
446,311,14231,1,8,0:2:0:0:
352,384,14450,6,0,L|312:376,1,40,14|2,1:2|0:2,0:0:0:0:
224,384,14669,2,0,L|184:376,1,40,14|2,1:2|0:2,0:0:0:0:
96,384,14888,1,14,1:2:0:0:
0,288,15107,1,8,0:2:0:0:
131,252,15326,1,8,0:2:0:0:
146,173,15654,1,8,0:2:0:0:
161,94,15983,1,8,0:2:0:0:
175,87,16056,1,8,0:2:0:0:
189,81,16129,1,8,0:2:0:0:
203,75,16202,6,0,L|282:67,1,80,6|0,1:1|0:2,0:0:0:0:
416,0,16640,1,2,0:2:0:0:
416,0,16749,1,8,0:2:0:0:
416,0,16859,1,8,0:2:0:0:
495,97,17078,5,10,0:2:0:0:
499,137,17187,1,8,0:2:0:0:
503,177,17296,1,8,0:2:0:0:
507,216,17406,1,8,0:2:0:0:
512,256,17516,5,10,0:2:0:0:
464,251,17625,1,8,0:2:0:0:
416,245,17734,1,8,0:2:0:0:
368,240,17844,1,8,0:2:0:0:
320,235,17954,6,0,L|309:184,2,51.999997619629,6|2|2,1:1|0:2|0:2,0:0:0:0:
256,352,18392,1,10,0:2:0:0:
123,356,18611,1,2,0:2:0:0:
170,171,18830,5,2,1:2:0:0:
179,204,18940,1,2,0:2:0:0:
187,239,19050,1,2,0:2:0:0:
56,175,19268,5,10,0:2:0:0:
64,140,19378,1,2,0:2:0:0:
73,107,19488,1,2,0:2:0:0:
173,19,19706,6,0,P|223:9|275:9,1,103.999995239258,2|2,1:2|0:2,0:0:0:0:
56,175,20144,2,0,P|55:226|66:277,1,103.999995239258,10|2,0:2|0:2,0:0:0:0:
338,364,20581,2,0,P|288:374|236:374,1,103.999995239258,2|2,1:2|0:2,0:0:0:0:
456,209,21019,2,0,P|456:157|445:106,1,103.999995239258,10|2,0:2|0:2,0:0:0:0:
233,73,21457,5,2,1:2:0:0:
242,106,21567,1,2,0:2:0:0:
250,141,21677,1,2,0:2:0:0:
357,22,21895,5,10,0:2:0:0:
348,55,22005,1,2,0:2:0:0:
340,90,22115,1,2,0:2:0:0:
233,73,22333,5,2,1:2:0:0:
445,106,22552,1,2,0:2:0:0:
299,231,22771,5,10,0:2:0:0:
307,196,22881,1,2,0:2:0:0:
316,163,22991,1,2,0:2:0:0:
233,74,23209,5,4,1:2:0:0:
233,74,23428,1,2,0:1:0:0:
4,170,23647,1,4,1:2:0:0:
4,170,23866,1,2,0:2:0:0:
132,267,24085,5,0,1:2:0:0:
125,236,24195,1,8,0:2:0:0:
118,205,24304,1,10,0:2:0:0:
111,174,24414,2,0,L|135:66,1,103.999995239258,0|8,1:2|0:2,0:0:0:0:
123,42,24742,1,2,1:2:0:0:
223,176,24961,5,6,1:2:0:0:
256,185,25071,1,2,0:2:0:0:
291,193,25181,1,2,0:2:0:0:
416,128,25399,1,10,0:2:0:0:
481,253,25618,1,2,0:2:0:0:
356,318,25837,5,2,1:2:0:0:
321,310,25947,1,2,0:2:0:0:
288,301,26057,1,2,0:2:0:0:
413,236,26275,5,10,0:2:0:0:
446,245,26385,1,2,0:2:0:0:
481,253,26495,1,2,0:2:0:0:
404,24,26713,6,0,L|416:128,1,103.999995239258,2|2,1:2|0:2,0:0:0:0:
492,356,27151,2,0,L|481:253,1,103.999995239258,10|2,0:2|0:2,0:0:0:0:
107,24,27589,2,0,L|96:128,1,103.999995239258,2|2,1:2|0:2,0:0:0:0:
19,356,28027,2,0,L|31:253,1,103.999995239258,10|2,0:2|0:2,0:0:0:0:
247,214,28465,5,2,1:2:0:0:
212,222,28575,1,2,0:2:0:0:
179,231,28685,1,2,0:2:0:0:
273,330,28903,5,10,0:2:0:0:
308,338,29013,1,2,0:2:0:0:
341,347,29123,1,2,0:2:0:0:
494,254,29341,5,2,1:2:0:0:
497,374,29560,1,2,0:2:0:0:
338,227,29779,1,10,0:2:0:0:
341,347,29998,1,2,0:2:0:0:
491,134,30217,5,4,1:2:0:0:
491,134,30435,1,2,0:2:0:0:
219,60,30654,1,12,0:2:0:0:
219,60,30873,1,2,0:2:0:0:
348,14,31092,5,0,1:2:0:0:
355,45,31202,1,8,0:2:0:0:
362,76,31311,1,8,0:2:0:0:
369,107,31421,2,0,L|345:215,1,103.999995239258,0|0,1:2|1:2,0:0:0:0:
357,239,31749,1,8,0:2:0:0:
512,328,31968,6,0,P|453:314|406:356,1,120,6|0,0:1|1:2,0:0:0:0:
403,384,32406,1,0,3:2:0:0:
282,367,32625,1,0,3:2:0:0:
96,384,32844,1,10,0:2:0:0:
16,304,33063,1,0,3:2:0:0:
16,304,33173,1,8,0:2:0:0:
16,304,33282,1,0,3:2:0:0:
45,25,33720,5,10,0:2:0:0:
98,221,34049,1,8,0:2:0:0:
241,78,34377,1,8,0:2:0:0:
71,123,34596,5,2,3:2:0:0:
143,52,34925,1,0,3:2:0:0:
169,149,35253,1,0,3:2:0:0:
339,104,35472,5,0,1:2:0:0:
348,75,35691,1,0,1:2:0:0:
357,46,35910,1,0,1:2:0:0:
384,192,36129,1,0,1:2:0:0:
384,192,36238,1,0,1:2:0:0:
493,13,36567,5,2,0:2:0:0:
494,28,36676,1,2,0:2:0:0:
496,43,36786,1,2,0:2:0:0:
173,104,37224,5,0,1:2:0:0:
164,75,37443,1,0,1:2:0:0:
155,46,37662,1,0,1:2:0:0:
128,192,37881,1,0,1:2:0:0:
128,192,37990,1,0,1:2:0:0:
19,13,38319,5,2,0:2:0:0:
18,25,38392,1,2,0:2:0:0:
16,37,38465,1,2,0:2:0:0:
14,48,38538,1,2,0:2:0:0:
64,320,38976,6,0,B|121:328|121:328|133:349|133:349|210:360,1,143.999995605469,6|0,1:1|0:2,0:0:0:0:
205,352,39742,1,0,0:2:0:0:
215,346,39852,2,0,L|234:238,1,95.9999970703126,6|0,1:1|0:2,0:0:0:0:
240,243,40399,1,0,0:2:0:0:
248,235,40508,1,0,0:2:0:0:
352,288,40727,1,0,0:2:0:0:
480,224,40946,6,0,B|507:169|507:169|474:93,1,143.999995605469,6|0,1:2|0:2,0:0:0:0:
344,21,41275,2,0,B|317:76|317:76|349:151,1,143.999995605469,6|0,1:2|0:2,0:0:0:0:
352,288,41603,2,0,B|297:315|297:315|221:282,1,143.999995605469,6|0,1:2|0:2,0:0:0:0:
71,172,41932,2,0,B|126:145|126:145|201:177,1,143.999995605469,6|0,1:2|0:2,0:0:0:0:
283,351,42260,1,14,1:2:0:0:
283,351,42370,1,8,0:2:0:0:
283,351,42479,6,0,L|322:359,1,40,2|2,1:2|0:2,0:0:0:0:
416,384,42698,2,0,L|424:344,1,40,2|2,0:2|0:2,0:0:0:0:
503,285,42917,1,2,0:2:0:0:
444,177,43136,1,2,1:2:0:0:
512,64,43355,2,0,L|346:46,1,160,10|0,0:2|0:2,0:0:0:0:
256,96,44012,1,2,0:2:0:0:
329,187,44231,6,0,P|341:224|336:264,1,80,2|0,1:2|0:2,0:0:0:0:
290,321,44560,2,0,P|250:316|212:328,1,80,2|0,1:2|0:2,0:0:0:0:
164,384,44888,1,2,1:2:0:0:
0,320,45107,1,8,0:2:0:0:
32,128,45436,1,8,0:2:0:0:
16,224,45764,1,2,0:2:0:0:
16,224,45983,6,0,L|82:217,1,64,2|0,1:2|0:2,0:0:0:0:
111,243,46311,2,0,L|177:236,1,64,2|0,1:2|0:2,0:0:0:0:
206,210,46640,1,2,1:2:0:0:
256,352,46859,1,8,0:2:0:0:
256,352,47297,2,0,L|322:359,1,64,2|2,0:2|0:2,0:0:0:0:
480,320,47735,5,14,0:2:0:0:
480,320,47844,1,10,0:2:0:0:
480,320,47954,1,10,0:2:0:0:
283,166,48392,5,14,0:2:0:0:
287,197,48501,1,10,0:2:0:0:
292,228,48611,1,10,0:2:0:0:
448,128,49049,5,14,0:2:0:0:
454,81,49158,1,10,0:2:0:0:
461,35,49268,1,10,0:2:0:0:
195,11,49706,5,6,1:2:0:0:
332,192,49925,1,6,1:2:0:0:
107,221,50144,1,6,1:2:0:0:
315,62,50363,6,0,B|363:31|363:31|416:63,1,120,6|0,1:2|0:2,0:0:0:0:
420,183,50800,2,0,L|416:63,1,120,6|0,1:2|0:2,0:0:0:0:
512,320,51457,6,0,B|463:287|463:287|384:320,1,143.999995605469,6|0,1:2|0:2,0:0:0:0:
221,351,51786,2,0,B|188:302|188:302|221:223,1,143.999995605469,6|0,1:2|0:2,0:0:0:0:
336,112,52114,2,0,B|369:161|369:161|335:239,1,143.999995605469,6|0,1:2|0:2,0:0:0:0:
221,351,52443,2,0,B|172:384|172:384|93:350,1,143.999995605469,6|0,1:2|0:2,0:0:0:0:
16,272,52771,2,0,L|7:203,1,51.999997619629,6|0,1:2|0:2,0:0:0:0:
66,17,52990,5,14,1:2:0:0:
92,62,53099,1,10,0:2:0:0:
55,100,53209,1,10,0:2:0:0:
8,78,53318,1,10,0:2:0:0:
15,26,53428,1,4,1:2:0:0:
131,151,53647,5,10,0:2:0:0:
137,187,53757,1,14,0:2:0:0:
381,233,54085,5,10,0:2:0:0:
375,197,54304,1,10,0:2:0:0:
431,73,54523,2,0,L|450:68,3,20,2|0|0|0,1:2|1:2|1:2|1:2,0:0:0:0:
409,98,54742,6,0,P|369:98|329:91,1,80,6|2,1:2|0:2,0:0:0:0:
157,45,55180,2,0,P|196:38|236:38,1,80,10|2,0:2|0:2,0:0:0:0:
336,198,55618,1,2,1:2:0:0:
338,222,55727,1,0,0:2:0:0:
341,246,55836,1,0,0:2:0:0:
343,270,55946,1,0,0:2:0:0:
345,294,56055,1,8,0:2:0:0:
439,233,56275,1,2,0:2:0:0:
255,379,56494,5,2,1:2:0:0:
136,351,56713,1,2,0:2:0:0:
136,351,56822,1,2,0:2:0:0:
136,351,56932,1,10,0:2:0:0:
126,230,57151,1,2,0:2:0:0:
238,184,57370,2,0,L|267:216,1,40,2|8,1:2|0:2,0:0:0:0:
317,277,57589,1,2,0:2:0:0:
255,379,57808,1,10,0:2:0:0:
126,230,58027,1,2,0:2:0:0:
317,277,58246,6,0,L|323:235,3,40,2|0|2|0,1:2|0:2|0:2|0:2,0:0:0:0:
340,349,58684,1,8,0:2:0:0:
512,352,58903,1,2,0:2:0:0:
416,160,59122,1,2,1:2:0:0:
498,97,59341,1,2,0:2:0:0:
498,97,59450,1,0,1:2:0:0:
498,97,59560,1,8,0:2:0:0:
512,199,59779,1,2,1:2:0:0:
402,58,59998,5,2,1:2:0:0:
196,164,60326,1,0,1:2:0:0:
196,164,60435,1,8,0:2:0:0:
300,111,60654,1,0,1:2:0:0:
202,47,60873,1,0,1:2:0:0:
202,47,60983,2,0,L|110:39,1,80,8|0,0:2|1:2,0:0:0:0:
76,52,61311,1,8,0:2:0:0:
96,160,61530,2,0,L|92:199,1,40,0|0,1:2|1:2,0:0:0:0:
0,288,61749,5,2,1:2:0:0:
39,293,61858,1,2,1:2:0:0:
79,298,61967,1,2,1:2:0:0:
118,304,62077,1,2,1:2:0:0:
139,334,62187,5,2,1:2:0:0:
178,339,62296,1,2,1:2:0:0:
218,344,62405,1,2,1:2:0:0:
257,350,62515,1,2,1:2:0:0:
448,384,62844,6,0,L|444:339,1,40,0|0,3:2|3:2,0:0:0:0:
407,281,63063,1,2,0:2:0:0:
512,32,63501,5,2,1:2:0:0:
472,37,63610,1,2,1:2:0:0:
432,42,63719,1,2,1:2:0:0:
393,48,63829,1,2,1:2:0:0:
373,78,63939,5,2,1:2:0:0:
334,83,64048,1,2,1:2:0:0:
294,88,64157,1,2,1:2:0:0:
255,94,64267,1,2,1:2:0:0:
64,0,64596,6,0,L|68:45,1,40,2|0,3:2|3:2,0:0:0:0:
105,103,64815,1,2,0:2:0:0:
432,42,65253,6,0,L|495:33,2,64,6|0|0,1:1|0:2|0:2,0:0:0:0:
320,0,65910,1,0,1:2:0:0:
256,160,66129,2,0,L|193:151,1,64,10|0,0:2|1:2,0:0:0:0:
181,138,66457,1,0,0:2:0:0:
170,126,66567,1,0,0:2:0:0:
52,74,66786,1,0,0:2:0:0:
0,192,67005,5,2,1:2:0:0:
0,192,67114,1,0,0:2:0:0:
170,126,67333,1,0,1:2:0:0:
170,126,67442,1,2,0:2:0:0:
52,74,67662,1,2,1:2:0:0:
118,244,67881,1,10,0:2:0:0:
212,255,68100,1,2,0:2:0:0:
306,266,68319,1,2,0:2:0:0:
400,277,68538,1,2,0:2:0:0:
512,128,68757,5,10,0:2:0:0:
344,353,69195,1,8,0:2:0:0:
192,32,69633,1,8,0:2:0:0:
32,384,70071,1,8,0:2:0:0:
124,247,70290,5,2,1:2:0:0:
133,294,70399,1,2,1:2:0:0:
142,341,70508,1,14,0:2:0:0:
255,201,70727,5,2,1:2:0:0:
264,154,70836,1,2,1:2:0:0:
273,107,70945,1,14,0:2:0:0:
386,247,71166,5,2,1:2:0:0:
395,294,71275,1,2,1:2:0:0:
404,341,71384,1,14,0:2:0:0:
496,16,71822,5,2,0:2:0:0:
480,128,72041,5,2,0:2:0:0:
480,128,72151,1,2,0:2:0:0:
479,128,72260,2,0,P|424:150|365:153,1,120.000004577637,2|2,1:2|0:2,0:0:0:0:
160,32,72698,2,0,P|219:34|274:57,1,120.000004577637,10|2,0:2|0:2,0:0:0:0:
384,256,73136,1,6,1:2:0:0:
416,32,73355,1,6,1:2:0:0:
193,138,73574,1,6,1:2:0:0:
385,142,73793,1,2,0:2:0:0:
385,142,73903,1,2,0:2:0:0:
385,142,74012,6,0,L|509:167,1,120.000004577637,6|2,1:2|0:2,0:0:0:0:
165,247,74450,2,0,L|47:223,1,120.000004577637,10|2,0:2|0:2,0:0:0:0:
224,64,74888,1,6,1:2:0:0:
272,288,75107,1,6,1:2:0:0:
512,256,75326,1,6,1:2:0:0:
382,371,75545,1,2,0:2:0:0:
382,371,75654,1,2,0:2:0:0:
382,371,75764,6,0,L|403:192,1,180.000006866455,6|0,1:2|0:2,0:0:0:0:
434,169,76202,1,10,0:2:0:0:
256,320,76421,1,2,0:2:0:0:
256,320,76530,1,2,0:2:0:0:
256,320,76640,2,0,L|137:336,1,120.000004577637,2|0,1:2|0:0,0:0:0:0:
0,256,77078,5,10,0:2:0:0:
36,177,77224,5,2,0:2:0:0:
119,153,77370,5,2,0:2:0:0:
191,202,77516,6,0,P|254:232|358:104,1,240.000009155274,2|8,1:2|0:2,0:0:0:0:
352,0,78173,1,2,0:2:0:0:
448,224,78392,1,2,1:2:0:0:
448,224,78501,1,8,0:2:0:0:
269,145,78720,1,0,1:2:0:0:
269,145,78830,1,8,0:2:0:0:
169,314,79049,1,2,1:2:0:0:
169,314,79158,1,2,0:2:0:0:
168,314,79268,6,0,P|113:332|59:307,1,120.000004577637,6|2,1:2|0:2,0:0:0:0:
105,85,79706,2,0,L|118:204,1,120.000004577637,10|2,0:2|0:2,0:0:0:0:
224,384,80144,1,6,1:2:0:0:
0,256,80363,1,6,1:2:0:0:
269,145,80581,1,6,1:2:0:0:
134,134,80800,1,2,0:2:0:0:
134,134,80910,1,2,0:2:0:0:
134,134,81019,6,0,B|109:79|109:79|136:26,1,120.000004577637,6|2,1:2|0:2,0:0:0:0:
349,96,81457,2,0,B|376:148|376:148|351:203,1,120.000004577637,10|2,0:2|0:2,0:0:0:0:
192,288,81895,1,6,1:2:0:0:
448,352,82114,1,6,1:2:0:0:
280,161,82333,1,6,1:2:0:0:
320,320,82552,1,2,0:2:0:0:
64,256,82771,6,0,L|33:14,1,240.000009155274,2|8,1:2|0:2,0:0:0:0:
33,17,83428,1,2,0:2:0:0:
220,252,83647,2,0,L|251:10,1,240.000009155274,2|8,1:2|0:2,0:0:0:0:
512,64,84304,1,2,3:2:0:0:
477,76,84414,1,2,3:2:0:0:
443,88,84523,1,6,1:2:0:0:
512,192,84742,1,2,0:2:0:0:
347,51,84961,1,14,0:2:0:0:
308,265,85180,1,2,0:2:0:0:
143,124,85399,6,0,L|201:135,1,60.0000022888184,14|8,0:2|0:2,0:0:0:0:
512,192,85618,2,0,L|453:180,1,60.0000022888184,6|0,1:2|1:2,0:0:0:0:
328,158,85837,1,6,1:2:0:0:
328,158,86056,1,0,1:2:0:0:
6,268,86275,5,10,0:3:0:0:
103,300,86421,1,10,0:3:0:0:
84,197,86567,1,10,0:3:0:0:
25,369,86713,5,10,0:3:0:0:
502,280,87151,5,6,0:3:0:0:
427,305,87297,1,6,0:3:0:0:
442,226,87443,1,6,0:3:0:0:
487,358,87589,5,4,0:3:0:0:
512,105,88027,6,0,P|468:76|416:85,1,106.666666666667,10|6,0:3|0:3,0:0:0:0:
361,133,88465,2,0,P|317:161|265:152,1,106.666666666667,10|6,0:3|0:3,0:0:0:0:
122,123,88903,2,0,P|199:110|265:152,1,160,10|14,0:3|0:0,0:0:0:0:
502,104,89779,5,6,0:3:0:0:
427,79,89925,1,6,0:3:0:0:
442,158,90071,1,6,0:3:0:0:
487,26,90217,5,6,0:3:0:0:
6,116,90654,5,10,0:3:0:0:
103,84,90800,1,10,0:3:0:0:
84,187,90946,1,10,0:3:0:0:
25,15,91092,5,10,0:3:0:0:
183,152,91384,5,10,0:3:0:0:
214,140,91530,1,6,0:3:0:0:
352,256,91822,1,10,0:3:0:0:
321,244,91968,1,6,0:3:0:0:
183,360,92260,1,10,0:3:0:0:
214,348,92406,1,6,0:3:0:0:
320,0,92844,1,14,0:2:0:0:
448,352,93282,5,6,1:2:0:0:
352,144,93501,1,6,1:2:0:0:
224,384,93720,1,6,1:2:0:0:
301,289,93939,1,0,0:2:0:0:
321,286,94049,1,0,0:2:0:0:
341,283,94158,1,0,0:2:0:0:
361,280,94268,1,0,0:2:0:0:
448,352,94487,1,0,0:2:0:0:
483,261,94706,1,0,0:2:0:0:
503,258,94815,1,0,0:2:0:0:
503,151,95034,5,6,1:2:0:0:
369,363,95253,1,6,1:2:0:0:
273,107,95472,1,6,1:2:0:0:
192,192,95691,2,0,L|141:201,1,40,0|0,0:2|0:2,0:0:0:0:
85,238,95910,1,0,0:2:0:0:
82,258,96019,1,0,0:2:0:0:
26,322,96238,1,0,0:2:0:0:
83,384,96457,2,0,L|191:367,1,100,0|0,0:2|0:2,0:0:0:0:
213,384,96786,5,6,1:2:0:0:
400,272,97005,1,6,1:2:0:0:
152,198,97224,1,6,1:2:0:0:
303,119,97443,1,0,0:2:0:0:
300,139,97553,1,0,0:2:0:0:
297,159,97662,1,0,0:2:0:0:
294,179,97772,1,0,0:2:0:0:
241,258,97990,1,0,0:2:0:0:
304,337,98209,1,0,0:2:0:0:
301,357,98319,1,0,0:2:0:0:
416,384,98538,6,0,B|458:341|458:341|440:275,1,128,6|0,1:1|0:2,0:0:0:0:
96,384,99414,2,0,B|54:341|54:341|71:275,1,128,6|0,1:1|0:2,0:0:0:0:
256,0,100290,5,6,1:2:0:0:
256,192,100509,1,6,1:2:0:0:
256,384,100728,1,6,1:2:0:0:
375,304,100946,1,0,0:2:0:0:
335,298,101055,1,0,0:2:0:0:
295,293,101164,1,8,0:2:0:0:
256,288,101274,1,0,0:2:0:0:
160,352,101494,1,8,0:2:0:0:
49,315,101714,1,0,0:2:0:0:
37,286,101823,1,8,0:2:0:0:
64,160,102042,5,6,1:2:0:0:
160,352,102261,1,6,1:2:0:0:
279,173,102479,1,6,1:2:0:0:
168,229,102698,1,8,0:2:0:0:
271,297,102917,1,8,0:2:0:0:
351,289,103247,1,8,0:2:0:0:
430,280,103574,1,8,0:2:0:0:
512,192,103793,6,0,L|518:145,1,40,4|2,1:2|0:2,0:0:0:0:
456,113,104012,2,0,L|450:66,1,40,4|2,1:2|0:2,0:0:0:0:
490,11,104231,1,4,1:2:0:0:
352,128,104451,1,8,0:2:0:0:
272,48,104670,1,8,0:2:0:0:
193,63,104998,1,8,0:2:0:0:
114,78,105327,1,8,0:2:0:0:
107,92,105400,1,8,0:2:0:0:
101,106,105473,1,8,0:2:0:0:
95,120,105545,6,0,L|87:199,1,80,6|0,1:2|0:2,0:0:0:0:
0,320,105984,1,2,0:2:0:0:
0,320,106092,1,8,0:2:0:0:
0,320,106203,1,8,0:2:0:0:
137,363,106422,5,10,0:2:0:0:
177,367,106531,1,8,0:2:0:0:
217,371,106640,1,8,0:2:0:0:
256,375,106750,1,8,0:2:0:0:
296,380,106860,5,10,0:2:0:0:
291,332,106969,1,8,0:2:0:0:
285,284,107078,1,8,0:2:0:0:
280,236,107188,1,8,0:2:0:0:
275,188,107298,6,0,L|223:177,2,51.999997619629,6|2|2,1:2|0:2|0:2,0:0:0:0:
384,96,107736,1,10,0:2:0:0:
410,237,107954,1,2,0:2:0:0:
293,108,108173,5,2,1:2:0:0:
284,75,108282,1,2,0:2:0:0:
276,40,108392,1,2,0:2:0:0:
466,150,108611,5,10,0:2:0:0:
475,117,108720,1,2,0:2:0:0:
483,82,108830,1,2,0:2:0:0:
448,288,109049,6,0,P|398:298|346:298,1,103.999995239258,2|2,1:2|0:2,0:0:0:0:
64,96,109487,2,0,P|114:86|166:86,1,103.999995239258,10|2,0:2|0:2,0:0:0:0:
150,281,109925,2,0,P|149:333|159:383,1,103.999995239258,2|2,1:2|0:2,0:0:0:0:
361,102,110362,2,0,P|362:50|352:0,1,103.999995239258,10|2,0:2|0:2,0:0:0:0:
149,18,110800,5,2,1:2:0:0:
157,53,110910,1,2,0:2:0:0:
166,86,111019,1,2,0:2:0:0:
28,193,111238,5,10,0:2:0:0:
37,160,111347,1,2,0:2:0:0:
45,125,111457,1,2,0:2:0:0:
147,196,111677,5,2,1:2:0:0:
28,29,111896,1,2,0:2:0:0:
201,78,112114,5,10,0:2:0:0:
166,86,112224,1,2,0:2:0:0:
133,95,112333,1,2,0:2:0:0:
0,192,112553,5,4,1:2:0:0:
0,192,112772,1,2,0:2:0:0:
229,288,112991,1,4,1:2:0:0:
229,288,113210,1,2,0:2:0:0:
153,384,113429,5,0,1:2:0:0:
146,353,113539,1,8,0:2:0:0:
139,322,113648,1,10,0:2:0:0:
132,291,113758,2,0,L|156:183,1,103.999995239258,0|8,1:2|0:2,0:0:0:0:
144,159,114086,1,2,1:2:0:0:
0,217,114304,5,6,1:2:0:0:
33,208,114414,1,2,0:2:0:0:
68,200,114523,1,2,0:2:0:0:
219,270,114742,1,10,0:2:0:0:
314,167,114961,1,2,0:2:0:0:
428,271,115180,5,2,1:2:0:0:
463,279,115290,1,2,0:2:0:0:
496,288,115399,1,2,0:2:0:0:
382,150,115618,5,10,0:2:0:0:
347,158,115727,1,2,0:2:0:0:
314,167,115837,1,2,0:2:0:0:
344,296,116056,6,0,P|396:298|446:288,1,103.999995239258,2|2,1:2|0:2,0:0:0:0:
166,86,116494,2,0,P|114:84|64:94,1,103.999995239258,10|2,0:2|0:2,0:0:0:0:
350,0,116932,2,0,P|361:49|361:101,1,103.999995239258,2|2,1:2|0:2,0:0:0:0:
159,383,117370,2,0,P|148:332|149:281,1,103.999995239258,10|2,0:2|0:2,0:0:0:0:
12,244,117809,5,2,1:2:0:0:
31,274,117917,1,2,0:2:0:0:
48,304,118027,1,2,0:2:0:0:
238,266,118246,5,10,0:2:0:0:
221,236,118355,1,2,0:2:0:0:
202,206,118465,1,2,0:2:0:0:
86,98,118685,5,2,1:2:0:0:
103,216,118904,1,2,0:2:0:0:
240,74,119122,1,10,0:2:0:0:
202,206,119341,1,2,0:2:0:0:
352,160,119561,5,4,1:2:0:0:
352,160,119779,1,2,0:2:0:0:
188,323,119998,1,4,1:2:0:0:
188,323,120217,1,2,0:2:0:0:
261,384,120436,5,0,1:2:0:0:
268,353,120546,1,8,0:2:0:0:
275,322,120655,1,8,0:2:0:0:
282,291,120765,2,0,L|258:183,1,103.999995239258,0|8,1:2|0:2,0:0:0:0:
270,159,121093,1,0,1:2:0:0:
512,56,121312,6,0,B|479:67|479:67|396:31,1,120,6|0,1:2|1:2,0:0:0:0:
382,0,121750,1,0,3:2:0:0:
256,96,121969,1,0,1:2:0:0:
130,0,122187,1,10,0:2:0:0:
256,0,122407,1,0,3:2:0:0:
256,0,122517,1,8,0:2:0:0:
256,0,122626,1,0,1:2:0:0:
45,359,123064,5,10,0:2:0:0:
98,163,123393,1,8,0:2:0:0:
241,306,123721,1,8,0:2:0:0:
71,261,123940,5,10,0:2:0:0:
143,332,124269,1,8,0:2:0:0:
169,235,124597,1,8,0:2:0:0:
256,192,124815,12,0,125800,0:2:0:0:
493,371,125910,5,8,0:3:0:0:
494,356,126019,1,8,0:3:0:0:
495,341,126129,1,8,0:3:0:0:
256,192,126567,12,2,127552,0:2:0:0:
463,72,127662,5,8,0:3:0:0:
466,87,127771,1,8,0:3:0:0:
469,103,127881,1,8,0:3:0:0:
416,256,128100,1,2,0:2:0:0:
416,256,128209,1,2,0:0:0:0:
416,256,128319,6,0,B|378:278|378:278|339:240|351:185,1,143.999995605469,6|0,1:1|1:2,0:0:0:0:
363,172,129085,1,0,0:0:0:0:
375,157,129195,2,0,L|267:174,1,95.9999970703126,8|0,0:2|0:2,0:0:0:0:
261,167,129742,1,0,0:2:0:0:
242,162,129852,1,0,0:2:0:0:
160,224,130071,1,0,0:2:0:0:
32,224,130290,6,0,B|5:169|5:169|38:93,1,143.999995605469,6|0,1:2|0:2,0:0:0:0:
168,21,130619,2,0,B|195:76|195:76|163:151,1,143.999995605469,6|0,1:2|0:2,0:0:0:0:
160,288,130947,2,0,B|215:315|215:315|291:282,1,143.999995605469,6|0,1:2|0:2,0:0:0:0:
441,172,131276,2,0,B|386:145|386:145|311:177,1,143.999995605469,6|0,1:2|0:2,0:0:0:0:
229,351,131604,1,14,0:2:0:0:
229,351,131714,1,8,0:2:0:0:
229,351,131822,6,0,L|190:343,1,40,6|2,1:2|0:2,0:0:0:0:
95,384,132041,2,0,L|56:376,1,40,2|2,0:2|0:2,0:0:0:0:
0,288,132260,1,2,1:2:0:0:
64,160,132479,1,2,0:2:0:0:
0,32,132698,1,8,0:2:0:0:
256,64,133027,1,8,0:2:0:0:
256,64,133136,1,0,1:2:0:0:
352,0,133355,1,2,0:2:0:0:
448,96,133574,6,0,P|461:133|468:172,1,80,2|0,1:2|0:0,0:0:0:0:
365,236,133903,2,0,P|372:196|385:159,1,80,2|0,0:2|0:0,0:0:0:0:
358,86,134231,1,2,0:2:0:0:
455,255,134450,1,8,0:2:0:0:
224,320,134779,1,8,0:2:0:0:
224,320,134889,1,0,0:0:0:0:
382,384,135107,1,10,0:2:0:0:
386,352,135217,1,8,0:2:0:0:
390,320,135326,6,0,L|374:242,1,80,2|0,1:2|0:0,0:0:0:0:
471,177,135654,2,0,L|455:255,1,80,2|0,0:2|0:0,0:0:0:0:
485,330,135983,1,2,0:2:0:0:
376,152,136202,1,8,0:2:0:0:
160,320,136530,1,8,0:2:0:0:
159,320,136640,2,0,P|121:329|81:330,1,80,2|2,1:2|0:2,0:0:0:0:
0,224,137078,5,14,0:2:0:0:
0,224,137187,1,10,0:2:0:0:
0,224,137297,1,10,0:2:0:0:
229,166,137735,5,14,0:2:0:0:
225,197,137844,1,10,0:2:0:0:
220,228,137954,1,10,0:2:0:0:
448,160,138392,5,14,0:2:0:0:
442,113,138501,1,10,0:2:0:0:
435,67,138611,1,10,0:2:0:0:
512,256,139049,5,6,1:2:0:0:
288,96,139268,1,6,1:2:0:0:
512,0,139487,1,6,1:2:0:0:
352,256,139706,2,0,B|302:293|302:293|246:278,1,120,6|0,1:2|0:2,0:0:0:0:
118,275,140144,2,0,B|168:238|168:238|223:252,1,120,6|0,1:2|0:2,0:0:0:0:
480,352,140800,6,0,B|507:297|507:297|474:221,1,143.999995605469,6|0,1:2|0:2,0:0:0:0:
374,78,141129,2,0,B|347:133|347:133|379:208,1,143.999995605469,6|0,1:2|0:2,0:0:0:0:
347,326,141457,2,0,B|292:353|292:353|216:320,1,143.999995605469,6|0,1:2|0:2,0:0:0:0:
20,227,141786,2,0,B|75:200|75:200|150:232,1,143.999995605469,6|0,1:2|0:2,0:0:0:0:
267,360,142114,2,0,L|195:369,1,71.9999978027344,6|0,1:2|0:2,0:0:0:0:
37,366,142333,5,14,0:2:0:0:
30,314,142443,1,8,0:2:0:0:
77,292,142552,1,8,0:2:0:0:
114,330,142662,1,8,0:2:0:0:
88,375,142771,1,6,1:2:0:0:
0,192,142990,1,8,0:2:0:0:
0,192,143100,1,12,0:2:0:0:
224,256,143428,1,10,0:2:0:0:
224,256,143647,1,10,0:2:0:0:
192,160,143866,2,0,L|196:133,3,20,0|0|0|0,1:2|1:2|1:2|1:2,0:0:0:0:
158,106,144085,6,0,P|195:118|235:122,1,80,6|2,1:2|0:2,0:0:0:0:
416,0,144523,2,0,P|403:37|399:77,1,80,10|2,0:2|0:2,0:0:0:0:
482,223,144961,1,2,1:2:0:0:
487,246,145070,1,0,0:2:0:0:
483,270,145179,1,0,0:2:0:0:
472,291,145289,1,0,0:2:0:0:
455,308,145398,1,10,0:2:0:0:
352,256,145618,1,2,0:2:0:0:
256,352,145837,5,2,1:2:0:0:
240,256,146056,1,2,0:2:0:0:
240,256,146165,1,2,0:2:0:0:
240,256,146275,1,10,0:2:0:0:
224,160,146494,1,2,0:2:0:0:
207,64,146713,2,0,L|161:47,1,40,2|8,1:2|0:2,0:0:0:0:
64,17,146932,1,2,0:2:0:0:
80,113,147151,1,10,0:2:0:0:
96,209,147370,1,2,0:2:0:0:
292,90,147589,6,0,L|330:78,3,40,2|0|2|0,1:2|0:2|0:2|0:2,0:0:0:0:
368,16,148027,1,8,0:2:0:0:
512,128,148246,1,2,0:2:0:0:
352,256,148465,1,2,1:2:0:0:
480,352,148684,1,2,0:2:0:0:
480,352,148793,1,0,1:2:0:0:
480,352,148903,1,8,0:2:0:0:
432,192,149122,1,2,1:2:0:0:
272,320,149341,5,2,1:2:0:0:
0,256,149669,1,0,1:2:0:0:
0,256,149779,1,8,0:2:0:0:
136,288,149998,1,0,1:2:0:0:
86,172,150217,1,0,1:2:0:0:
85,171,150326,2,0,P|74:132|74:92,1,80,8|0,0:2|1:2,0:0:0:0:
93,57,150654,1,8,0:2:0:0:
192,160,150873,2,0,L|242:152,1,40,0|0,1:0|1:0,0:0:0:0:
324,41,151092,5,6,1:2:0:0:
366,36,151201,1,2,1:2:0:0:
410,32,151310,1,2,1:2:0:0:
454,27,151420,1,2,1:2:0:0:
487,52,151530,5,2,1:2:0:0:
492,96,151640,1,2,1:2:0:0:
496,140,151749,1,2,1:2:0:0:
501,182,151858,1,2,1:2:0:0:
448,384,152187,6,0,L|441:341,1,40,2|0,1:2|1:2,0:0:0:0:
384,288,152406,1,2,0:2:0:0:
188,343,152844,5,2,1:2:0:0:
146,348,152953,1,2,1:2:0:0:
102,352,153062,1,2,1:2:0:0:
58,357,153172,1,2,1:2:0:0:
25,332,153282,5,2,1:2:0:0:
20,288,153392,1,2,1:2:0:0:
16,244,153501,1,2,1:2:0:0:
11,202,153610,1,2,1:2:0:0:
64,0,153939,6,0,L|71:43,1,40,2|0,1:2|1:2,0:0:0:0:
128,96,154158,1,2,0:2:0:0:
80,342,154596,6,0,L|17:351,2,64,6|0|0,1:1|0:2|0:2,0:0:0:0:
192,384,155253,1,0,1:2:0:0:
256,224,155472,2,0,L|319:233,1,64,10|0,0:2|1:2,0:0:0:0:
331,246,155800,1,0,0:2:0:0:
342,258,155910,1,0,0:2:0:0:
460,310,156129,1,0,0:2:0:0:
512,192,156348,5,2,1:2:0:0:
512,192,156457,1,0,0:2:0:0:
342,258,156676,1,0,1:2:0:0:
342,258,156785,1,2,0:2:0:0:
460,310,157005,1,2,1:2:0:0:
394,140,157224,1,10,0:2:0:0:
300,129,157443,1,2,0:2:0:0:
206,118,157662,1,2,0:2:0:0:
112,107,157881,1,2,0:2:0:0:
0,256,158100,5,8,0:2:0:0:
168,31,158538,1,8,0:2:0:0:
320,352,158976,1,8,0:2:0:0:
480,0,159414,1,8,0:2:0:0:
496,144,159633,5,2,1:2:0:0:
449,134,159742,1,2,1:2:0:0:
401,124,159852,1,14,0:2:0:0:
320,256,160071,5,2,1:2:0:0:
272,266,160181,1,2,1:2:0:0:
225,276,160290,1,14,0:2:0:0:
160,96,160508,5,2,1:2:0:0:
113,86,160617,1,2,1:2:0:0:
65,76,160727,1,14,0:2:0:0:
0,384,161165,5,2,0:2:0:0:
107,294,161384,5,2,0:2:0:0:
107,294,161494,1,2,0:2:0:0:
106,293,161603,2,0,L|225:276,1,120.000004577637,6|2,1:2|0:2,0:0:0:0:
480,352,162041,2,0,L|361:334,1,120.000004577637,10|2,0:2|0:2,0:0:0:0:
256,192,162479,2,0,L|247:132,1,60.0000022888184,6|2,1:2|0:2,0:0:0:0:
336,16,162698,2,0,L|345:76,1,60.0000022888184,6|2,1:2|0:2,0:0:0:0:
423,182,162917,1,6,1:2:0:0:
497,87,163136,5,2,0:2:0:0:
497,87,163246,1,2,0:2:0:0:
497,87,163355,1,6,1:2:0:0:
341,195,163574,1,2,0:2:0:0:
341,195,163684,1,2,0:2:0:0:
341,195,163793,2,0,P|320:264|311:324,1,120.000004577637,10|2,0:2|0:2,0:0:0:0:
192,384,164231,2,0,L|132:373,1,60.0000022888184,6|2,1:2|0:2,0:0:0:0:
0,288,164450,2,0,L|59:298,1,60.0000022888184,6|2,1:2|0:2,0:0:0:0:
192,256,164669,1,6,1:2:0:0:
96,192,164888,1,2,0:2:0:0:
192,31,165107,6,0,P|304:-1|413:44,1,240.000009155274,6|8,1:2|0:2,0:0:0:0:
480,192,165764,1,2,0:2:0:0:
480,192,165873,1,2,0:2:0:0:
480,192,165983,2,0,L|361:176,1,120.000004577637,0|0,1:2|0:0,0:0:0:0:
241,22,166421,5,10,0:2:0:0:
162,58,166567,5,2,0:2:0:0:
138,141,166713,5,2,0:2:0:0:
187,213,166859,6,0,P|217:276|89:380,1,240.000009155274,2|10,1:2|0:2,0:0:0:0:
0,352,167516,1,2,0:2:0:0:
64,192,167735,1,2,1:2:0:0:
64,192,167844,1,8,0:2:0:0:
0,64,168063,1,0,1:2:0:0:
0,64,168173,1,8,0:2:0:0:
142,72,168392,1,2,0:2:0:0:
142,72,168502,1,2,0:2:0:0:
142,72,168611,6,0,L|259:45,1,120.000004577637,6|2,1:2|0:2,0:0:0:0:
512,96,169049,2,0,L|394:122,1,120.000004577637,10|2,0:2|0:2,0:0:0:0:
320,288,169487,1,6,1:2:0:0:
512,221,169706,1,6,1:2:0:0:
327,83,169925,1,6,1:2:0:0:
420,263,170144,1,2,0:2:0:0:
420,263,170253,1,2,0:2:0:0:
420,263,170363,6,0,P|413:322|395:379,1,120.000004577637,6|2,1:2|0:2,0:0:0:0:
128,320,170800,2,0,P|185:302|244:295,1,120.000004577637,10|2,0:2|0:2,0:0:0:0:
416,160,171238,1,6,1:2:0:0:
192,64,171457,1,6,1:2:0:0:
244,295,171676,1,6,1:2:0:0:
284,167,171895,1,2,0:2:0:0:
87,244,172114,6,0,P|0:175|46:74,1,240.000009155274,2|8,1:2|0:2,0:0:0:0:
46,74,172771,1,2,0:2:0:0:
88,245,172990,2,0,L|326:270,1,240.000009155274,0|8,1:2|0:2,0:0:0:0:
512,371,173647,1,2,3:2:0:0:
477,359,173757,1,2,3:2:0:0:
443,347,173866,1,6,1:2:0:0:
512,243,174085,1,2,0:2:0:0:
347,384,174304,1,14,0:2:0:0:
308,170,174523,1,2,0:2:0:0:
143,311,174742,6,0,L|201:300,1,60.0000022888184,14|8,0:2|0:2,0:0:0:0:
512,243,174961,2,0,L|453:255,1,60.0000022888184,6|0,1:2|1:2,0:0:0:0:
328,277,175180,1,6,1:2:0:0:
32,64,175618,6,0,P|46:77|55:95,1,40,4|0,1:2|1:2,0:0:0:0:
192,32,175946,2,0,P|192:51|186:70,1,40,0|8,1:2|0:2,0:0:0:0:
327,122,176275,2,0,P|313:136|295:145,1,40,0|0,1:2|1:2,0:0:0:0:
224,192,176494,5,2,0:2:0:0:
216,223,176603,1,10,0:2:0:0:
352,288,176822,5,2,0:2:0:0:
344,257,176931,1,10,0:2:0:0:
224,322,177151,5,2,0:2:0:0:
216,353,177260,1,10,0:2:0:0:
204,384,177370,2,0,L|164:378,1,40,0|0,1:2|1:2,0:0:0:0:
0,256,177698,2,0,L|39:261,1,40,0|8,1:2|0:2,0:0:0:0:
192,192,178027,1,0,1:2:0:0:
197,172,178136,1,0,1:2:0:0:
203,152,178246,1,0,1:2:0:0:
209,133,178355,1,8,0:2:0:0:
141,79,178574,1,0,1:2:0:0:
135,60,178683,1,8,0:2:0:0:
224,0,178903,2,0,L|263:6,1,40,10|8,0:2|0:2,0:0:0:0:
416,0,179122,5,2,1:2:0:0:
416,0,179231,1,0,1:2:0:0:
320,96,179450,1,2,1:2:0:0:
320,96,179560,1,8,0:2:0:0:
452,132,179779,1,2,1:2:0:0:
452,132,179888,2,0,P|465:169|474:208,1,80,0|8,1:2|0:2,0:0:0:0:
466,253,180217,1,2,1:2:0:0:
256,192,180435,1,10,0:2:0:0:
352,384,180654,1,2,1:2:0:0:
354,162,180873,5,2,1:2:0:0:
354,162,180983,1,0,1:2:0:0:
158,222,181202,1,2,1:2:0:0:
158,222,181312,1,8,0:2:0:0:
109,23,181530,1,2,1:2:0:0:
109,23,181640,2,0,L|23:7,1,80,2|10,1:2|0:2,0:0:0:0:
0,46,181968,1,2,1:2:0:0:
12,151,182187,1,2,0:2:0:0:
24,256,182406,2,0,L|69:269,1,40,10|8,0:2|0:2,0:0:0:0:
160,352,182625,5,6,1:2:0:0:
160,352,182735,1,2,0:2:0:0:
160,352,182844,1,2,0:2:0:0:
256,288,183063,2,0,L|247:245,2,40,10|2|2,0:2|0:2|0:2,0:0:0:0:
352,352,183501,1,2,1:2:0:0:
352,352,183611,1,2,0:2:0:0:
352,352,183720,1,2,0:2:0:0:
448,288,183939,2,0,L|486:299,2,40,10|2|2,0:2|0:2|0:2,0:0:0:0:
384,192,184377,5,2,1:2:0:0:
379,162,184487,1,2,0:2:0:0:
374,132,184596,1,2,0:2:0:0:
260,36,184815,1,10,0:2:0:0:
256,60,184924,1,2,0:2:0:0:
251,84,185034,1,2,0:2:0:0:
177,185,185253,1,2,1:2:0:0:
162,188,185362,1,10,0:2:0:0:
147,191,185472,2,0,L|99:182,1,47.9999985351563,2|0,0:2|1:2,0:0:0:0:
0,285,185691,1,10,0:2:0:0:
15,288,185800,1,2,0:2:0:0:
30,291,185910,2,0,L|77:282,1,47.9999985351563,10|8,0:2|0:2,0:0:0:0:
208,368,186129,6,0,B|247:386|247:386|304:357|291:268,1,180.000006866455,6|8,1:2|0:2,0:0:0:0:
261,237,186567,1,8,0:2:0:0:
387,199,186786,1,8,0:2:0:0:
512,160,187005,1,8,0:2:0:0:
256,32,187333,1,8,0:2:0:0:
256,32,187443,2,0,B|204:63|204:63|148:41,1,120.000004577637,0|8,1:2|0:2,0:0:0:0:
32,128,187881,5,10,0:2:0:0:
0,288,188100,1,10,0:2:0:0:
160,128,188319,1,10,0:2:0:0:
128,288,188538,1,10,0:2:0:0:
288,128,188757,1,10,0:2:0:0:
341,103,188866,1,10,0:2:0:0:
397,120,188975,1,10,0:2:0:0:
426,171,189085,1,10,0:2:0:0:
414,228,189194,1,10,0:2:0:0:
23,225,198392,6,0,P|10:184|12:143,2,83.9999974365235,4|8|8,1:2|0:2|0:2,0:0:0:0:
80,288,199268,1,6,1:2:0:0:
256,264,199487,1,6,1:2:0:0:
432,240,199706,1,6,1:2:0:0:
358,339,199925,1,0,0:2:0:0:
358,339,200034,1,0,0:2:0:0:
358,339,200144,6,0,L|343:257,2,83.9999974365235,0|8|8,1:2|0:2|0:2,0:0:0:0:
427,384,201019,1,6,1:2:0:0:
403,208,201238,1,6,1:2:0:0:
379,32,201457,1,6,1:2:0:0:
480,64,201676,1,2,0:2:0:0:
256,128,201895,5,2,1:2:0:0:
512,256,202224,1,8,0:2:0:0:
512,256,202333,1,0,1:2:0:0:
496,160,202552,1,2,0:2:0:0:
448,352,202771,1,2,1:2:0:0:
192,384,203100,1,8,0:2:0:0:
192,384,203209,1,0,1:2:0:0:
256,288,203428,5,8,0:2:0:0:
261,266,203538,1,8,0:2:0:0:
266,244,203647,1,8,0:2:0:0:
128,256,203866,1,8,0:2:0:0:
123,234,203976,1,8,0:2:0:0:
188,149,204195,1,8,0:2:0:0:
183,127,204305,1,8,0:2:0:0:
118,42,204523,6,0,L|54:32,1,60.0000022888184,6|0,1:2|0:2,0:0:0:0:
0,128,204742,2,0,L|59:137,1,60.0000022888184,6|0,1:2|0:2,0:0:0:0:
183,127,204961,1,10,0:2:0:0:
226,117,205070,1,8,0:2:0:0:
270,107,205179,1,8,1:2:0:0:
314,97,205289,1,8,1:2:0:0:
358,87,205399,6,0,B|400:130|400:130|383:191,1,120.000004577637,6|2,1:2|0:2,0:0:0:0:
192,384,205837,2,0,B|167:329|167:329|204:277,1,120.000004577637,10|2,0:2|0:2,0:0:0:0:
384,320,206275,1,6,1:2:0:0:
256,160,206494,1,6,1:2:0:0:
96,289,206713,1,6,1:2:0:0:
6,232,206932,1,2,1:2:0:0:
6,232,207041,1,2,1:2:0:0:
5,231,207151,6,0,P|-15:175|-24:116,1,120.000004577637,6|2,1:2|0:2,0:0:0:0:
192,0,207589,2,0,P|170:56|161:115,1,120.000004577637,10|2,0:2|0:2,0:0:0:0:
192,288,208027,1,6,1:2:0:0:
416,192,208246,1,6,1:2:0:0:
161,115,208465,1,6,1:2:0:0:
246,206,208684,1,2,1:2:0:0:
246,206,208793,1,2,1:2:0:0:
246,206,208903,6,0,L|285:14,1,180.000006866455,6|0,1:2|0:2,0:0:0:0:
319,0,209341,1,10,0:2:0:0:
480,64,209560,1,2,0:2:0:0:
480,64,209669,1,2,0:2:0:0:
480,64,209779,2,0,L|456:181,1,120.000004577637,2|0,1:2|0:0,0:0:0:0:
512,352,210217,5,10,0:2:0:0:
419,338,210363,5,2,0:2:0:0:
326,324,210508,5,2,0:2:0:0:
233,310,210654,6,0,B|203:250|203:250|255:149,1,180.000006866455,2|0,1:2|1:2,0:0:0:0:
293,140,211092,1,8,0:2:0:0:
224,32,211311,2,0,L|155:22,1,60.0000022888184,2|0,0:2|1:2,0:0:0:0:
40,105,211530,1,0,1:2:0:0:
2,151,211639,1,8,0:2:0:0:
35,202,211749,1,0,1:2:0:0:
93,187,211858,1,0,1:2:0:0:
96,126,211968,1,8,0:2:0:0:
0,288,212187,1,2,1:2:0:0:
0,288,212297,1,2,1:2:0:0:
0,288,212406,6,0,P|11:345|60:377,1,120.000004577637,6|2,1:2|0:2,0:0:0:0:
320,384,212844,2,0,P|308:326|259:294,1,120.000004577637,10|2,0:2|0:2,0:0:0:0:
75,303,213282,1,6,1:2:0:0:
256,160,213501,1,6,1:2:0:0:
437,303,213720,1,6,1:2:0:0:
512,224,213939,1,2,1:2:0:0:
512,224,214049,1,2,1:2:0:0:
512,224,214158,6,0,L|527:104,1,120.000004577637,6|2,1:2|0:2,0:0:0:0:
274,265,214596,2,0,L|258:384,1,120.000004577637,10|2,0:2|0:2,0:0:0:0:
32,352,215034,1,6,1:2:0:0:
274,265,215253,1,6,1:2:0:0:
0,192,215472,1,6,1:2:0:0:
64,96,215691,1,2,1:2:0:0:
64,96,215800,1,0,1:2:0:0:
64,95,215910,6,0,L|329:67,1,240.000009155274,6|8,1:2|0:2,0:0:0:0:
302,69,216567,1,2,0:2:0:0:
128,192,216786,2,0,L|366:218,1,240.000009155274,0|8,1:2|0:2,0:0:0:0:
512,64,217443,1,0,3:2:0:0:
477,76,217553,1,2,3:2:0:0:
443,88,217662,1,6,1:2:0:0:
264,10,217881,1,2,1:2:0:0:
299,22,217991,1,0,1:2:0:0:
333,34,218100,1,6,1:2:0:0:
330,174,218319,1,0,1:2:0:0:
295,186,218429,1,0,1:2:0:0:
261,198,218538,6,0,L|202:185,1,60.0000022888184,6|8,1:2|0:2,0:0:0:0:
0,64,218757,2,0,L|58:76,1,60.0000022888184,6|0,1:2|0:0,0:0:0:0:
131,132,218976,1,6,1:2:0:0:
506,116,219414,5,10,0:3:0:0:
409,84,219560,1,10,0:3:0:0:
428,187,219706,1,10,0:3:0:0:
487,15,219852,5,10,0:3:0:0:
10,104,220290,5,6,0:3:0:0:
85,79,220435,1,6,0:3:0:0:
70,158,220581,1,6,0:3:0:0:
25,26,220727,5,6,0:3:0:0:
32,320,221165,6,0,L|137:306,1,106.666666666667,8|4,0:3|0:3,0:0:0:0:
192,358,221603,2,0,L|297:371,1,106.666666666667,8|4,0:3|0:3,0:0:0:0:
510,299,222041,2,0,L|352:320,1,160,8|10,0:3|0:2,0:0:0:0:
10,280,222917,5,6,0:3:0:0:
85,305,223063,1,6,0:3:0:0:
70,226,223209,1,6,0:3:0:0:
25,358,223355,5,6,0:3:0:0:
506,268,223792,5,10,0:3:0:0:
409,300,223938,1,10,0:3:0:0:
428,197,224084,1,10,0:3:0:0:
487,369,224230,5,10,0:3:0:0:
331,231,224523,5,10,0:3:0:0:
317,190,224669,1,6,0:3:0:0:
400,61,224961,5,10,0:3:0:0:
386,102,225107,1,6,0:3:0:0:
268,55,225399,5,10,0:3:0:0:
254,14,225545,1,6,0:3:0:0:
128,384,225983,5,14,0:2:0:0:
0,64,226421,5,6,1:2:0:0:
28,305,226640,1,6,1:2:0:0:
224,160,226859,1,6,1:2:0:0:
85,177,227078,1,0,0:2:0:0:
90,196,227187,1,0,0:2:0:0:
95,215,227297,1,0,0:2:0:0:
100,234,227406,1,0,0:2:0:0:
192,288,227625,1,0,0:2:0:0:
283,235,227844,1,0,0:2:0:0:
302,230,227953,1,0,0:2:0:0:
420,277,228173,5,6,1:2:0:0:
224,132,228392,1,6,1:2:0:0:
448,36,228611,1,6,1:2:0:0:
363,149,228830,2,0,L|416:156,1,40,0|0,0:2|0:2,0:0:0:0:
482,208,229049,1,0,0:2:0:0:
491,229,229158,1,0,0:2:0:0:
480,320,229377,1,0,0:2:0:0:
392,346,229596,2,0,L|280:329,1,100,0|0,0:2|0:2,0:0:0:0:
261,348,229925,5,6,1:2:0:0:
160,128,230144,1,6,1:2:0:0:
64,384,230363,1,6,1:2:0:0:
12,299,230581,1,0,0:2:0:0:
8,279,230690,1,0,0:2:0:0:
4,259,230800,1,0,0:2:0:0:
0,239,230910,1,0,0:2:0:0:
51,146,231129,1,0,0:2:0:0:
0,54,231348,1,0,0:2:0:0:
4,34,231458,1,0,0:2:0:0:
160,0,231676,6,0,B|187:40|187:40|160:115,1,128,6|0,1:1|0:2,0:0:0:0:
352,384,232552,2,0,B|325:344|325:344|351:268,1,128,6|0,1:1|0:2,0:0:0:0:
512,64,233428,6,0,L|472:69,1,40,6|2,1:2|0:2,0:0:0:0:
422,127,233647,2,0,L|382:132,1,40,6|2,1:2|0:2,0:0:0:0:
312,103,233866,1,6,1:2:0:0:
256,256,234085,1,0,3:2:0:0:
256,256,234195,1,0,3:2:0:0:
256,256,234304,1,8,0:2:0:0:
163,267,234633,1,8,0:2:0:0:
70,278,234961,1,8,0:2:0:0:
0,160,235180,5,6,1:2:0:0:
64,384,235399,1,6,1:2:0:0:
192,128,235618,1,6,1:2:0:0:
320,192,235837,1,8,0:2:0:0:
320,192,235946,1,8,0:0:0:0:
320,192,236056,1,8,0:2:0:0:
339,100,236385,1,8,0:2:0:0:
358,8,236713,1,8,0:2:0:0:
512,96,236932,6,0,L|504:135,1,40,6|2,1:2|0:2,0:0:0:0:
512,210,237151,2,0,L|504:249,1,40,6|2,1:2|0:2,0:0:0:0:
512,324,237370,1,6,1:2:0:0:
384,384,237589,1,8,0:2:0:0:
384,384,237698,1,8,0:2:0:0:
384,384,237808,1,8,0:2:0:0:
291,373,238137,1,8,0:2:0:0:
198,362,238465,1,8,0:2:0:0:
195,346,238538,1,8,0:2:0:0:
192,330,238611,1,8,0:2:0:0:
189,314,238684,6,0,L|196:262,1,51.999997619629,10|10,0:2|0:2,0:0:0:0:
288,128,238903,1,8,0:2:0:0:
288,128,239012,1,10,0:2:0:0:
288,128,239122,2,0,L|236:120,1,51.999997619629,10|10,0:2|0:2,0:0:0:0:
96,32,239341,1,8,0:2:0:0:
96,32,239450,1,10,0:2:0:0:
96,32,239560,1,8,0:0:0:0:
128,192,239779,1,6,1:2:0:0:
253,45,239998,6,0,B|449:19|449:19|367:357|367:357|281:204,1,720.000027465821,6|0,1:2|0:2,0:0:0:0:
