osu file format v14

[General]
AudioFilename: audio.mp3
AudioLeadIn: 0
PreviewTime: 316
Countdown: 0
SampleSet: Soft
StackLeniency: 0.4
Mode: 0
LetterboxInBreaks: 0
WidescreenStoryboard: 0

[Editor]
DistanceSpacing: 1.1
BeatDivisor: 4
GridSize: 32
TimelineZoom: 1.6

[Metadata]
Title:Mika Ranman no Utage nite
TitleUnicode:美歌爛漫ノ宴ニテ
Artist:Chihara Minori
ArtistUnicode:茅原実里
Creator:Mordred
Version:Hard
Source:
Tags:amy エイミー lasse japanese pop
BeatmapID:2415478
BeatmapSetID:1152086

[Difficulty]
HPDrainRate:5
CircleSize:4
OverallDifficulty:6
ApproachRate:7.5
SliderMultiplier:1.6
SliderTickRate:1

[Events]
//Background and Video events
0,0,"293132.jpg",0,0
//Break Periods
2,175818,181800
2,189395,197567
//Storyboard Layer 0 (Background)
//Storyboard Layer 1 (Fail)
//Storyboard Layer 2 (Pass)
//Storyboard Layer 3 (Foreground)
//Storyboard Layer 4 (Overlay)
//Storyboard Sound Samples

[TimingPoints]
436,437.956204379562,4,2,3,60,1,0
3939,-100,4,2,1,70,0,0
4596,-100,4,2,1,60,0,0
5691,-100,4,2,1,70,0,0
6348,-100,4,2,1,60,0,0
7388,-100,4,2,1,5,0,0
7443,-100,4,2,1,70,0,0
8100,-100,4,2,1,60,0,0
9195,-125,4,2,1,70,0,0
10946,-100,4,2,1,70,0,0
16202,-125,4,2,1,70,0,0
17516,-125,4,2,1,80,0,0
17954,-100,4,2,1,90,0,1
31968,-100,4,2,1,70,0,0
35472,-100,4,2,1,60,0,0
38976,-166.666666666667,4,2,1,60,0,0
40946,-66.6666666666667,4,2,1,80,0,0
41165,-66.6666666666667,4,2,1,5,0,0
41274,-66.6666666666667,4,2,1,80,0,0
41494,-66.6666666666667,4,2,1,5,0,0
41603,-66.6666666666667,4,2,1,80,0,0
41822,-66.6666666666667,4,2,1,5,0,0
41931,-66.6666666666667,4,2,1,80,0,0
42151,-66.6666666666667,4,2,1,5,0,0
42260,-66.6666666666667,4,2,1,80,0,0
42479,-100,4,2,1,70,0,0
44450,-100,4,2,1,5,0,0
44560,-100,4,2,1,70,0,0
44779,-100,4,2,1,5,0,0
44888,-100,4,2,1,70,0,0
45983,-125,4,2,1,70,0,0
47735,-125,4,2,1,60,0,0
48392,-125,4,2,1,70,0,0
49049,-125,4,2,1,80,0,0
49706,-100,4,2,1,90,0,0
50363,-100,4,2,1,70,0,0
50691,-100,4,2,1,5,0,0
50800,-100,4,2,1,70,0,0
51129,-100,4,2,1,5,0,0
51457,-66.6666666666667,4,2,1,80,0,0
51676,-66.6666666666667,4,2,1,5,0,0
51785,-66.6666666666667,4,2,1,80,0,0
52005,-66.6666666666667,4,2,1,5,0,0
52114,-66.6666666666667,4,2,1,80,0,0
52333,-66.6666666666667,4,2,1,5,0,0
52442,-66.6666666666667,4,2,1,80,0,0
52662,-66.6666666666667,4,2,1,5,0,0
52771,-100,4,2,1,80,0,0
54085,-66.6666666666667,4,2,3,80,0,0
54523,-66.6666666666667,4,2,1,60,0,0
54742,-100,4,2,1,70,0,0
56713,-100,4,2,4,70,0,0
58246,-100,4,2,1,70,0,0
59998,-100,4,2,1,70,0,0
61749,-100,4,2,1,80,0,0
62844,-100,4,2,1,70,0,0
63063,-100,4,2,2,70,0,0
63501,-100,4,2,1,80,0,0
64596,-100,4,2,1,70,0,0
64815,-100,4,2,2,70,0,0
65253,-125,4,2,1,70,0,0
70290,-125,4,2,1,80,0,0
71822,-125,4,2,5,80,0,0
72041,-125,4,2,1,80,0,0
72260,-76.9230769230769,4,2,1,90,0,1
86275,-100,4,2,1,80,0,0
87151,-100,4,2,1,70,0,0
88027,-100,4,2,1,60,0,0
89286,-100,4,2,1,5,0,0
89341,-100,4,2,1,70,0,0
90654,-100,4,2,1,80,0,0
91384,-100,4,2,1,70,0,0
93282,-100,4,2,1,70,0,0
93939,-100,4,2,1,60,0,0
95034,-100,4,2,1,70,0,0
95691,-100,4,2,1,60,0,0
96731,-100,4,2,1,5,0,0
96786,-100,4,2,1,70,0,0
97443,-100,4,2,1,60,0,0
98538,-125,4,2,1,70,0,0
100290,-100,4,2,1,70,0,0
105545,-125,4,2,1,70,0,0
106859,-125,4,2,1,80,0,0
107297,-100,4,2,1,90,0,1
121311,-100,4,2,1,70,0,0
124815,-142.857142857143,4,2,1,40,0,0
125034,-100,4,2,1,50,0,0
125144,-100,4,2,1,55,0,0
125253,-100,4,2,1,60,0,0
125363,-100,4,2,1,65,0,0
125472,-100,4,2,1,70,0,0
125581,-100,4,2,1,75,0,0
125691,-100,4,2,1,80,0,0
125800,-100,4,2,1,5,0,0
125910,-142.857142857143,4,2,1,70,0,0
126567,-142.857142857143,4,2,1,40,0,0
126786,-100,4,2,1,50,0,0
126896,-100,4,2,1,55,0,0
127005,-100,4,2,1,60,0,0
127115,-100,4,2,1,65,0,0
127224,-100,4,2,1,70,0,0
127333,-100,4,2,1,75,0,0
127443,-100,4,2,1,80,0,0
127552,-100,4,2,1,5,0,0
127662,-100,4,2,1,70,0,0
128319,-166.666666666667,4,2,1,70,0,0
128921,-142.857142857143,4,2,1,5,0,0
128976,-166.666666666667,4,2,1,70,0,0
130290,-66.6666666666667,4,2,1,80,0,0
130508,-66.6666666666667,4,2,1,5,0,0
130617,-66.6666666666667,4,2,1,80,0,0
130837,-66.6666666666667,4,2,1,5,0,0
130946,-66.6666666666667,4,2,1,80,0,0
131165,-66.6666666666667,4,2,1,5,0,0
131274,-66.6666666666667,4,2,1,80,0,0
131494,-66.6666666666667,4,2,1,5,0,0
131603,-66.6666666666667,4,2,1,80,0,0
131822,-100,4,2,1,70,0,0
137078,-100,4,2,1,60,0,0
137735,-100,4,2,1,70,0,0
138392,-100,4,2,1,80,0,0
139049,-100,4,2,1,90,0,0
139706,-100,4,2,1,70,0,0
140034,-100,4,2,1,5,0,0
140144,-100,4,2,1,70,0,0
140472,-100,4,2,1,5,0,0
140800,-66.6666666666667,4,2,1,80,0,0
141019,-66.6666666666667,4,2,1,5,0,0
141128,-66.6666666666667,4,2,1,80,0,0
141348,-66.6666666666667,4,2,1,5,0,0
141457,-66.6666666666667,4,2,1,80,0,0
141676,-66.6666666666667,4,2,1,5,0,0
141785,-66.6666666666667,4,2,1,80,0,0
142005,-66.6666666666667,4,2,1,5,0,0
142114,-66.6666666666667,4,2,1,80,0,0
143428,-66.6666666666667,4,2,3,80,0,0
143866,-66.6666666666667,4,2,1,60,0,0
144085,-100,4,2,1,70,0,0
146056,-100,4,2,4,70,0,0
147589,-100,4,2,1,70,0,0
149341,-100,4,2,1,70,0,0
151092,-100,4,2,1,80,0,0
152187,-100,4,2,1,70,0,0
152406,-100,4,2,2,70,0,0
152844,-100,4,2,1,80,0,0
153939,-100,4,2,1,70,0,0
154158,-100,4,2,2,70,0,0
154596,-125,4,2,1,70,0,0
159633,-125,4,2,1,80,0,0
161165,-125,4,2,5,80,0,0
161384,-125,4,2,1,80,0,0
161603,-76.9230769230769,4,2,1,90,0,1
175618,-100,4,2,1,70,0,0
181530,-100,4,2,4,70,0,0
182625,-66.6666666666667,4,2,1,70,0,0
183063,-66.6666666666667,4,2,1,75,0,0
183501,-66.6666666666667,4,2,1,80,0,0
183939,-66.6666666666667,4,2,1,85,0,0
184377,-66.6666666666667,4,2,1,90,0,0
184815,-66.6666666666667,4,2,1,85,0,0
185253,-66.6666666666667,4,2,1,80,0,0
185691,-66.6666666666667,4,2,1,75,0,0
186129,-76.9230769230769,4,2,1,70,0,0
187881,-66.6666666666667,4,2,4,80,0,0
198392,-142.857142857143,4,2,1,70,0,0
199268,-142.857142857143,4,2,1,80,0,0
199925,-142.857142857143,4,2,1,70,0,0
201019,-142.857142857143,4,2,1,80,0,0
201676,-142.857142857143,4,2,1,70,0,0
203428,-83.3333333333333,4,2,1,75,0,0
204523,-76.9230769230769,4,2,1,80,0,0
205399,-76.9230769230769,4,2,1,90,0,1
219414,-100,4,2,1,80,0,0
220290,-100,4,2,1,70,0,0
221165,-100,4,2,1,60,0,0
222425,-100,4,2,1,5,0,0
222479,-100,4,2,1,70,0,0
223793,-100,4,2,1,80,0,0
224523,-100,4,2,1,70,0,0
227078,-100,4,2,1,60,0,0
228173,-100,4,2,1,70,0,0
228830,-100,4,2,1,60,0,0
229870,-100,4,2,1,5,0,0
229925,-100,4,2,1,70,0,0
230581,-100,4,2,1,60,0,0
231676,-125,4,2,1,70,0,0
233428,-100,4,2,1,70,0,0
238684,-76.9230769230769,4,2,1,80,0,0
239779,-50,4,2,1,90,0,1
239888,-50,4,2,1,70,0,0
239998,-100,4,2,1,90,0,1
240107,-100,4,2,1,5,0,0
241311,-66.6666666666667,4,2,1,5,0,0

[Colours]
Combo1 : 250,180,240
Combo2 : 120,200,230
Combo3 : 255,230,130
Combo4 : 160,230,150

[HitObjects]
33,58,436,5,2,0:2:0:0:
51,184,873,1,2,0:2:0:0:
69,310,1311,1,2,0:2:0:0:
148,275,1530,1,2,0:2:0:0:
148,275,1640,1,2,0:2:0:0:
148,275,1749,1,2,0:2:0:0:
288,352,2187,2,0,L|350:344,3,40,2|2|2|2,1:2|0:2|0:2|1:2,0:0:0:0:
380,362,2625,2,0,L|442:354,3,40,2|2|2|2,0:2|0:2|1:2|0:2,0:0:0:0:
470,372,3063,1,2,1:2:0:0:
512,288,3282,1,2,0:2:0:0:
512,288,3392,1,2,1:2:0:0:
512,288,3501,1,2,0:2:0:0:
480,96,3939,5,14,1:2:0:0:
352,128,4158,1,14,1:2:0:0:
224,160,4377,1,14,1:2:0:0:
0,20,5691,5,14,1:2:0:0:
128,52,5910,1,14,1:2:0:0:
256,84,6129,1,14,1:2:0:0:
512,320,7443,5,14,1:2:0:0:
384,288,7662,1,14,1:2:0:0:
256,256,7881,1,14,1:2:0:0:
32,256,9195,6,0,L|16:129,1,128,6|0,1:1|0:2,0:0:0:0:
224,256,10071,2,0,L|239:382,1,128,6|0,1:1|0:2,0:0:0:0:
416,256,10946,5,14,1:2:0:0:
448,128,11165,1,14,1:2:0:0:
480,0,11384,1,14,1:2:0:0:
388,35,11603,1,0,3:2:0:0:
388,35,11822,2,0,B|342:15|342:15|300:89,2,120,8|8|8,0:2|0:2|0:2,0:0:0:0:
448,128,12698,5,14,1:2:0:0:
320,160,12917,1,14,1:2:0:0:
192,192,13136,1,14,1:2:0:0:
227,100,13355,1,8,0:2:0:0:
227,100,13574,2,0,B|264:70|264:70|247:-7,2,120,8|8|8,0:2|0:2|0:2,0:0:0:0:
192,192,14450,6,0,L|202:237,1,40,14|2,1:2|0:2,0:0:0:0:
187,270,14669,2,0,L|197:315,1,40,14|2,1:2|0:2,0:0:0:0:
187,351,14888,1,14,1:2:0:0:
96,384,15107,1,8,0:2:0:0:
96,384,15326,2,0,L|78:305,1,80,8|0,0:2|0:0,0:0:0:0:
49,292,15654,2,0,L|22:174,1,120,8|8,0:2|0:2,0:0:0:0:
27,159,16056,1,8,0:2:0:0:
31,143,16129,1,8,0:2:0:0:
35,127,16202,6,0,L|114:102,1,64,6|0,1:1|0:2,0:0:0:0:
169,34,16640,1,2,0:2:0:0:
169,34,16749,1,8,0:2:0:0:
169,34,16859,1,8,0:2:0:0:
228,123,17078,1,10,0:2:0:0:
267,123,17187,1,8,0:2:0:0:
301,102,17297,1,8,0:2:0:0:
318,66,17406,1,8,0:2:0:0:
314,27,17516,2,0,L|270:15,3,32,10|8|8|8,0:2|0:2|0:2|0:2,0:0:0:0:
396,13,17954,5,6,1:1:0:0:
396,13,18063,1,2,0:2:0:0:
396,13,18173,1,2,0:2:0:0:
502,84,18392,2,0,L|491:174,1,80,10|2,0:2|0:2,0:0:0:0:
512,288,18830,1,2,1:2:0:0:
512,288,18939,1,2,0:2:0:0:
512,288,19049,1,2,0:2:0:0:
400,346,19268,1,10,0:2:0:0:
400,346,19377,1,2,0:2:0:0:
400,346,19487,1,2,0:2:0:0:
310,257,19706,6,0,P|297:220|292:180,1,80,2|2,1:2|0:2,0:0:0:0:
218,53,20144,2,0,P|213:92|199:130,1,80,10|2,0:2|0:2,0:0:0:0:
115,229,20581,2,0,P|77:242|37:247,1,80,2|2,1:2|0:2,0:0:0:0:
0,96,21019,2,0,P|39:100|77:114,1,80,10|2,0:2|0:2,0:0:0:0:
208,224,21457,5,2,1:2:0:0:
208,224,21567,1,2,0:2:0:0:
208,224,21676,1,2,0:2:0:0:
249,348,21895,1,10,0:2:0:0:
249,348,22005,1,2,0:2:0:0:
249,348,22114,1,2,0:2:0:0:
388,352,22333,2,0,P|443:340|470:323,1,80,2|2,1:2|0:2,0:0:0:0:
511,210,22771,1,10,0:2:0:0:
511,210,22881,1,2,0:2:0:0:
511,210,22990,1,2,0:2:0:0:
395,162,23209,5,4,1:2:0:0:
381,262,23428,1,2,0:1:0:0:
309,116,23647,1,4,1:2:0:0:
295,216,23866,1,2,0:2:0:0:
223,70,24085,5,0,1:2:0:0:
223,70,24195,2,0,L|216:31,2,40,8|10|0,0:2|0:2|1:2,0:0:0:0:
209,170,24633,1,8,0:2:0:0:
209,170,24742,1,2,1:2:0:0:
91,203,24961,5,6,1:2:0:0:
91,203,25071,1,2,0:2:0:0:
91,203,25180,1,2,0:2:0:0:
39,316,25399,2,0,L|117:299,1,80,10|2,0:2|0:2,0:0:0:0:
240,336,25837,1,2,1:2:0:0:
240,336,25946,1,2,0:2:0:0:
240,336,26056,1,2,0:2:0:0:
368,379,26275,1,10,0:2:0:0:
368,379,26384,1,2,0:2:0:0:
368,379,26494,1,2,0:2:0:0:
474,333,26713,6,0,L|488:254,1,80,2|2,1:2|0:2,0:0:0:0:
352,128,27151,2,0,L|366:206,1,80,10|2,0:2|0:2,0:0:0:0:
230,333,27589,2,0,L|244:254,1,80,2|2,1:2|0:2,0:0:0:0:
108,128,28027,2,0,L|122:206,1,80,10|2,0:2|0:2,0:0:0:0:
47,320,28465,5,2,1:2:0:0:
47,320,28574,1,2,0:2:0:0:
47,320,28684,1,2,0:2:0:0:
0,192,28903,1,10,0:2:0:0:
0,192,29012,1,2,0:2:0:0:
0,192,29122,1,2,0:2:0:0:
32,57,29341,2,0,P|67:37|104:24,1,80,2|2,1:2|0:2,0:0:0:0:
288,64,29779,2,0,P|252:83|215:96,1,80,10|2,0:2|0:2,0:0:0:0:
141,221,30217,5,4,1:2:0:0:
159,324,30435,1,2,0:2:0:0:
252,192,30654,1,12,0:2:0:0:
242,296,30872,1,2,0:2:0:0:
367,193,31092,1,0,1:2:0:0:
367,193,31202,2,0,L|361:151,2,40,8|8|0,0:2|0:2|1:2,0:0:0:0:
330,290,31640,1,0,1:2:0:0:
330,290,31749,1,8,0:2:0:0:
405,369,31968,6,0,P|473:367|496:315,1,120,6|0,0:1|1:2,0:0:0:0:
484,294,32406,1,0,3:2:0:0:
497,203,32625,1,0,3:2:0:0:
510,112,32844,2,0,L|493:27,1,80,10|0,0:2|3:2,0:0:0:0:
479,27,33173,1,8,0:2:0:0:
464,20,33282,1,0,3:2:0:0:
233,15,33720,6,0,B|218:54|218:54|233:88,1,80,10|0,0:2|0:0,0:0:0:0:
265,118,34049,2,0,B|280:157|280:157|264:191,1,80,8|0,0:2|0:0,0:0:0:0:
241,220,34377,1,8,0:2:0:0:
155,173,34596,2,0,P|96:171|53:212,2,120,2|0|0,3:2|3:2|3:2,0:0:0:0:
241,220,35472,5,0,1:2:0:0:
252,268,35691,1,0,1:2:0:0:
263,316,35910,1,0,1:2:0:0:
278,368,36129,1,0,1:2:0:0:
278,368,36238,1,0,1:2:0:0:
480,384,37224,5,0,1:2:0:0:
469,336,37443,1,0,1:2:0:0:
458,288,37662,1,0,1:2:0:0:
451,244,37881,1,0,1:2:0:0:
451,244,37990,1,0,1:2:0:0:
512,64,38757,1,0,0:2:0:0:
512,64,38976,2,0,B|498:99|498:99|435:112|406:58,1,143.999995605469,6|0,1:1|0:2,0:0:0:0:
422,41,39742,1,0,0:2:0:0:
438,23,39852,2,0,L|425:118,1,95.9999970703126,6|0,1:1|0:2,0:0:0:0:
409,136,40399,1,0,0:2:0:0:
393,154,40508,1,0,0:2:0:0:
426,233,40727,1,0,0:2:0:0:
369,296,40946,6,0,B|310:313|310:313|264:276,1,120.000004577637,6|0,1:2|0:2,0:0:0:0:
234,204,41275,2,0,B|271:159|271:159|253:100,1,120.000004577637,6|0,1:2|0:2,0:0:0:0:
203,43,41603,2,0,B|144:26|144:26|98:63,1,120.000004577637,6|0,1:2|0:2,0:0:0:0:
67,132,41932,2,0,B|49:191|49:191|86:236,1,120.000004577637,6|0,1:2|0:2,0:0:0:0:
97,317,42260,1,14,1:2:0:0:
97,317,42370,1,8,0:2:0:0:
97,317,42479,6,0,L|140:310,3,40,2|2|2|2,1:2|0:2|0:2|0:2,0:0:0:0:
27,271,42917,1,2,0:2:0:0:
23,194,43136,1,2,1:2:0:0:
19,116,43355,2,0,P|84:76|154:107,1,160,10|0,0:2|0:2,0:0:0:0:
184,199,44012,1,2,0:2:0:0:
275,170,44231,6,0,P|311:185|351:183,1,80,2|0,1:2|0:2,0:0:0:0:
382,158,44560,2,0,P|379:118|395:81,1,80,2|0,1:2|0:2,0:0:0:0:
427,61,44888,1,2,1:2:0:0:
512,160,45107,2,0,L|501:239,1,80,8|0,0:2|0:0,0:0:0:0:
512,272,45436,2,0,L|501:351,1,80,8|0,0:2|0:0,0:0:0:0:
476,381,45764,1,2,0:2:0:0:
384,352,45983,6,0,P|343:376|298:368,2,96,2|2|2,1:2|1:2|1:2,0:0:0:0:
418,242,46859,1,8,0:2:0:0:
418,242,47297,2,0,L|406:173,1,64,2|2,0:2|0:2,0:0:0:0:
320,64,47735,5,14,0:2:0:0:
314,89,47844,1,10,0:2:0:0:
308,114,47954,1,10,0:2:0:0:
113,200,48392,5,14,0:2:0:0:
137,193,48501,1,10,0:2:0:0:
162,185,48611,1,10,0:2:0:0:
334,311,49049,5,14,0:2:0:0:
316,293,49158,1,10,0:2:0:0:
297,276,49268,1,10,0:2:0:0:
113,200,49706,5,6,1:2:0:0:
152,313,49925,1,6,1:2:0:0:
39,352,50144,1,6,1:2:0:0:
0,239,50363,2,0,L|22:70,1,160,6|6,1:2|1:2,0:0:0:0:
269,19,51457,6,0,B|286:78|286:78|249:123,1,120.000004577637,6|0,1:2|0:2,0:0:0:0:
205,186,51786,2,0,B|145:204|145:204|100:167,1,120.000004577637,6|0,1:2|0:2,0:0:0:0:
31,193,52114,2,0,B|14:252|14:252|51:298,1,120.000004577637,6|0,1:2|0:2,0:0:0:0:
125,293,52443,2,0,B|182:298|182:298|211:353,1,120.000004577637,6|0,1:2|0:2,0:0:0:0:
278,384,52771,1,6,1:2:0:0:
397,329,52990,5,14,1:2:0:0:
416,334,53100,1,10,0:2:0:0:
435,339,53209,1,10,0:2:0:0:
454,344,53319,1,10,0:2:0:0:
473,349,53428,1,4,1:2:0:0:
512,256,53647,1,10,0:2:0:0:
512,256,53757,1,14,0:2:0:0:
480,64,54085,1,10,0:2:0:0:
432,144,54304,1,10,0:2:0:0:
168,36,54742,6,0,P|177:74|182:114,1,80,6|2,1:2|0:2,0:0:0:0:
116,195,55180,2,0,P|106:233|101:273,1,80,10|2,0:2|0:2,0:0:0:0:
151,360,55618,1,2,1:2:0:0:
170,355,55727,1,0,0:2:0:0:
189,350,55837,1,0,0:2:0:0:
208,345,55946,1,0,0:2:0:0:
227,340,56056,2,0,L|307:354,1,80,8|2,0:2|0:2,0:0:0:0:
416,320,56494,5,2,1:2:0:0:
339,242,56713,1,2,0:2:0:0:
339,242,56822,1,2,0:2:0:0:
339,242,56932,2,0,L|330:157,1,80,10|2,0:2|0:2,0:0:0:0:
409,104,57370,1,2,1:2:0:0:
379,11,57589,1,2,0:2:0:0:
282,11,57808,1,10,0:2:0:0:
253,104,58027,1,2,0:2:0:0:
148,173,58246,6,0,L|62:156,1,80,2|2,1:2|0:2,0:0:0:0:
57,141,58574,1,0,0:2:0:0:
44,125,58684,1,8,0:2:0:0:
0,224,58903,1,2,0:2:0:0:
0,224,59122,1,2,1:2:0:0:
44,328,59341,1,2,0:2:0:0:
44,328,59450,1,0,1:2:0:0:
44,328,59560,1,8,0:2:0:0:
150,360,59779,1,2,1:2:0:0:
150,360,59998,6,0,L|229:348,1,80,2|0,1:2|0:0,0:0:0:0:
257,356,60326,1,0,1:2:0:0:
289,363,60435,2,0,L|368:351,1,80,8|0,0:2|1:2,0:0:0:0:
478,295,60873,1,0,1:2:0:0:
478,295,60983,2,0,L|490:208,1,80,8|0,0:2|1:2,0:0:0:0:
509,184,61311,1,8,0:2:0:0:
486,92,61530,1,0,1:2:0:0:
463,0,61749,5,2,1:2:0:0:
439,5,61859,1,2,1:2:0:0:
415,10,61968,2,0,L|360:2,1,40,2|2,1:2|1:2,0:0:0:0:
316,45,62187,1,2,1:2:0:0:
292,50,62297,1,2,1:2:0:0:
268,55,62406,2,0,L|213:47,1,40,2|2,1:2|1:2,0:0:0:0:
453,166,62844,2,0,L|461:212,1,40,0|0,3:2|3:2,0:0:0:0:
449,245,63063,1,2,0:2:0:0:
289,346,63501,5,2,1:2:0:0:
265,351,63611,1,2,1:2:0:0:
241,356,63720,2,0,L|186:348,1,40,2|2,1:2|1:2,0:0:0:0:
132,374,63939,1,2,1:2:0:0:
108,379,64049,1,2,1:2:0:0:
84,384,64158,2,0,L|29:376,1,40,2|2,1:2|1:2,0:0:0:0:
0,160,64596,2,0,L|39:167,1,40,2|0,3:2|3:2,0:0:0:0:
77,155,64815,1,2,0:2:0:0:
288,64,65253,6,0,L|298:0,2,64,6|0|0,1:1|0:2|0:2,0:0:0:0:
319,150,65910,1,0,1:2:0:0:
425,123,66129,2,0,L|489:133,1,64,10|0,0:2|1:2,0:0:0:0:
512,246,66567,1,0,0:2:0:0:
512,246,66786,1,0,0:2:0:0:
455,332,67005,2,0,P|404:324|340:323,1,96,2|0,1:2|1:2,0:0:0:0:
338,341,67443,2,0,P|294:356|252:365,1,64,2|2,0:2|1:2,0:0:0:0:
141,373,67881,5,10,0:2:0:0:
108,268,68100,1,2,0:2:0:0:
213,235,68319,1,2,0:2:0:0:
246,340,68538,1,2,0:2:0:0:
177,304,68757,5,10,0:2:0:0:
368,271,69195,1,8,0:2:0:0:
335,80,69633,1,8,0:2:0:0:
144,113,70071,1,8,0:2:0:0:
256,192,70290,5,2,1:2:0:0:
256,192,70399,1,2,1:2:0:0:
256,192,70508,1,14,0:2:0:0:
373,174,70727,1,2,1:2:0:0:
373,174,70837,1,2,1:2:0:0:
373,174,70946,1,14,0:2:0:0:
490,156,71165,1,2,1:2:0:0:
490,156,71275,1,2,1:2:0:0:
490,156,71384,1,14,0:2:0:0:
256,32,71822,1,2,0:2:0:0:
22,156,72260,6,0,P|11:206|4:258,1,103.999995239258,2|2,1:2|0:2,0:0:0:0:
96,352,72698,2,0,P|146:341|198:334,1,103.999995239258,10|2,0:2|0:2,0:0:0:0:
318,274,73136,1,6,1:2:0:0:
176,208,73355,1,6,1:2:0:0:
320,160,73574,1,6,1:2:0:0:
235,78,73793,1,2,0:2:0:0:
235,78,73903,1,2,0:2:0:0:
235,78,74012,6,0,L|131:67,1,103.999995239258,6|2,1:2|0:2,0:0:0:0:
0,192,74450,2,0,L|103:181,1,103.999995239258,10|2,0:2|0:2,0:0:0:0:
224,256,74888,1,6,1:2:0:0:
303,120,75107,1,6,1:2:0:0:
357,277,75326,1,6,1:2:0:0:
478,250,75545,1,2,0:2:0:0:
478,250,75654,1,2,0:2:0:0:
478,249,75764,6,0,P|518:157|481:63,1,207.999990478516,6|10,1:2|0:2,0:0:0:0:
351,22,76421,1,2,0:2:0:0:
351,22,76530,1,2,0:2:0:0:
350,22,76640,2,0,P|300:79|224:85,1,155.999992858887,2|0,1:2|0:2,0:0:0:0:
151,74,77078,2,0,L|126:-2,2,69.3333301595054,10|2|2,0:2|0:2|0:2,0:0:0:0:
114,182,77516,2,0,L|320:159,1,207.999990478516,2|8,1:2|0:2,0:0:0:0:
416,96,78173,1,2,0:2:0:0:
512,192,78392,1,2,1:2:0:0:
508,210,78501,1,8,0:2:0:0:
451,277,78720,1,0,1:2:0:0:
447,295,78829,1,8,0:2:0:0:
384,368,79049,1,2,1:2:0:0:
384,368,79158,1,2,0:2:0:0:
384,368,79268,6,0,L|270:354,1,103.999995239258,6|2,1:2|0:2,0:0:0:0:
128,384,79706,2,0,L|114:270,1,103.999995239258,10|2,0:2|0:2,0:0:0:0:
16,176,80144,1,6,1:2:0:0:
178,142,80363,1,6,1:2:0:0:
4,78,80581,1,6,1:2:0:0:
107,24,80800,1,2,0:2:0:0:
107,24,80910,1,2,0:2:0:0:
107,24,81019,6,0,P|157:34|209:32,1,103.999995239258,6|2,1:2|0:2,0:0:0:0:
354,0,81457,2,0,P|343:50|345:102,1,103.999995239258,10|2,0:2|0:2,0:0:0:0:
448,192,81895,1,6,1:2:0:0:
297,236,82114,1,6,1:2:0:0:
463,305,82333,1,6,1:2:0:0:
364,367,82552,1,2,0:2:0:0:
296,236,82771,6,0,P|199:242|161:152,1,207.999990478516,2|8,1:2|0:2,0:0:0:0:
144,27,83428,1,2,0:2:0:0:
25,69,83647,2,0,P|63:158|160:152,1,207.999990478516,2|8,1:2|0:2,0:0:0:0:
297,125,84304,1,2,3:2:0:0:
297,125,84414,1,2,3:2:0:0:
297,125,84523,6,0,B|337:152|337:152|390:137,1,103.999995239258,6|2,1:2|0:2,0:0:0:0:
506,23,84961,2,0,B|453:8|453:8|413:35,1,103.999995239258,14|2,0:2|0:2,0:0:0:0:
380,171,85399,1,14,0:2:0:0:
253,84,85618,1,6,1:2:0:0:
163,210,85837,1,6,1:2:0:0:
458,322,86275,6,0,L|463:385,2,53.3333333333333,10|10|10,0:3|0:3|0:3,0:0:0:0:
492,249,86713,1,10,0:3:0:0:
307,331,87151,2,0,L|302:394,2,53.3333333333333,6|6|6,0:3|0:3|0:3,0:0:0:0:
273,258,87589,1,4,0:3:0:0:
418,104,88027,6,0,P|386:143|335:139,1,106.666666666667,10|6,0:3|0:3,0:0:0:0:
259,129,88465,2,0,P|207:124|175:164,1,106.666666666667,10|6,0:3|0:3,0:0:0:0:
168,242,88903,2,0,P|120:303|43:303,1,160,10|14,0:3|0:0,0:0:0:0:
0,64,89779,5,6,0:3:0:0:
33,52,89925,1,6,0:3:0:0:
64,66,90071,1,6,0:3:0:0:
76,97,90217,1,6,0:3:0:0:
168,242,90654,5,10,0:3:0:0:
201,254,90800,1,10,0:3:0:0:
232,240,90946,1,10,0:3:0:0:
244,209,91092,1,10,0:3:0:0:
317,121,91384,5,10,0:3:0:0:
317,120,91530,2,0,P|366:104|410:130,1,106.666666666667,6|10,0:3|0:3,0:0:0:0:
463,189,91968,2,0,P|413:172|369:198,1,106.666666666667,6|10,0:3|0:3,0:0:0:0:
390,289,92406,2,0,L|411:131,1,160,6|14,0:3|0:2,0:0:0:0:
137,1,93282,5,6,1:2:0:0:
169,129,93501,1,6,1:2:0:0:
201,257,93720,1,6,1:2:0:0:
443,2,95034,5,6,1:2:0:0:
411,130,95253,1,6,1:2:0:0:
379,258,95472,1,6,1:2:0:0:
41,161,96786,5,6,1:2:0:0:
169,129,97005,1,6,1:2:0:0:
297,97,97224,1,6,1:2:0:0:
450,315,98538,6,0,P|483:263|471:201,1,128,6|0,1:1|0:2,0:0:0:0:
320,96,99414,2,0,P|267:129|205:117,1,128,6|0,1:1|0:2,0:0:0:0:
64,32,100289,5,6,1:2:0:0:
32,160,100508,1,6,1:2:0:0:
0,288,100727,1,6,1:2:0:0:
92,253,100946,1,0,3:2:0:0:
92,253,101165,2,0,B|140:262|140:262|160:253|160:253|210:265,2,120,8|8|8,0:2|0:2|0:2,0:0:0:0:
177,337,102041,5,6,1:2:0:0:
305,305,102260,1,6,1:2:0:0:
433,273,102479,1,6,1:2:0:0:
354,227,102698,1,8,0:2:0:0:
354,227,102917,2,0,B|363:179|363:179|354:159|354:159|366:109,2,120,8|8|8,0:2|0:2|0:2,0:0:0:0:
305,305,103793,6,0,L|260:315,1,40,4|2,1:2|0:2,0:0:0:0:
227,300,104012,2,0,L|182:310,1,40,4|2,1:2|0:2,0:0:0:0:
146,300,104231,1,4,1:2:0:0:
128,197,104450,1,8,0:2:0:0:
236,226,104669,2,0,L|315:208,1,80,8|0,0:2|0:0,0:0:0:0:
327,179,104997,2,0,L|445:152,1,120,8|8,0:2|0:2,0:0:0:0:
461,157,105399,1,8,0:2:0:0:
477,161,105472,1,8,0:2:0:0:
493,165,105545,6,0,L|518:244,1,64,6|0,1:2|0:2,0:0:0:0:
493,343,105983,1,2,0:2:0:0:
493,343,106092,1,8,0:2:0:0:
493,343,106202,1,8,0:2:0:0:
391,280,106421,1,10,0:2:0:0:
352,280,106530,1,8,0:2:0:0:
318,301,106640,1,8,0:2:0:0:
301,337,106749,1,8,0:2:0:0:
305,376,106859,2,0,L|349:388,3,32,10|8|8|8,0:2|0:2|0:2|0:2,0:0:0:0:
226,384,107297,5,6,1:2:0:0:
226,384,107406,1,2,0:2:0:0:
226,384,107516,1,2,0:2:0:0:
138,291,107735,2,0,L|128:211,1,80,10|2,0:2|0:2,0:0:0:0:
192,109,108173,1,2,1:2:0:0:
192,109,108282,1,2,0:2:0:0:
192,109,108392,1,2,0:2:0:0:
103,23,108611,1,10,0:2:0:0:
103,23,108720,1,2,0:2:0:0:
103,23,108830,1,2,0:2:0:0:
0,107,109049,6,0,P|5:146|19:184,1,80,2|2,1:2|0:2,0:0:0:0:
121,309,109487,2,0,P|134:272|139:232,1,80,10|2,0:2|0:2,0:0:0:0:
242,107,109925,2,0,P|255:144|260:184,1,80,2|2,1:2|0:2,0:0:0:0:
363,309,110363,2,0,P|376:272|381:232,1,80,10|2,0:2|0:2,0:0:0:0:
484,143,110800,5,2,1:2:0:0:
484,143,110910,1,2,0:2:0:0:
484,143,111019,1,2,0:2:0:0:
392,60,111238,1,10,0:2:0:0:
392,60,111348,1,2,0:2:0:0:
392,60,111457,1,2,0:2:0:0:
287,120,111676,2,0,P|232:108|205:91,1,80,2|2,1:2|0:2,0:0:0:0:
102,53,112114,1,10,0:2:0:0:
102,53,112224,1,2,0:2:0:0:
102,53,112333,1,2,0:2:0:0:
42,147,112552,5,4,1:2:0:0:
142,161,112771,1,2,0:2:0:0:
56,258,112990,1,4,1:2:0:0:
156,272,113209,1,2,0:2:0:0:
70,369,113428,1,0,1:2:0:0:
70,369,113538,2,0,L|21:361,2,40,8|10|0,0:2|0:2|1:2,0:0:0:0:
170,383,113976,1,8,0:2:0:0:
170,383,114085,1,2,1:2:0:0:
263,317,114304,5,6,1:2:0:0:
263,317,114414,1,2,0:2:0:0:
263,317,114523,1,2,0:2:0:0:
372,384,114742,2,0,L|389:306,1,80,10|2,0:2|0:2,0:0:0:0:
334,202,115180,1,2,1:2:0:0:
334,202,115289,1,2,0:2:0:0:
334,202,115399,1,2,0:2:0:0:
404,97,115618,1,10,0:2:0:0:
404,97,115727,1,2,0:2:0:0:
404,97,115837,1,2,0:2:0:0:
512,188,116056,6,0,L|433:202,1,80,2|2,1:2|0:2,0:0:0:0:
276,96,116494,2,0,L|355:110,1,80,10|2,0:2|0:2,0:0:0:0:
349,254,116932,2,0,L|270:268,1,80,2|2,1:2|0:2,0:0:0:0:
113,162,117370,2,0,L|192:176,1,80,10|2,0:2|0:2,0:0:0:0:
181,321,117808,5,2,1:2:0:0:
181,321,117917,1,2,0:2:0:0:
181,321,118027,1,2,0:2:0:0:
67,377,118246,1,10,0:2:0:0:
67,377,118355,1,2,0:2:0:0:
67,377,118465,1,2,0:2:0:0:
6,271,118684,2,0,P|0:231|0:192,1,80,2|2,1:2|0:2,0:0:0:0:
111,70,119122,2,0,P|111:109|104:149,1,80,10|2,0:2|0:2,0:0:0:0:
182,270,119560,5,4,1:2:0:0:
200,167,119778,1,2,0:2:0:0:
293,299,119997,1,4,1:2:0:0:
283,195,120217,1,2,0:2:0:0:
408,298,120435,1,0,1:2:0:0:
408,298,120545,2,0,L|402:340,2,40,8|8|0,0:2|0:2|1:2,0:0:0:0:
371,201,120983,1,8,0:2:0:0:
371,201,121092,1,0,1:2:0:0:
438,124,121311,6,0,P|436:56|384:33,1,120,6|0,1:2|1:2,0:0:0:0:
363,45,121749,1,0,3:2:0:0:
272,32,121968,1,0,1:2:0:0:
181,19,122187,2,0,L|96:36,1,80,10|0,0:2|3:2,0:0:0:0:
96,50,122516,1,8,0:2:0:0:
89,65,122625,1,0,1:2:0:0:
0,202,123063,6,0,B|39:217|39:217|73:202,1,80,10|0,0:2|0:0,0:0:0:0:
103,170,123392,2,0,B|142:154|142:154|176:171,1,80,8|0,0:2|0:0,0:0:0:0:
205,194,123720,1,8,0:2:0:0:
240,294,123939,2,0,P|222:350|169:377,2,120,10|8|8,0:2|0:2|0:2,0:0:0:0:
352,288,124815,6,0,P|450:273|433:110,1,279.999991455078,2|8,0:2|0:3,0:0:0:0:
424,119,126019,1,8,0:3:0:0:
399,119,126129,1,8,0:3:0:0:
236,257,126567,6,0,P|164:363|48:307,1,279.999991455078,2|8,0:2|0:3,0:0:0:0:
44,284,127771,1,8,0:3:0:0:
39,260,127881,1,8,0:3:0:0:
77,166,128100,1,2,0:2:0:0:
77,166,128209,1,0,0:0:0:0:
76,166,128319,6,0,B|106:142|106:142|167:162|165:224,1,143.999995605469,6|0,1:3|1:3,0:3:0:0:
96,302,129195,2,0,L|194:317,1,95.9999970703126,8|0,0:2|0:2,0:0:0:0:
200,327,129742,1,0,0:2:0:0:
209,337,129852,1,0,0:2:0:0:
298,376,130071,1,0,0:2:0:0:
365,309,130290,6,0,B|419:328|419:328|485:304,1,120.000004577637,6|0,1:2|0:2,0:0:0:0:
478,235,130618,2,0,B|419:213|419:213|365:233,1,120.000004577637,6|0,1:2|0:2,0:0:0:0:
292,241,130946,2,0,B|270:182|270:182|290:128,1,120.000004577637,6|0,1:2|0:2,0:0:0:0:
363,142,131275,2,0,B|417:161|417:161|483:137,1,120.000004577637,6|0,1:2|0:2,0:0:0:0:
494,70,131603,1,14,0:2:0:0:
494,70,131713,1,8,0:2:0:0:
494,70,131822,6,0,L|487:27,3,40,6|2|2|2,1:2|0:2|0:2|0:2,0:0:0:0:
412,18,132260,1,2,1:2:0:0:
304,9,132479,1,2,0:2:0:0:
195,3,132698,2,0,L|178:83,1,80,8|0,0:2|0:0,0:0:0:0:
192,114,133027,2,0,L|183:154,1,40,8|0,0:2|1:2,0:0:0:0:
243,290,133355,1,2,0:2:0:0:
152,351,133574,6,0,P|116:366|76:364,1,80,2|0,1:2|0:0,0:0:0:0:
32,331,133903,2,0,L|20:227,1,80,2|0,0:2|0:0,0:0:0:0:
41,210,134231,1,2,0:2:0:0:
0,113,134450,2,0,L|79:102,1,80,8|0,0:2|0:0,0:0:0:0:
140,146,134779,2,0,L|219:135,1,80,8|0,0:2|0:0,0:0:0:0:
278,89,135107,1,10,0:2:0:0:
278,89,135217,1,8,0:2:0:0:
278,89,135326,6,0,P|319:65|391:79,2,120,2|2|2,1:2|0:2|0:2,0:0:0:0:
239,185,136202,1,8,0:2:0:0:
322,334,136530,1,8,0:2:0:0:
322,334,136640,2,0,L|412:345,1,80,2|2,1:2|0:2,0:0:0:0:
489,270,137078,5,14,0:2:0:0:
495,245,137187,1,10,0:2:0:0:
501,220,137297,1,10,0:2:0:0:
360,127,137735,5,14,0:2:0:0:
366,152,137845,1,10,0:2:0:0:
372,177,137954,1,10,0:2:0:0:
231,270,138392,5,14,0:2:0:0:
237,245,138502,1,10,0:2:0:0:
243,220,138611,1,10,0:2:0:0:
152,91,139049,5,6,1:2:0:0:
39,52,139268,1,6,1:2:0:0:
0,165,139487,1,6,1:2:0:0:
113,204,139706,2,0,B|142:253|142:253|105:362,1,160,6|6,1:2|1:2,0:0:0:0:
460,372,140800,6,0,B|397:349|397:349|370:291,1,120.000004577637,6|0,1:2|0:2,0:0:0:0:
371,151,141129,2,0,B|408:205|408:205|395:267,1,120.000004577637,6|0,1:2|0:2,0:0:0:0:
314,381,141457,2,0,B|316:318|316:318|361:275,1,120.000004577637,6|0,1:2|0:2,0:0:0:0:
496,229,141786,2,0,B|454:281|454:281|392:289,1,120.000004577637,6|0,1:2|0:2,0:0:0:0:
253,237,142114,1,6,1:2:0:0:
179,320,142333,5,14,0:2:0:0:
149,323,142443,1,8,0:2:0:0:
119,326,142552,1,8,0:2:0:0:
89,330,142662,1,8,0:2:0:0:
59,334,142771,1,6,1:2:0:0:
0,240,142990,1,8,0:2:0:0:
0,240,143100,1,12,0:2:0:0:
64,64,143428,1,10,0:2:0:0:
96,160,143647,1,10,0:2:0:0:
272,31,144085,6,0,P|310:22|350:17,1,80,6|2,1:2|0:2,0:0:0:0:
448,77,144523,2,0,P|438:115|433:155,1,80,10|2,0:2|0:2,0:0:0:0:
488,256,144961,1,2,1:2:0:0:
478,272,145070,1,0,0:2:0:0:
468,289,145180,1,0,0:2:0:0:
458,306,145289,1,0,0:2:0:0:
448,323,145399,2,0,L|365:342,1,80,10|2,0:2|0:2,0:0:0:0:
266,384,145837,5,2,1:2:0:0:
177,303,146056,1,2,0:2:0:0:
177,303,146165,1,2,0:2:0:0:
177,303,146275,2,0,L|168:218,1,80,10|2,0:2|0:2,0:0:0:0:
247,165,146713,1,2,1:2:0:0:
217,72,146932,1,2,0:2:0:0:
120,72,147151,1,10,0:2:0:0:
91,165,147370,1,2,0:2:0:0:
247,165,147589,6,0,L|333:182,1,80,2|2,1:2|0:2,0:0:0:0:
338,197,147917,1,0,0:2:0:0:
351,213,148027,1,8,0:2:0:0:
338,321,148246,1,2,0:2:0:0:
338,321,148465,1,2,1:2:0:0:
437,367,148684,1,2,0:2:0:0:
437,367,148793,1,0,1:2:0:0:
437,367,148903,1,8,0:2:0:0:
512,288,149122,1,2,1:2:0:0:
456,197,149341,6,0,L|444:118,1,80,2|0,1:2|0:0,0:0:0:0:
452,90,149669,1,0,1:2:0:0:
459,57,149779,2,0,L|380:45,1,80,8|0,0:2|1:2,0:0:0:0:
274,79,150216,1,0,1:2:0:0:
274,79,150326,2,0,L|262:166,1,80,8|0,0:2|1:2,0:0:0:0:
243,190,150654,1,8,0:2:0:0:
266,282,150873,1,0,1:0:0:0:
289,374,151092,5,6,1:2:0:0:
265,379,151202,1,2,1:2:0:0:
241,384,151311,2,0,L|186:376,1,40,2|2,1:2|1:2,0:0:0:0:
128,374,151530,1,2,1:2:0:0:
104,379,151640,1,2,1:2:0:0:
80,384,151749,2,0,L|25:376,1,40,2|2,1:2|1:2,0:0:0:0:
6,213,152187,2,0,L|-2:167,1,40,2|0,1:2|1:2,0:0:0:0:
10,134,152406,1,2,0:2:0:0:
176,19,152844,5,2,1:2:0:0:
200,24,152954,1,2,1:2:0:0:
224,29,153063,2,0,L|279:21,1,40,2|2,1:2|1:2,0:0:0:0:
337,19,153282,1,2,1:2:0:0:
361,24,153392,1,2,1:2:0:0:
385,29,153501,2,0,L|440:21,1,40,2|2,1:2|1:2,0:0:0:0:
512,219,153939,2,0,L|473:226,1,40,2|0,1:2|1:2,0:0:0:0:
442,252,154158,1,2,0:2:0:0:
281,324,154596,6,0,P|284:352|302:385,2,64,6|0|0,1:1|0:2|0:2,0:0:0:0:
325,236,155253,1,0,1:2:0:0:
393,336,155472,2,0,L|457:326,1,64,10|0,0:2|1:2,0:0:0:0:
480,217,155910,1,0,0:2:0:0:
480,217,156129,1,0,0:2:0:0:
429,109,156348,2,0,P|378:101|314:100,1,96,2|0,1:2|1:2,0:0:0:0:
312,118,156786,2,0,P|268:133|226:142,1,64,2|2,0:2|1:2,0:0:0:0:
117,79,157224,5,10,0:2:0:0:
84,184,157443,1,2,0:2:0:0:
189,217,157662,1,2,0:2:0:0:
222,112,157881,1,2,0:2:0:0:
153,148,158100,5,8,0:2:0:0:
388,191,158538,1,8,0:2:0:0:
173,295,158976,1,8,0:2:0:0:
286,85,159414,1,8,0:2:0:0:
263,198,159633,5,2,1:2:0:0:
263,198,159742,1,2,1:2:0:0:
263,198,159851,1,14,0:2:0:0:
383,189,160070,1,2,1:2:0:0:
383,189,160180,1,2,1:2:0:0:
383,189,160289,1,14,0:2:0:0:
503,180,160508,1,2,1:2:0:0:
503,180,160618,1,2,1:2:0:0:
503,180,160727,1,14,0:2:0:0:
286,85,161165,1,2,0:2:0:0:
503,180,161603,6,0,P|500:231|493:283,1,103.999995239258,6|2,1:2|0:2,0:0:0:0:
410,370,162041,2,0,P|360:359|308:352,1,103.999995239258,10|2,0:2|0:2,0:0:0:0:
161,366,162479,2,0,P|135:365|110:355,1,51.999997619629,6|2,1:2|0:2,0:0:0:0:
74,320,162698,2,0,P|57:300|46:276,1,51.999997619629,6|2,1:2|0:2,0:0:0:0:
46,226,162917,1,6,1:2:0:0:
164,265,163136,1,2,0:2:0:0:
164,265,163246,1,2,0:2:0:0:
164,264,163355,6,0,P|214:274|266:277,1,103.999995239258,6|2,1:2|0:2,0:0:0:0:
288,263,163684,1,2,0:2:0:0:
309,249,163793,1,10,0:2:0:0:
407,294,164012,1,2,0:2:0:0:
500,244,164231,2,0,L|509:192,1,51.999997619629,6|2,1:2|0:2,0:0:0:0:
473,158,164450,2,0,L|482:106,1,51.999997619629,6|2,1:2|0:2,0:0:0:0:
446,72,164669,1,6,1:2:0:0:
346,115,164888,1,2,0:2:0:0:
267,43,165107,6,0,P|172:17|102:87,1,207.999990478516,6|8,1:2|0:2,0:0:0:0:
154,196,165764,1,2,0:2:0:0:
154,196,165873,1,2,0:2:0:0:
154,196,165983,2,0,P|173:257|100:340,1,155.999992858887,0|0,1:2|0:2,0:0:0:0:
56,361,166421,2,0,L|-18:352,2,69.3333301595054,10|2|2,0:2|0:2|0:2,0:0:0:0:
176,384,166859,2,0,L|382:358,1,207.999990478516,2|10,1:2|0:2,0:0:0:0:
480,288,167516,1,2,0:2:0:0:
405,195,167735,1,2,1:2:0:0:
398,170,167844,1,8,0:2:0:0:
448,97,168063,1,0,1:2:0:0:
441,72,168172,1,8,0:2:0:0:
360,22,168392,1,2,0:2:0:0:
360,22,168501,1,2,0:2:0:0:
359,22,168611,6,0,P|310:37|258:40,1,103.999995239258,6|2,1:2|0:2,0:0:0:0:
96,128,169049,2,0,P|147:130|197:146,1,103.999995239258,10|2,0:2|0:2,0:0:0:0:
256,256,169487,1,6,1:2:0:0:
352,160,169706,1,6,1:2:0:0:
384,320,169925,1,6,1:2:0:0:
488,301,170144,1,2,0:2:0:0:
488,301,170253,1,2,0:2:0:0:
488,301,170363,6,0,L|509:199,1,103.999995239258,6|2,1:2|0:2,0:0:0:0:
378,74,170800,2,0,L|400:176,1,103.999995239258,10|2,0:2|0:2,0:0:0:0:
352,288,171238,1,6,1:2:0:0:
224,224,171457,1,6,1:2:0:0:
160,384,171676,1,6,1:2:0:0:
35,351,171895,1,2,0:2:0:0:
218,311,172114,6,0,P|303:260|278:155,1,207.999990478516,2|8,1:2|0:2,0:0:0:0:
232,54,172771,1,2,0:2:0:0:
358,18,172990,2,0,P|372:114|288:164,1,207.999990478516,0|8,1:2|0:2,0:0:0:0:
157,213,173647,1,2,3:2:0:0:
157,213,173757,1,2,3:2:0:0:
157,213,173866,6,0,B|131:262|131:262|153:308,1,103.999995239258,6|2,1:2|0:2,0:0:0:0:
276,384,174304,2,0,B|302:335|302:335|281:291,1,103.999995239258,14|2,0:2|0:2,0:0:0:0:
352,160,174742,1,14,0:2:0:0:
480,256,174961,1,6,1:2:0:0:
512,96,175180,1,6,1:2:0:0:
369,340,175618,5,4,1:2:0:0:
64,320,182625,5,6,1:2:0:0:
64,320,182735,1,2,0:2:0:0:
64,320,182844,1,2,0:2:0:0:
160,224,183063,6,0,L|226:214,2,60.0000022888184,10|2|2,0:2|0:2|0:2,0:0:0:0:
48,142,183501,5,2,1:2:0:0:
48,142,183611,1,2,0:2:0:0:
48,142,183720,1,2,0:2:0:0:
168,59,183939,6,0,L|158:0,2,60.0000022888184,10|2|2,0:2|0:2|0:2,0:0:0:0:
283,122,184377,5,2,1:2:0:0:
283,122,184487,1,2,0:2:0:0:
283,122,184596,1,2,0:2:0:0:
405,70,184815,6,0,L|415:11,2,60.0000022888184,10|2|2,0:2|0:2|0:2,0:0:0:0:
479,170,185253,5,2,1:2:0:0:
479,170,185363,1,10,0:2:0:0:
479,170,185472,1,2,0:2:0:0:
370,236,185691,5,10,0:2:0:0:
370,236,185800,1,2,0:2:0:0:
370,236,185910,1,10,0:2:0:0:
453,334,186129,6,0,B|435:373|435:373|323:357,1,155.999992858887,6|8,1:2|0:2,0:0:0:0:
273,363,186567,1,8,0:2:0:0:
166,344,186786,1,8,0:2:0:0:
59,325,187005,1,8,0:2:0:0:
0,128,187333,1,8,0:2:0:0:
0,128,187443,2,0,L|105:146,1,103.999995239258,0|8,1:2|0:2,0:0:0:0:
208,80,187881,5,10,0:2:0:0:
230,200,188100,1,10,0:2:0:0:
323,121,188319,1,10,0:2:0:0:
345,241,188538,1,10,0:2:0:0:
438,162,188757,1,10,0:2:0:0:
445,139,188866,1,10,0:2:0:0:
453,116,188976,1,10,0:2:0:0:
460,93,189085,1,10,0:2:0:0:
468,70,189195,1,10,0:2:0:0:
32,160,198392,6,0,B|49:119|49:119|77:155,2,83.9999974365235,4|8|8,1:2|0:2|0:2,0:0:0:0:
0,256,199268,1,6,1:2:0:0:
124,272,199487,1,6,1:2:0:0:
248,288,199706,1,6,1:2:0:0:
496,105,200144,6,0,B|483:70|483:70|452:112,2,83.9999974365235,0|8|8,1:2|0:2|0:2,0:0:0:0:
512,198,201019,1,6,1:2:0:0:
388,182,201238,1,6,1:2:0:0:
264,166,201457,1,6,1:2:0:0:
215,50,201676,1,2,0:2:0:0:
140,150,201895,5,2,1:2:0:0:
192,352,202224,1,8,0:2:0:0:
192,352,202333,1,0,1:2:0:0:
274,305,202552,1,2,0:2:0:0:
349,372,202771,2,0,L|433:382,1,83.9999974365235,2|8,1:2|0:2,0:0:0:0:
475,366,203209,1,0,1:2:0:0:
512,240,203428,5,8,0:2:0:0:
512,240,203538,1,8,0:2:0:0:
512,240,203647,1,8,0:2:0:0:
464,112,203866,1,8,0:2:0:0:
464,112,203976,2,0,B|414:122|414:122|371:107,1,95.9999970703126,8|8,0:2|0:2,0:0:0:0:
340,74,204304,1,8,0:2:0:0:
241,120,204523,6,0,L|231:179,1,51.999997619629,6|0,1:2|0:2,0:0:0:0:
267,236,204742,2,0,L|257:295,1,51.999997619629,6|0,1:2|0:2,0:0:0:0:
213,349,204961,1,10,0:2:0:0:
189,354,205071,1,8,0:2:0:0:
165,359,205180,1,8,1:2:0:0:
141,365,205290,1,8,1:2:0:0:
117,371,205399,6,0,P|66:360|19:337,1,103.999995239258,6|2,1:2|0:2,0:0:0:0:
0,192,205837,2,0,P|50:182|97:159,1,103.999995239258,10|2,0:2|0:2,0:0:0:0:
192,64,206275,1,6,1:2:0:0:
320,128,206494,1,6,1:2:0:0:
192,224,206713,1,6,1:2:0:0:
262,312,206932,1,2,1:2:0:0:
262,312,207041,1,2,1:2:0:0:
262,312,207151,6,0,L|364:327,1,103.999995239258,6|2,1:2|0:2,0:0:0:0:
512,224,207589,2,0,L|409:208,1,103.999995239258,10|2,0:2|0:2,0:0:0:0:
320,128,208027,1,6,1:2:0:0:
256,256,208246,1,6,1:2:0:0:
192,112,208465,1,6,1:2:0:0:
115,175,208684,1,2,1:2:0:0:
115,175,208793,1,2,1:2:0:0:
114,175,208903,6,0,P|31:151|50:38,1,207.999990478516,6|10,1:2|0:2,0:0:0:0:
163,6,209560,1,2,0:2:0:0:
163,6,209669,1,2,0:2:0:0:
163,6,209779,2,0,L|320:27,1,155.999992858887,2|0,1:2|0:2,0:0:0:0:
392,43,210217,2,0,L|464:34,2,69.3333301595054,10|2|2,0:2|0:2|0:2,0:0:0:0:
341,100,210654,6,0,L|319:254,1,155.999992858887,2|0,1:2|1:2,0:0:0:0:
332,302,211092,1,8,0:2:0:0:
226,377,211311,2,0,L|163:372,1,51.999997619629,2|0,0:2|1:2,0:0:0:0:
108,343,211530,1,0,1:2:0:0:
103,312,211639,1,8,0:2:0:0:
98,281,211748,1,0,1:2:0:0:
93,250,211858,1,0,1:2:0:0:
88,219,211967,1,8,0:2:0:0:
25,119,212187,1,2,1:2:0:0:
25,119,212297,1,2,1:2:0:0:
25,119,212406,6,0,L|127:136,1,103.999995239258,6|2,1:2|0:2,0:0:0:0:
192,256,212844,2,0,L|294:238,1,103.999995239258,10|2,0:2|0:2,0:0:0:0:
384,128,213282,1,6,1:2:0:0:
243,67,213501,1,6,1:2:0:0:
411,7,213720,1,6,1:2:0:0:
497,67,213939,1,2,1:2:0:0:
497,67,214049,1,2,1:2:0:0:
497,67,214158,6,0,L|481:169,1,103.999995239258,6|2,1:2|0:2,0:0:0:0:
367,294,214596,2,0,L|352:192,1,103.999995239258,10|2,0:2|0:2,0:0:0:0:
256,96,215034,1,6,1:2:0:0:
224,256,215253,1,6,1:2:0:0:
85,133,215472,1,6,1:2:0:0:
15,221,215691,1,2,1:2:0:0:
15,221,215800,1,0,1:2:0:0:
14,221,215910,6,0,P|14:318|106:352,1,207.999990478516,6|8,1:2|0:2,0:0:0:0:
224,288,216567,1,2,0:2:0:0:
187,167,216786,2,0,P|220:75|317:74,1,207.999990478516,0|8,1:2|0:2,0:0:0:0:
387,183,217443,1,0,3:2:0:0:
387,183,217552,1,2,3:2:0:0:
387,183,217662,6,0,L|270:165,1,103.999995239258,6|2,1:2|1:2,0:0:0:0:
121,303,218100,2,0,L|224:288,1,103.999995239258,6|0,1:2|1:2,0:0:0:0:
352,352,218538,1,6,1:2:0:0:
432,208,218757,1,6,1:2:0:0:
480,384,218976,1,6,1:2:0:0:
336,193,219414,6,0,L|341:130,2,53.3333333333333,10|10|10,0:3|0:3|0:3,0:0:0:0:
370,266,219852,1,10,0:3:0:0:
240,146,220290,2,0,L|235:83,2,53.3333333333333,6|6|6,0:3|0:3|0:3,0:0:0:0:
206,219,220728,1,6,0:3:0:0:
1,112,221165,2,0,P|50:126|66:175,1,106.666666666667,8|4,0:3|0:3,0:0:0:0:
55,254,221603,2,0,P|70:302|120:316,1,106.666666666667,8|4,0:3|0:3,0:0:0:0:
188,357,222041,2,0,L|347:345,1,160,8|10,0:3|0:2,0:0:0:0:
483,217,222917,5,6,0:3:0:0:
495,184,223063,1,6,0:3:0:0:
481,153,223209,1,6,0:3:0:0:
450,141,223355,1,6,0:3:0:0:
292,172,223793,5,10,0:3:0:0:
261,160,223939,1,10,0:3:0:0:
247,129,224085,1,10,0:3:0:0:
259,96,224231,1,10,0:3:0:0:
149,16,224523,5,10,0:3:0:0:
148,15,224669,2,0,P|97:16|62:54,1,106.666666666667,6|10,0:3|0:3,0:0:0:0:
0,95,225107,2,0,P|51:95|86:133,1,106.666666666667,6|10,0:3|0:3,0:0:0:0:
110,205,225545,2,0,L|86:363,1,160,6|14,0:3|0:2,0:0:0:0:
480,288,226421,5,6,1:2:0:0:
352,256,226640,1,6,1:2:0:0:
224,224,226859,1,6,1:2:0:0:
0,364,228173,5,6,1:2:0:0:
128,332,228392,1,6,1:2:0:0:
256,300,228611,1,6,1:2:0:0:
512,64,229925,5,6,1:2:0:0:
384,96,230144,1,6,1:2:0:0:
256,128,230363,1,6,1:2:0:0:
32,128,231677,6,0,L|16:255,1,128,6|0,1:1|0:2,0:0:0:0:
224,128,232553,2,0,L|239:2,1,128,6|0,1:1|0:2,0:0:0:0:
416,128,233428,5,6,1:2:0:0:
448,256,233647,1,6,1:2:0:0:
480,384,233866,1,6,1:2:0:0:
388,349,234085,1,0,3:2:0:0:
388,349,234304,2,0,B|342:369|342:369|300:295,2,120,8|8|8,0:2|0:2|0:2,0:0:0:0:
448,256,235180,5,6,1:2:0:0:
320,224,235399,1,6,1:2:0:0:
192,192,235618,1,6,1:2:0:0:
227,284,235837,1,8,0:2:0:0:
227,284,236056,2,0,B|264:314|264:314|247:391,2,120,8|8|8,0:2|0:2|0:2,0:0:0:0:
192,192,236932,6,0,L|202:147,1,40,6|2,1:2|0:2,0:0:0:0:
187,114,237151,2,0,L|197:69,1,40,6|2,1:2|0:2,0:0:0:0:
187,33,237370,1,6,1:2:0:0:
96,0,237589,1,8,0:2:0:0:
96,0,237808,2,0,L|78:79,1,80,8|0,0:2|0:0,0:0:0:0:
49,92,238136,2,0,L|22:210,1,120,8|8,0:2|0:2,0:0:0:0:
27,225,238538,1,8,0:2:0:0:
31,241,238611,1,8,0:2:0:0:
35,257,238684,6,0,L|114:282,1,51.999997619629,10|10,0:2|0:2,0:0:0:0:
156,253,238903,2,0,L|205:268,1,51.999997619629,8|10,0:2|0:2,0:0:0:0:
244,338,239122,1,10,0:2:0:0:
244,338,239231,2,0,L|293:353,1,51.999997619629,10|8,0:2|0:2,0:0:0:0:
372,341,239450,1,10,0:2:0:0:
372,341,239560,1,8,0:0:0:0:
496,381,239779,1,6,1:2:0:0:
496,381,239998,6,0,B|531:54|531:54|434:169,1,480,6|0,1:2|0:2,0:0:0:0:
