osu file format v14

[General]
AudioFilename: Kanata.mp3
AudioLeadIn: 0
PreviewTime: 49067
Countdown: 0
SampleSet: Soft
StackLeniency: 0.7
Mode: 0
LetterboxInBreaks: 0
WidescreenStoryboard: 1

[Editor]
Bookmarks: 492,10926,21361,37013,47448,52654,63100,73535,78752
DistanceSpacing: 0.9
BeatDivisor: 4
GridSize: 8
TimelineZoom: 2.599999

[Metadata]
Title:Kyoukai no Kanata (TV Size)
TitleUnicode:境界の彼方 (TV Size)
Artist:Chihara Minori
ArtistUnicode:茅原実里
Creator:Lafayla
Version:Hinsvar's Insane
Source:境界の彼方
Tags:hinsvar terakomari kyokai Beyond the Boundary japanese j-pop jpop pop anime op opening Elements Garden 畑亜貴 Aki Hata 菊田大介 Daisuke Kikuta
BeatmapID:4252621
BeatmapSetID:2038619

[Difficulty]
HPDrainRate:5
CircleSize:4
OverallDifficulty:7
ApproachRate:8
SliderMultiplier:1.6
SliderTickRate:1

[Events]
//Background and Video events
0,0,"Kyoukai No Kanata.jpg",0,0
Video,-416,"kanata.mp4"
//Break Periods
//Storyboard Layer 0 (Background)
//Storyboard Layer 1 (Fail)
//Storyboard Layer 2 (Pass)
//Storyboard Layer 3 (Foreground)
//Storyboard Layer 4 (Overlay)
//Storyboard Sound Samples

[TimingPoints]
507,327.868852459016,4,2,1,40,1,0
507,-166.666666666667,4,2,1,40,0,0
1818,320.855614973262,4,2,1,40,1,0
1818,-166.666666666667,4,2,1,40,0,0
3101,326.086956521739,4,2,1,40,1,0
3101,-166.666666666667,4,2,1,40,0,0
4405,329.67032967033,4,2,1,40,1,0
4405,-166.666666666667,4,2,1,40,0,0
5723,324.324324324324,4,2,1,40,1,0
5723,-166.666666666667,4,2,1,40,0,0
7020,329.67032967033,4,2,1,40,1,0
7020,-166.666666666667,4,2,1,40,0,0
8306,326.086956521738,4,2,1,40,1,0
8306,-166.666666666667,4,2,1,40,0,0
8958,322.580645161289,4,2,1,40,1,0
8958,-166.666666666667,4,2,1,40,0,0
9603,324.324324324323,4,2,1,40,1,0
9603,-166.666666666667,4,2,1,40,0,0
10926,326.086956521739,4,2,1,50,1,0
10926,-125,4,2,1,50,0,0
13534,-125,4,2,1,55,0,0
14186,320.855614973262,4,2,1,60,1,0
14186,-125,4,2,1,60,0,0
15148,319.148936170213,4,2,1,60,1,0
15148,-125,4,2,1,60,0,0
15467,323.014804845222,4,2,1,60,1,0
15467,-125,4,2,1,60,0,0
16113,333.333333333333,4,2,1,60,1,0
16113,-125,4,2,1,60,0,0
17446,328.767123287671,4,2,1,60,1,0
17446,-125,4,2,1,60,0,0
18103,320.855614973262,4,2,1,60,1,0
18103,-125,4,2,1,60,0,0
18744,326.086956521739,4,2,1,60,1,0
18744,-125,4,2,1,60,0,0
21352,326.086956521739,4,1,1,60,1,0
21352,-100,4,1,1,65,0,0
26243,-100,4,2,1,60,0,0
26568,-125,4,2,1,50,0,0
36024,-100,4,2,1,50,0,0
36513,-100,4,1,1,60,0,0
44830,335.195530726257,4,2,1,60,1,0
44830,-125,4,1,1,60,0,0
45835,315.789473684211,4,2,1,60,1,0
45835,-125,4,1,1,60,0,0
46150,322.061191626409,4,2,1,60,1,0
46150,-125,4,1,1,60,0,0
47438,326.086956521739,4,2,1,60,1,0
47438,-100,4,1,1,60,0,0
50046,-100,4,1,1,70,0,0
51351,320.855614973262,4,1,1,70,1,0
51351,-100,4,1,1,70,0,0
52313,327.868852459016,4,1,1,70,1,0
52313,-100,4,1,1,70,0,0
52640,326.086956521739,4,1,1,75,1,0
52640,-83.3333333333333,4,1,1,75,0,1
53944,329.67032967033,4,1,1,75,1,0
53944,-83.3333333333333,4,1,1,75,0,1
55262,327.868852459016,4,1,1,75,1,0
55262,-83.3333333333333,4,1,1,75,0,1
56573,326.086956521739,4,1,1,75,1,0
56573,-83.3333333333333,4,1,1,75,0,1
57877,324.324324324324,4,1,1,75,1,0
57877,-83.3333333333333,4,1,1,75,0,1
59174,326.086956521739,4,1,1,75,1,0
59174,-83.3333333333333,4,1,1,75,0,1
63087,326.086956521739,4,1,1,75,1,0
63087,-83.3333333333333,4,1,1,75,0,1
72217,323.450134770889,4,1,1,75,1,0
72217,-83.3333333333333,4,1,1,75,0,1
72863,321.71581769437,4,1,1,75,1,0
72863,-83.3333333333333,4,1,1,75,0,1
73506,331.491712707182,4,1,1,75,1,0
73506,-100,4,1,1,65,0,0
74666,324.324324324324,4,1,1,75,1,0
74666,-100,4,1,1,65,0,0
74828,324.324324324324,4,1,1,75,1,0
74828,-100,4,1,1,65,0,0
76125,326.086956521739,4,1,1,75,1,0
76125,-100,4,1,1,65,0,0
78407,-100,4,1,1,65,0,0
78733,329.67032967033,4,2,1,30,1,0
78733,-166.666666666667,4,2,1,30,0,0
80711,318.640467339352,4,2,1,30,1,0
80711,-166.666666666667,4,2,1,30,0,0
81348,357.142857142857,4,2,1,30,1,0
81348,-166.666666666667,4,2,1,30,0,0
82062,404.040404040404,4,2,1,30,1,0
82062,-100,4,2,1,30,0,0
82870,571.428571428571,4,2,1,30,1,0
82870,-100,4,2,1,30,0,0
84012,-250,4,2,1,30,0,0
84441,-250,4,2,1,20,0,0
84584,-250,4,2,1,15,0,0
87155,-250,4,2,1,10,0,0

[Colours]
Combo1 : 226,204,87
Combo2 : 84,172,95
Combo3 : 66,130,190
Combo4 : 221,83,111

[HitObjects]
40,377,507,6,0,P|24:334|26:272,2,95.9999970703126,2|0|0,0:0|0:0|0:0,0:0:0:0:
214,300,1490,2,0,P|213:252|197:207,1,95.9999970703126,0|2,0:0|0:0,0:0:0:0:
197,207,2459,1,2,0:0:0:0:
37,198,2780,1,0,0:0:0:0:
110,342,3101,1,2,0:0:0:0:
402,42,3753,5,2,0:0:0:0:
475,186,4079,1,0,0:0:0:0:
315,177,4405,1,2,0:0:0:0:
242,33,4734,1,2,0:0:0:0:
153,168,5064,2,0,B|101:149|75:120|82:101|53:58|-5:46,1,191.999994140625,2|2,0:0|0:0,0:0:0:0:
14,208,6047,6,0,P|18:232|19:256,2,47.9999985351563,0|0|2,0:0|0:0|0:0,0:0:0:0:
137,308,6695,1,0,0:0:0:0:
293,166,7020,2,0,P|259:201|249:253,1,95.9999970703126,2|0,0:0|0:0,0:0:0:0:
468,269,7679,2,0,P|453:222|413:187,1,95.9999970703126,2|0,0:0|0:0,0:0:0:0:
291,369,8306,2,0,P|338:379|388:362,2,95.9999970703126,2|0|2,0:0|0:0|0:0,0:0:0:0:
353,272,9280,1,2,0:0:0:0:
197,333,9603,2,0,B|150:338|127:313|130:309|102:288|49:292,1,143.999995605469,2|0,0:0|0:0,0:0:0:0:
62,291,10251,1,2,0:0:0:0:
449,92,10926,5,4,0:0:0:0:
449,92,11252,2,0,L|442:26,1,64,0|0,3:0|0:0,0:0:0:0:
364,46,11578,2,0,L|310:85,1,64,0|0,3:0|0:0,0:0:0:0:
367,143,11904,2,0,L|427:169,1,64,0|0,3:0|0:0,0:0:0:0:
477,262,12230,6,0,P|475:295|484:334,1,64,0|0,3:0|0:0,0:0:0:0:
413,368,12556,2,0,P|380:366|341:375,1,64,0|0,3:0|0:0,0:0:0:0:
307,304,12882,2,0,P|309:271|300:232,1,64,0|0,3:0|0:0,0:0:0:0:
371,198,13208,2,0,P|404:200|443:191,1,64,0|0,3:0|0:0,0:0:0:0:
398,94,13534,5,2,3:2:0:0:
398,94,13860,1,0,3:0:0:0:
398,94,14186,2,0,B|349:96|306:56|313:52|277:15|221:16,1,192,10|0,0:0|1:0,0:0:0:0:
67,60,14827,1,0,1:0:0:0:
67,60,14907,1,0,1:0:0:0:
67,60,14988,2,0,P|57:75|58:96,1,32,2|0,1:0|0:0,0:0:0:0:
129,132,15148,1,0,1:0:0:0:
129,132,15227,1,0,1:0:0:0:
129,132,15307,2,0,P|139:117|138:96,1,32,2|0,1:0|0:0,0:0:0:0:
142,30,15467,5,8,0:0:0:0:
62,197,15628,1,8,3:0:0:0:
62,197,15790,1,0,1:0:0:0:
62,197,15951,1,0,1:0:0:0:
247,183,16113,5,4,0:0:0:0:
247,183,16446,2,0,P|237:147|236:109,1,64,2|0,3:1|3:0,0:0:0:0:
264,46,16779,1,8,0:0:0:0:
465,81,17113,2,0,P|475:117|476:155,1,64,2|0,0:1|0:0,0:0:0:0:
448,218,17446,6,0,P|383:218|312:253,1,128,2|0,3:1|3:0,0:0:0:0:
403,298,17939,1,0,0:0:0:0:
358,378,18103,2,0,P|423:378|494:343,1,128,8|2,0:0|3:1,0:0:0:0:
256,346,18744,5,4,0:0:0:0:
256,346,19070,1,0,3:0:0:0:
256,346,19396,5,0,3:0:0:0:
256,346,19559,1,0,1:0:0:0:
298,272,19722,1,0,3:2:0:0:
256,199,19885,1,0,1:0:0:0:
214,272,20048,1,2,3:2:0:0:
214,272,20211,1,0,1:0:0:0:
214,272,20374,2,0,P|183:270|149:246,1,64,10|0,0:0|1:0,0:0:0:0:
128,30,20700,5,0,1:0:0:0:
143,29,20782,1,0,1:0:0:0:
159,32,20863,1,0,1:0:0:0:
174,38,20945,1,0,1:0:0:0:
186,48,21026,1,8,0:0:0:0:
248,156,21189,5,0,1:0:0:0:
248,156,21271,1,0,1:0:0:0:
248,156,21352,2,0,L|79:141,1,160,4|8,0:0|0:0,0:0:0:0:
155,253,21841,1,2,0:0:0:0:
62,350,22004,2,0,L|231:365,1,160,0|2,3:0|0:0,0:0:0:0:
357,253,22493,1,0,0:0:0:0:
443,286,22656,6,0,P|444:240|436:203,1,80,0|2,3:0|0:0,0:0:0:0:
271,220,22982,2,0,P|270:266|278:303,1,80,8|0,0:0|0:0,0:0:0:0:
350,136,23308,5,0,3:0:0:0:
390,65,23471,1,0,3:0:0:0:
320,24,23634,1,8,0:0:0:0:
282,94,23797,1,0,0:0:0:0:
125,3,23960,6,0,P|88:66|0:86,1,160,4|8,0:0|0:0,0:0:0:0:
143,134,24449,1,2,0:0:0:0:
18,206,24612,2,0,P|91:206|152:272,1,160,0|10,3:0|0:0,0:0:0:0:
416,365,25265,5,0,3:0:0:0:
400,216,25428,1,2,0:0:0:0:
505,358,25591,1,0,1:0:0:0:
489,209,25754,1,0,3:0:0:0:
455,292,25917,5,8,0:0:0:0:
449,286,26080,1,4,3:0:0:0:
455,280,26243,1,2,0:0:0:0:
460,286,26406,1,0,0:0:0:0:
315,317,26569,6,0,P|244:307|181:268,1,128,4|0,0:0|0:0,0:0:0:0:
197,67,27221,2,0,P|268:77|331:116,2,128,2|2|2,0:0|0:0|3:2,0:0:0:0:
45,350,28525,6,0,L|33:211,2,128,2|0|2,0:0|0:0|3:2,0:0:0:0:
478,222,29830,2,0,L|467:350,2,128,2|2|2,0:0|0:0|3:2,0:0:0:0:
297,108,30808,2,0,P|233:83|216:17,1,128,2|2,0:0|0:0,0:0:0:0:
288,0,31296,2,0,P|320:12|328:45,1,64,0|0,3:0|0:0,0:0:0:0:
120,192,31786,5,2,3:2:0:0:
120,192,32112,2,0,L|49:184,1,64,2|2,0:0|0:0,0:0:0:0:
172,277,32438,2,0,L|30:261,1,128,2|2,0:0|0:0,0:0:0:0:
345,153,33091,6,0,P|325:98|319:7,2,128,2|0|0,3:2|0:0|0:0,0:0:0:0:
194,354,34069,2,0,P|191:322|180:292,1,64,2|0,0:0|0:0,0:0:0:0:
137,224,34395,6,0,P|72:222|23:174,1,128,2|2,3:2|0:0,0:0:0:0:
251,127,35047,2,0,P|206:79|205:11,1,128,2|2,0:0|0:0,0:0:0:0:
400,139,35699,5,2,3:2:0:0:
400,139,35862,1,0,3:0:0:0:
442,28,36025,2,0,B|475:42|475:42|487:177,1,160,4|2,1:2|1:2,0:0:0:0:
368,217,36515,1,0,3:0:0:0:
250,268,36678,2,0,B|255:330|255:330|271:336,1,80,0|0,3:0|3:0,0:0:0:0:
128,132,37004,6,0,B|171:119|203:148|202:153|242:185|282:172,1,160,4|8,0:0|0:0,0:0:0:0:
276,173,37493,1,4,0:2:0:0:
276,173,37982,2,2,B|340:192|388:149|387:141|447:93|507:113,1,240,10|8,0:0|0:0,1:0:0:0:
484,274,38634,2,0,P|469:233|470:188,1,80,2|0,0:0|3:0,0:0:0:0:
317,89,38960,5,8,0:0:0:0:
388,53,39123,1,0,0:0:0:0:
325,3,39286,1,8,3:0:0:0:
254,39,39449,1,2,0:0:0:0:
164,184,39612,6,0,B|128:161|122:118|128:121|113:77|62:50,1,160,4|8,0:0|0:0,0:0:0:0:
73,56,40101,1,4,0:2:0:0:
73,56,40591,2,2,B|129:26|190:50|181:56|250:69|323:23,1,240,10|8,0:0|0:0,1:0:0:0:
464,10,41243,2,0,P|472:47|448:88,1,80,2|0,0:0|0:0,0:0:0:0:
335,184,41569,5,0,3:0:0:0:
366,257,41732,1,8,0:0:0:0:
302,306,41895,1,10,0:0:0:0:
271,233,42058,1,0,3:0:0:0:
130,137,42221,6,0,B|121:187|147:212|152:213|171:241|160:306,1,160,4|8,0:0|0:0,0:0:0:0:
162,290,42710,1,4,0:2:0:0:
166,299,43199,2,2,B|152:225|181:183|188:181|227:144|214:69,1,240,6|10,0:0|0:0,1:0:0:0:
81,58,43851,2,0,P|42:50|8:13,1,80,2|2,0:2|3:2,0:0:0:0:
18,204,44178,5,2,0:0:0:0:
73,145,44341,1,0,3:0:0:0:
142,184,44504,1,8,3:0:0:0:
86,242,44667,1,0,3:0:0:0:
27,358,44830,6,2,P|90:345|162:336,1,128,6|0,0:0|3:0,1:0:0:0:
485,180,45500,2,2,P|422:193|350:202,1,128,10|0,0:0|0:0,1:0:0:0:
153,47,46150,2,0,P|89:38|27:26,1,128,2|2,3:1|3:2,0:0:0:0:
115,253,46794,6,0,P|88:203|102:128,1,128,8|10,0:0|0:0,0:0:0:0:
196,185,47277,1,0,1:0:0:0:
328,97,47438,5,4,0:0:0:0:
328,97,47764,2,0,P|361:159|344:253,1,160,8|0,0:0|3:0,0:0:0:0:
246,294,48253,1,0,3:0:0:0:
194,225,48416,2,0,P|225:208|272:216,1,80,8|0,0:0|0:0,0:0:0:0:
298,363,48742,2,0,P|266:379|219:371,1,80,2|0,0:2|3:0,0:0:0:0:
78,309,49068,1,10,0:0:0:0:
78,309,49394,2,0,L|70:226,1,80,2|0,0:0|3:0,0:0:0:0:
175,7,49720,2,0,L|187:131,1,120,10|0,0:0|2:0,0:0:0:0:
200,211,50046,5,6,0:0:0:0:
200,211,50372,1,0,3:0:0:0:
200,211,50698,1,2,3:1:0:0:
200,211,50861,1,8,3:0:0:0:
279,221,51024,1,0,3:0:0:0:
397,236,51188,1,0,3:0:0:0:
512,252,51351,6,0,P|513:276|518:303,3,40,2|0|8|8,3:1|0:0|3:0|3:0,0:0:0:0:
479,358,51671,2,0,P|455:356|428:361,3,40,2|0|2|0,3:1|0:0|0:0|0:0,0:0:0:0:
373,322,51992,2,0,P|375:298|370:271,3,40,10|8|8|8,0:0|0:0|0:0|0:0,0:0:0:0:
409,216,52313,2,0,P|433:218|460:213,3,40,8|8|8|8,0:0|0:0|0:0|0:0,0:0:0:0:
503,160,52640,6,2,B|492:112|440:88|436:90|387:60|387:11,1,191.999994140625,6|8,0:0|0:0,1:0:0:0:
325,123,53129,1,0,0:0:0:0:
148,160,53292,2,2,B|158:112|210:88|214:90|263:60|263:11,1,191.999994140625,2|8,0:0|0:0,1:0:0:0:
116,58,53781,1,0,0:0:0:0:
19,48,53944,6,0,L|56:137,1,95.9999970703126,2|0,3:1|0:0,0:0:0:0:
2,262,54273,2,0,L|91:226,1,95.9999970703126,8|0,0:0|0:0,0:0:0:0:
216,279,54603,2,0,L|180:191,1,95.9999970703126,2|0,3:1|3:0,0:0:0:0:
233,64,54933,2,0,L|145:101,1,95.9999970703126,10|0,0:0|0:0,0:0:0:0:
411,19,55262,6,2,P|485:54|493:166,1,191.999994140625,2|8,3:1|0:0,1:0:0:0:
358,191,55753,1,0,0:0:0:0:
305,363,55917,2,0,P|231:328|223:216,1,191.999994140625,2|8,3:1|0:0,0:0:0:0:
372,288,56409,1,0,0:0:0:0:
344,94,56573,6,0,L|350:-2,1,95.9999970703126,2|0,3:1|0:0,0:0:0:0:
158,104,56899,2,0,L|62:98,1,95.9999970703126,8|0,0:0|0:0,0:0:0:0:
168,290,57225,2,0,L|162:386,1,95.9999970703126,2|0,3:1|3:0,0:0:0:0:
354,280,57551,2,0,L|450:286,1,95.9999970703126,10|0,0:0|3:0,0:0:0:0:
256,192,57877,1,4,0:2:0:0:
256,192,58201,6,0,P|240:144|240:96,1,95.9999970703126,10|0,0:0|0:0,0:0:0:0:
337,5,58525,2,0,P|369:101|369:197,1,191.999994140625,2|8,3:1|0:0,0:0:0:0:
163,250,59012,1,0,0:0:0:0:
193,344,59174,2,2,L|90:325,1,95.9999970703126,2|0,3:1|0:0,1:0:0:0:
161,165,59500,2,0,L|101:78,1,95.9999970703126,8|0,0:0|0:0,0:0:0:0:
322,134,59826,1,2,3:1:0:0:
382,5,59989,1,0,3:0:0:0:
463,121,60152,1,8,0:0:0:0:
463,121,60478,6,0,B|499:182|470:224|460:223|424:260|455:315,2,191.999994140625,2|8|0,0:0|0:0|3:0,0:0:0:0:
257,122,61293,2,0,P|258:76|251:21,1,95.9999970703126,2|8,3:1|0:0,0:0:0:0:
63,302,61619,6,0,B|88:260|52:223|42:224|13:182|49:121,1,191.999994140625,6|0,0:0|3:0,0:0:0:0:
175,30,62108,1,8,0:0:0:0:
277,148,62271,1,0,0:0:0:0:
150,240,62434,2,0,P|150:212|157:185,3,47.9999985351563,8|0|0|0,0:0|0:0|0:0|0:0,0:0:0:0:
227,219,62760,1,8,0:0:0:0:
228,242,62842,1,0,0:0:0:0:
227,266,62924,1,0,0:0:0:0:
224,290,63005,1,0,0:0:0:0:
218,313,63087,6,2,B|160:304|124:338|127:347|88:378|27:368,1,191.999994140625,6|8,0:0|0:0,1:0:0:0:
256,192,63576,1,0,0:0:0:0:
379,164,63739,2,0,B|400:219|448:233|454:226|501:244|522:302,1,191.999994140625,2|8,3:1|0:0,0:0:0:0:
256,192,64228,1,0,0:0:0:0:
170,98,64391,6,0,B|188:75|182:51|178:50|174:26|194:2,1,95.9999970703126,2|0,3:1|0:0,0:0:0:0:
82,192,64717,2,0,B|63:214|69:238|73:239|77:264|58:288,1,95.9999970703126,8|0,0:0|3:0,0:0:0:0:
0,81,65043,2,0,B|6:96|31:93|32:88|56:82|79:101,1,95.9999970703126,2|0,0:0|3:0,0:0:0:0:
263,209,65369,2,2,B|245:193|220:197|219:202|195:207|172:189,1,95.9999970703126,10|0,0:0|0:0,1:0:0:0:
173,189,65695,1,0,3:0:0:0:
491,21,66021,6,0,P|439:98|347:112,1,191.999994140625,10|2,0:0|3:1,0:0:0:0:
283,40,66510,1,0,3:0:0:0:
377,21,66673,1,8,0:0:0:0:
410,200,66837,6,0,P|388:281|389:390,1,191.999994140625,2|0,0:0|0:0,0:0:0:0:
274,271,67326,1,10,0:0:0:0:
138,342,67489,2,0,P|160:261|159:152,1,191.999994140625,2|2,0:0|3:1,0:0:0:0:
220,57,67978,2,0,P|179:46|125:46,1,95.9999970703126,8|0,0:0|0:0,0:0:0:0:
17,218,68304,6,0,P|38:289|142:341,1,191.999994140625,4|8,0:0|0:0,0:0:0:0:
256,308,68793,1,0,3:0:0:0:
17,218,69282,6,0,P|38:289|142:341,1,191.999994140625,4|0,0:2|3:0,0:0:0:0:
256,308,69771,1,0,3:0:0:0:
256,308,69934,2,0,L|256:209,1,95.9999970703126,8|8,0:0|3:0,0:0:0:0:
17,218,70260,6,0,P|103:254|137:341,1,191.999994140625,2|10,3:1|0:0,0:0:0:0:
167,177,70750,1,0,3:0:0:0:
317,136,70913,6,2,P|230:99|196:12,1,191.999994140625,6|8,0:0|0:0,1:0:0:0:
472,48,71402,1,0,0:0:0:0:
385,11,71565,2,0,P|386:56|397:106,1,95.9999970703126,0|0,3:0|3:0,0:0:0:0:
499,270,71891,2,0,P|459:249|410:232,1,95.9999970703126,8|0,0:0|0:0,0:0:0:0:
217,239,72217,5,2,3:2:0:0:
52,297,72378,1,0,0:0:0:0:
163,350,72540,1,0,0:0:0:0:
105,185,72702,1,8,0:0:0:0:
241,16,72863,5,10,0:0:0:0:
90,35,73023,1,8,0:0:0:0:
198,139,73184,1,10,0:0:0:0:
347,119,73345,1,0,3:0:0:0:
472,54,73506,6,2,P|456:123|456:221,1,160,6|8,0:0|0:0,1:0:0:0:
268,365,74003,2,0,P|284:295|284:198,1,160,2|0,0:0|3:0,0:0:0:0:
451,301,74500,1,8,0:0:0:0:
368,186,74666,6,0,P|357:152|333:109,1,80,2|0,0:0|3:0,0:0:0:0:
214,28,74990,2,0,P|180:38|137:62,1,80,0|8,0:0|0:0,0:0:0:0:
56,182,75314,2,0,P|66:215|90:258,1,80,0|2,3:0|0:0,0:0:0:0:
210,340,75638,2,0,P|243:329|286:305,1,80,0|8,3:0|0:0,0:0:0:0:
282,307,75963,1,8,3:0:0:0:
228,183,76125,6,0,B|263:151|262:115|258:113|263:68|316:29,1,160,0|8,3:0|0:0,0:0:0:0:
99,23,76614,1,2,0:0:0:0:
132,118,76777,2,0,B|109:110|94:120|94:122|73:131|43:117,1,80,0|0,3:0|3:0,0:0:0:0:
124,234,77103,1,8,0:0:0:0:
124,234,77266,2,0,B|133:280|165:297|168:295|205:322|212:387,1,160,2|0,0:0|3:0,0:0:0:0:
253,257,77755,5,2,0:0:0:0:
269,179,77918,1,0,3:0:0:0:
356,315,78081,5,2,0:0:0:0:
379,196,78244,1,0,3:0:0:0:
471,374,78407,5,10,0:2:0:0:
503,218,78570,1,0,0:0:0:0:
503,218,78733,6,0,P|505:174|494:121,1,95.9999970703126,2|0,0:0|0:0,0:0:0:0:
328,24,79392,2,0,P|326:68|337:121,2,95.9999970703126,2|0|2,0:0|0:0|0:0,0:0:0:0:
9,218,80711,2,0,P|7:174|18:121,2,95.9999970703126,2|0|2,0:0|0:0|0:0,0:0:0:0:
327,359,82062,6,0,P|326:312|400:233,1,160,2|0,0:0|0:0,0:0:0:0:
184,24,82870,6,0,P|185:71|112:151,1,160,2|2,0:0|0:0,0:0:0:0:
124,348,84012,5,2,0:0:0:0:
124,348,84441,2,0,B|195:392|275:347|266:313|347:274|418:327,1,304,2|0,0:0|0:0,0:0:0:0:
