osu file format v14

[General]
AudioFilename: audio.mp3
AudioLeadIn: 0
PreviewTime: 50598
Countdown: 0
SampleSet: Soft
StackLeniency: 0.4
Mode: 0
LetterboxInBreaks: 0
WidescreenStoryboard: 0

[Editor]
Bookmarks: 26791,71694,150662,175436,224985
DistanceSpacing: 1
BeatDivisor: 4
GridSize: 32
TimelineZoom: 1.5

[Metadata]
Title:Christmas Night
TitleUnicode:Christmas Night
Artist:Chihara Minori
ArtistUnicode:茅原実里
Creator:NexusQI
Version:Hard
Source:サンタ・カンパニー ~クリスマスの秘密~
Tags:santa company the secret of christmas no himitsu anime pop japanese jpop j-pop xmas nexus
BeatmapID:2711022
BeatmapSetID:1307658

[Difficulty]
HPDrainRate:4.5
CircleSize:3.7
OverallDifficulty:6
ApproachRate:7.5
SliderMultiplier:1.45
SliderTickRate:1

[Events]
//Background and Video events
0,0,"40454466_p0.jpg",0,0
//Break Periods
2,150862,162224
//Storyboard Layer 0 (Background)
//Storyboard Layer 1 (Fail)
//Storyboard Layer 2 (Pass)
//Storyboard Layer 3 (Foreground)
//Storyboard Layer 4 (Overlay)
//Storyboard Sound Samples

[TimingPoints]
469,387.096774193549,4,2,1,50,1,0
469,-125,4,2,1,50,0,0
5114,-250,4,2,1,50,0,0
6662,-125,4,2,1,55,0,0
7436,-105.263157894737,4,2,1,55,0,0
8210,-90.9090909090909,4,2,1,70,0,0
13146,-90.9090909090909,4,2,1,5,0,0
13243,-90.9090909090909,4,2,1,70,0,0
14404,-111.111111111111,4,2,1,55,0,0
26791,-100,4,2,1,60,0,0
50017,-71.4285714285714,4,2,1,65,0,0
50114,-71.4285714285714,4,2,1,5,0,0
50791,-125,4,2,1,70,0,0
51565,-83.3333333333333,4,2,2,75,0,1
51662,-83.3333333333333,4,2,1,75,0,1
63856,-83.3333333333333,4,2,1,75,0,0
63952,-83.3333333333333,4,2,1,75,0,1
79436,-90.9090909090909,4,2,1,70,0,0
84372,-90.9090909090909,4,2,1,70,0,0
84469,-90.9090909090909,4,2,1,70,0,0
85630,-117.647058823529,4,2,1,55,0,0
96469,-111.111111111111,4,2,1,55,0,0
98017,-100,4,2,1,60,0,0
121243,-71.4285714285714,4,2,1,65,0,0
121340,-71.4285714285714,4,2,1,5,0,0
122017,-125,4,2,1,65,0,0
122791,-83.3333333333333,4,2,2,75,0,1
122888,-83.3333333333333,4,2,1,75,0,1
135081,-83.3333333333333,4,2,1,75,0,0
135178,-83.3333333333333,4,2,1,75,0,1
150662,-83.3333333333333,4,2,1,75,0,0
163049,-142.857142857143,4,2,1,45,0,0
175436,-125,4,2,1,55,0,0
185888,-222.222222222222,4,2,1,60,0,0
186275,-100,4,2,1,65,0,0
187823,-83.3333333333333,4,2,2,75,0,1
187920,-83.3333333333333,4,2,1,75,0,1
209404,-90.9090909090909,4,2,1,75,0,0
211049,-125,4,2,1,55,0,0
211823,-105.263157894737,4,2,1,55,0,0
212598,-90.9090909090909,4,2,1,70,0,0
224985,-83.3333333333333,4,2,1,80,0,1
237372,-90.9090909090909,4,2,1,75,0,0
241146,-90.9090909090909,4,2,1,5,0,0

[Colours]
Combo1 : 98,244,230
Combo2 : 72,152,240
Combo3 : 205,23,225

[HitObjects]
83,347,6662,6,0,B|111:294|111:294|81:232,1,116,2|2,0:3|0:3,0:0:0:0:
0,108,7436,2,0,L|44:104,3,34.4374990804196,8|8|4|0,0:0|0:0|0:3|0:0,0:0:0:0:
55,74,7823,2,0,L|160:65,1,103.312497241259,8|0,0:0|0:0,0:0:0:0:
182,97,8210,6,0,B|280:84|280:84|298:118|342:115,1,159.500004867554,6|10,1:2|0:2,0:0:0:0:
388,45,8791,2,0,P|421:27|477:46,1,79.7500024337769,2|0,0:2|1:0,0:0:0:0:
512,117,9178,2,0,L|503:211,1,79.7500024337769,2|8,1:2|0:0,0:0:0:0:
494,318,9565,5,2,0:0:0:0:
494,318,9662,1,2,0:0:0:0:
494,318,9759,2,0,B|463:283|417:284|417:284|391:321|343:316,1,159.500004867554,2|10,1:2|0:2,0:0:0:0:
244,349,10340,2,0,L|250:260,1,79.7500024337769,2|0,0:2|1:0,0:0:0:0:
313,202,10727,2,0,B|320:109,1,79.7500024337769,2|8,1:2|0:0,0:0:0:0:
273,44,11114,1,0,0:0:0:0:
196,113,11307,6,0,B|129:102|129:102|109:78|109:78|35:70,1,159.500004867554,2|10,1:2|0:2,0:0:0:0:
3,155,11888,2,0,L|12:249,1,79.7500024337769,2|0,0:2|1:0,0:0:0:0:
19,328,12275,2,0,B|56:343|56:343|98:315,1,79.7500024337769,2|8,1:2|0:0,0:0:0:0:
148,254,12662,1,0,0:0:0:0:
233,294,12856,5,0,1:0:0:0:
283,199,13049,1,10,0:0:0:0:
283,199,13243,2,0,B|304:154|304:154|258:97|258:97|285:49,1,159.500004867554,10|2,0:0|1:2,0:0:0:0:
340,6,13823,1,8,0:0:0:0:
409,63,14017,2,0,L|404:113,2,39.8750012168885,8|4|0,0:3|0:3|1:0,0:0:0:0:
493,13,14404,6,0,L|483:162,1,130.499996017456,6|8,1:2|0:0,0:0:0:0:
498,327,15178,2,0,L|414:319,1,65.2499980087281,0|0,1:0|1:0,0:0:0:0:
383,244,15565,2,0,L|309:250,1,65.2499980087281,8|0,0:0|0:0,0:0:0:0:
234,299,15952,6,0,B|222:283|222:283|239:168,1,130.499996017456,0|8,1:0|0:0,0:0:0:0:
311,129,16533,1,2,0:0:0:0:
311,129,16727,2,0,L|302:57,1,65.2499980087281,2|0,1:2|1:2,0:0:0:0:
225,15,17114,1,10,0:0:0:0:
144,26,17307,1,2,0:0:0:0:
62,37,17501,6,0,B|48:119|48:119|78:130|90:170,1,130.499996017456,2|8,1:2|0:0,0:0:0:0:
57,295,18275,2,0,P|89:304|133:284,1,65.2499980087281,0|0,1:0|1:0,0:0:0:0:
205,314,18662,2,0,L|213:234,1,65.2499980087281,8|0,0:0|0:0,0:0:0:0:
222,146,19049,6,0,B|277:151|277:151|291:172|291:172|361:181,1,130.499996017456,0|8,1:0|0:0,0:0:0:0:
433,152,19630,1,2,0:0:0:0:
433,152,19823,2,0,L|435:242,1,65.2499980087281,2|0,1:2|1:2,0:0:0:0:
417,305,20210,1,10,0:0:0:0:
340,288,20404,1,2,0:0:0:0:
262,267,20598,6,0,B|190:276|190:276|188:310|147:325,1,130.499996017456,2|8,1:2|0:0,0:0:0:0:
25,197,21372,2,0,B|9:168|9:168|36:125,1,65.2499980087281,0|0,1:0|1:0,0:0:0:0:
49,64,21759,2,0,L|131:76,1,65.2499980087281,8|0,0:0|0:0,0:0:0:0:
200,35,22146,6,0,L|210:178,1,130.499996017456,0|8,1:0|0:0,0:0:0:0:
149,233,22727,1,2,0:0:0:0:
149,233,22920,2,0,B|151:309,1,65.2499980087281,2|0,1:2|1:2,0:0:0:0:
202,366,23307,2,0,B|243:362|243:362|255:347|255:347|299:343,1,97.8749970130921,10|0,0:0|0:0,0:0:0:0:
318,312,23694,6,0,B|377:316|377:316|389:332|389:332|458:339,2,130.499996017456,2|8|0,1:2|0:0|1:0,0:0:0:0:
254,262,24662,2,0,L|247:179,1,65.2499980087281,2|10,1:2|0:2,0:0:0:0:
182,144,25049,1,2,0:2:0:0:
254,82,25243,6,0,B|288:55|318:61|318:61|342:89|375:87,1,130.499996017456,0|8,1:2|0:0,0:0:0:0:
437,36,25823,1,2,0:0:0:0:
479,114,26017,2,0,L|468:194,1,65.2499980087281,6|8,1:2|0:0,0:0:0:0:
465,260,26404,1,8,0:3:0:0:
417,325,26598,1,4,0:3:0:0:
338,272,26791,6,0,B|254:255|254:255|241:289|209:298,1,145,6|8,1:2|0:0,0:0:0:0:
138,321,27372,1,0,0:0:0:0:
55,280,27565,2,0,B|33:250|33:250|58:203,1,72.5,2|2,1:2|1:2,0:0:0:0:
92,150,27952,1,10,0:2:0:0:
160,200,28146,1,2,0:2:0:0:
230,151,28339,6,0,L|218:-1,1,145,2|8,1:2|0:0,0:0:0:0:
306,18,28920,1,2,0:0:0:0:
306,18,29114,2,0,P|345:34|392:28,1,72.5,2|0,1:2|1:2,0:0:0:0:
465,8,29501,1,10,0:0:0:0:
477,93,29694,1,2,0:0:0:0:
483,183,29888,6,0,B|422:188|422:188|407:208|407:208|343:215,2,145,2|8|0,1:2|0:0|1:2,0:0:0:0:
512,263,30856,2,0,B|504:344,1,72.5,2|10,1:2|0:2,0:0:0:0:
435,384,31242,1,2,0:2:0:0:
352,340,31436,6,0,B|261:325|261:325|248:354|214:362,1,145,0|8,1:0|0:0,0:0:0:0:
155,305,32017,1,2,0:0:0:0:
155,305,32210,2,0,L|162:229,1,72.5,2|0,1:2|1:2,0:0:0:0:
215,170,32598,1,10,0:0:0:0:
155,116,32791,1,2,0:0:0:0:
92,62,32985,6,0,B|12:71|12:71|-31:101|13:137,1,145,2|8,1:2|0:0,0:0:0:0:
75,175,33565,1,2,0:0:0:0:
75,175,33759,2,0,L|69:258,1,72.5,2|0,1:2|1:0,0:0:0:0:
61,333,34146,1,8,0:0:0:0:
249,234,34533,6,0,B|316:242|316:242|328:260|328:260|395:271,1,145,2|8,1:2|0:0,0:0:0:0:
461,315,35114,1,2,0:0:0:0:
461,315,35307,2,0,B|482:281|482:281|462:230,1,72.5,2|0,1:2|1:0,0:0:0:0:
434,169,35694,1,8,0:0:0:0:
306,39,36081,6,0,B|270:12|232:22|232:22|218:57|174:62,1,145,6|8,1:2|0:0,0:0:0:0:
94,48,36662,1,2,0:0:0:0:
94,48,36856,2,0,B|105:141,1,72.5,2|0,1:2|1:0,0:0:0:0:
156,218,37243,2,0,B|193:230|193:230|239:204,1,72.5,12|0,0:0|0:0,0:0:0:0:
312,161,37630,6,0,L|308:246,1,72.5,2|2,1:2|0:0,0:0:0:0:
396,122,38017,2,0,L|392:207,1,72.5,14|2,0:0|0:0,0:0:0:0:
474,87,38404,1,2,1:2:0:0:
474,87,38598,1,10,0:0:0:0:
400,36,38791,2,0,L|402:-5,2,36.25,8|8|4,0:3|0:3|0:3,0:0:0:0:
324,76,39178,5,4,1:2:0:0:
172,18,39565,2,0,B|140:-3|140:-3|91:16,1,72.5,10|0,0:0|0:0,0:0:0:0:
98,95,39952,2,0,B|129:116|129:116|178:96,1,72.5,10|0,0:0|0:0,0:0:0:0:
240,73,40339,2,0,L|244:116,3,36.25,8|8|10|8,0:0|0:0|0:0|0:0,0:0:0:0:
276,146,40727,6,0,L|288:236,1,72.5,2|0,1:2|0:0,0:0:0:0:
368,208,41114,2,0,L|358:136,1,72.5,8|2,0:0|0:0,0:0:0:0:
440,128,41501,2,0,L|449:199,1,72.5,10|0,0:0|0:0,0:0:0:0:
504,267,41888,2,0,L|512:314,3,36.25,8|8|8|8,0:0|0:0|0:0|0:0,0:0:0:0:
489,347,42275,5,0,1:0:0:0:
328,264,42662,2,0,L|247:276,1,72.5,10|0,0:0|0:0,0:0:0:0:
266,359,43049,2,0,L|337:348,1,72.5,10|0,0:0|0:0,0:0:0:0:
413,302,43436,2,0,L|409:253,3,36.25,8|8|10|8,0:0|0:0|0:0|0:0,0:0:0:0:
439,224,43823,6,0,P|448:177|430:146,1,72.5,2|0,1:2|0:0,0:0:0:0:
512,123,44210,2,0,P|485:83|450:74,1,72.5,10|0,0:0|0:0,0:0:0:0:
380,96,44598,1,10,0:0:0:0:
380,96,44791,1,0,1:0:0:0:
304,149,44985,2,0,P|279:157|248:147,3,36.25,10|8|8|8,0:0|0:0|0:0|0:0,0:0:0:0:
229,129,45372,5,0,1:0:0:0:
215,293,45759,2,0,L|222:378,1,72.5,10|0,0:0|0:0,0:0:0:0:
138,371,46146,2,0,L|131:298,1,72.5,10|0,0:0|0:0,0:0:0:0:
68,243,46533,2,0,L|64:193,3,36.25,8|8|10|8,0:0|0:0|0:0|0:0,0:0:0:0:
61,159,46920,6,0,P|82:135|130:129,1,72.5,2|0,1:2|0:0,0:0:0:0:
117,48,47307,2,0,P|148:45|187:75,1,72.5,8|2,0:0|0:0,0:0:0:0:
234,6,47694,2,0,P|258:27|264:74,1,72.5,10|0,0:0|0:0,0:0:0:0:
238,146,48081,2,0,L|246:190,3,36.25,8|8|8|8,0:0|0:0|0:0|0:0,0:0:0:0:
252,229,48469,5,0,1:2:0:0:
379,378,48856,2,0,B|474:368,1,72.5,10|0,0:0|0:0,0:0:0:0:
440,282,49243,2,0,B|367:289,1,72.5,10|0,0:0|0:0,0:0:0:0:
304,338,49630,2,0,L|262:343,3,36.25,8|8|10|8,0:0|0:0|0:0|0:0,0:0:0:0:
220,360,50017,5,2,1:3:0:0:
314,226,50791,2,0,B|342:176|342:176|312:120,1,116,6|2,1:2|0:0,0:0:0:0:
194,16,51565,6,0,B|139:21|139:21|126:38|126:38|51:46,1,130.499996017456,6|0,1:2|0:0,0:0:0:0:
38,35,51952,2,0,B|10:70|10:70|37:116,1,86.9999973449708,10|0,0:0|0:0,0:0:0:0:
88,180,52339,2,0,L|73:284,1,86.9999973449708,2|0,1:2|1:0,0:0:0:0:
179,157,52727,2,0,L|164:261,1,86.9999973449708,10|0,0:0|0:0,0:0:0:0:
173,355,53114,6,0,P|210:365|257:313,1,86.9999973449708,2|0,1:2|0:0,0:0:0:0:
291,263,53501,2,0,L|392:273,1,86.9999973449708,10|0,0:0|0:0,0:0:0:0:
463,316,53888,1,2,1:2:0:0:
510,245,54081,1,0,1:0:0:0:
471,168,54276,2,0,L|316:152,1,130.499996017456,10|0,0:0|0:0,0:0:0:0:
313,128,54662,6,0,B|239:119|239:119|211:136|211:136|134:128,2,173.999994689942,0|8|0,1:2|0:0|1:2,0:0:0:0:
368,201,55630,1,0,1:0:0:0:
288,255,55823,2,0,L|189:245,1,86.9999973449708,10|0,0:0|0:0,0:0:0:0:
91,301,56210,6,0,L|83:214,1,86.9999973449708,2|0,1:2|0:0,0:0:0:0:
19,151,56598,2,0,B|0:108|0:108|33:58,1,86.9999973449708,10|0,0:0|0:0,0:0:0:0:
107,29,56985,2,0,L|208:38,1,86.9999973449708,2|0,1:2|1:0,0:0:0:0:
286,61,57372,1,10,0:0:0:0:
286,61,57759,6,0,B|381:51|381:51|431:74|401:124,1,173.999994689942,6|8,1:2|0:0,0:0:0:0:
359,200,58339,1,2,0:2:0:0:
286,247,58533,2,0,B|181:234,1,86.9999973449708,2|0,1:2|1:0,0:0:0:0:
135,179,58920,2,0,P|110:225|135:279,1,86.9999973449708,8|0,0:0|0:0,0:0:0:0:
177,348,59307,6,0,B|249:340|249:340|273:360|273:360|353:352,1,173.999994689942,6|8,1:2|0:0,0:0:0:0:
437,376,59887,1,2,0:2:0:0:
503,321,60081,2,0,P|514:268|489:231,1,86.9999973449708,2|0,1:2|1:0,0:0:0:0:
419,178,60469,1,8,0:0:0:0:
477,110,60662,1,2,0:0:0:0:
409,31,60856,6,0,B|306:37|306:37|292:80|251:86,1,173.999994689942,6|8,1:2|0:0,0:0:0:0:
173,38,61436,1,2,0:2:0:0:
137,115,61630,2,0,L|152:210,1,86.9999973449708,2|0,1:2|1:0,0:0:0:0:
211,262,62017,1,8,0:0:0:0:
130,343,62210,5,0,1:0:0:0:
130,343,62307,1,0,1:0:0:0:
130,343,62404,2,0,P|80:352|40:321,1,86.9999973449708,2|2,1:2|0:2,0:0:0:0:
6,262,62791,2,0,L|14:161,1,86.9999973449708,10|2,0:2|0:2,0:0:0:0:
21,79,63178,1,2,1:2:0:0:
66,0,63372,1,8,0:0:0:0:
150,48,63565,1,10,0:2:0:0:
150,48,63661,1,8,0:0:0:0:
150,48,63758,1,4,0:3:0:0:
152,160,63952,6,0,B|224:155|224:155|245:134|245:134|320:129,1,173.999994689942,6|10,1:2|0:0,0:0:0:0:
386,71,64533,1,0,1:0:0:0:
441,152,64727,1,10,0:0:0:0:
441,152,64921,1,0,1:0:0:0:
380,216,65114,2,0,B|360:252|360:252|392:307,1,86.9999973449708,10|0,0:0|1:0,0:0:0:0:
431,383,65501,6,0,L|332:375,1,86.9999973449708,10|0,0:0|1:0,0:0:0:0:
267,365,65888,1,10,0:0:0:0:
267,365,66081,1,0,1:0:0:0:
193,303,66275,1,10,0:0:0:0:
115,357,66469,1,0,1:0:0:0:
40,303,66662,2,0,B|23:158,1,130.499996017456,10|0,0:0|0:0,0:0:0:0:
29,130,67049,6,0,P|77:123|119:160,1,86.9999973449708,12|0,0:0|1:0,0:0:0:0:
154,214,67436,2,0,B|260:198,1,86.9999973449708,8|0,0:0|1:0,0:0:0:0:
258,111,67823,2,0,B|354:100,1,86.9999973449708,8|0,0:0|1:0,0:0:0:0:
417,28,68210,2,0,B|491:32|491:32|522:57|495:88,1,130.499996017456,10|0,0:2|0:0,0:0:0:0:
466,110,68598,6,0,B|450:223|450:223|491:239|493:284,1,173.999994689942,10|10,0:0|0:0,0:0:0:0:
449,342,69178,1,0,1:0:0:0:
367,312,69372,1,10,0:0:0:0:
367,312,69565,1,0,1:0:0:0:
302,372,69759,2,0,P|259:378|215:355,1,86.9999973449708,10|0,0:0|1:0,0:0:0:0:
155,277,70146,6,0,B|142:168|142:168|174:135|217:164,1,173.999994689942,14|8,0:0|0:0,0:0:0:0:
283,217,70727,1,2,1:2:0:0:
345,148,70920,2,0,P|355:98|330:61,1,86.9999973449708,10|0,0:0|1:0,0:0:0:0:
277,0,71307,1,8,0:0:0:0:
277,0,71501,1,0,1:0:0:0:
221,97,71694,6,0,B|149:90|149:90|131:69|131:69|39:62,1,173.999994689942,14|8,0:0|0:0,0:0:0:0:
0,134,72275,1,2,1:2:0:0:
79,188,72469,2,0,P|99:225|71:276,1,86.9999973449708,10|0,0:0|1:0,0:0:0:0:
20,341,72856,1,8,0:0:0:0:
99,384,73049,1,2,1:2:0:0:
180,306,73243,6,0,B|214:266|264:274|264:274|288:316|346:314,1,173.999994689942,14|8,0:0|0:0,0:0:0:0:
415,343,73823,1,2,1:2:0:0:
470,276,74017,1,10,0:0:0:0:
412,208,74210,1,2,1:2:0:0:
412,208,74404,2,0,P|393:155|413:121,1,86.9999973449708,10|2,0:2|1:2,0:0:0:0:
472,44,74791,6,0,B|370:34,1,86.9999973449708,10|2,0:2|1:2,0:0:0:0:
299,0,75178,1,10,0:2:0:0:
299,0,75372,1,2,1:2:0:0:
263,92,75565,2,0,P|221:116|159:104,1,86.9999973449708,10|0,0:0|1:0,0:0:0:0:
182,201,75952,2,0,P|135:188|99:135,1,86.9999973449708,10|0,0:0|1:0,0:0:0:0:
32,86,76339,6,0,B|5:194|5:194|44:211|42:256,1,173.999994689942,14|8,0:0|0:0,0:0:0:0:
0,321,76920,1,2,1:2:0:0:
83,376,77114,2,0,B|185:364,1,86.9999973449708,10|0,0:0|1:0,0:0:0:0:
236,312,77501,1,8,0:0:0:0:
317,363,77694,1,0,1:0:0:0:
381,270,77888,6,0,B|390:163|390:163|358:132|324:154,1,173.999994689942,14|8,0:0|0:0,0:0:0:0:
252,190,78469,1,2,1:2:0:0:
175,235,78662,1,10,0:0:0:0:
175,235,78758,1,8,0:0:0:0:
175,235,78855,1,0,1:0:0:0:
86,186,79049,2,0,P|71:139|86:103,1,86.9999973449708,8|2,0:2|0:0,0:0:0:0:
154,21,79436,6,0,B|225:26|225:26|244:44|244:44|312:51,1,159.500004867554,6|10,1:2|0:2,0:0:0:0:
381,1,80017,2,0,L|480:11,1,79.7500024337769,2|0,0:2|1:0,0:0:0:0:
512,81,80404,2,0,P|522:121|485:166,1,79.7500024337769,2|8,1:2|0:0,0:0:0:0:
410,191,80791,5,2,0:0:0:0:
410,191,80888,1,2,0:0:0:0:
410,191,80985,2,0,B|317:180|317:180|272:201|302:237,1,159.500004867554,2|10,1:2|0:2,0:0:0:0:
350,311,81565,2,0,B|315:332|315:332|262:313,1,79.7500024337769,2|0,0:2|1:0,0:0:0:0:
210,261,81952,2,0,L|111:273,1,79.7500024337769,2|8,1:2|0:0,0:0:0:0:
71,335,82339,1,0,0:0:0:0:
24,235,82533,6,0,B|15:170|15:170|32:147|32:147|23:76,1,159.500004867554,2|10,1:2|0:2,0:0:0:0:
48,0,83113,2,0,P|95:-5|132:18,1,79.7500024337769,2|0,0:2|1:0,0:0:0:0:
153,92,83500,2,0,L|242:83,1,79.7500024337769,2|8,1:2|0:0,0:0:0:0:
315,72,83888,1,0,0:0:0:0:
371,7,84081,5,0,1:0:0:0:
438,107,84275,1,10,0:0:0:0:
438,107,84469,2,0,B|463:140|463:140|416:203|416:203|451:251,1,159.500004867554,10|2,0:0|1:2,0:0:0:0:
492,301,85049,1,8,0:0:0:0:
421,345,85243,2,0,L|418:384,2,39.8750012168885,8|4|0,0:3|0:3|1:0,0:0:0:0:
351,283,85630,6,0,B|208:271,1,123.250002350807,6|0,1:2|3:0,0:0:0:0:
150,297,86210,2,0,P|142:261|160:228,1,61.6250011754036,0|0,1:0|1:0,0:0:0:0:
290,141,86791,2,0,L|361:147,1,61.6250011754036,0|0,3:0|0:0,0:0:0:0:
422,97,87178,6,0,B|434:28|434:28|416:4|374:18,1,123.250002350807,0|0,1:2|3:0,0:0:0:0:
322,64,87759,1,2,1:2:0:0:
322,64,87952,1,2,1:2:0:0:
433,185,88339,1,2,3:2:0:0:
433,185,88533,1,2,0:0:0:0:
365,237,88727,6,0,B|352:310|352:310|388:322|393:359,1,123.250002350807,2|0,1:2|3:0,0:0:0:0:
321,383,89307,2,0,L|248:372,1,61.6250011754036,0|0,1:0|1:0,0:0:0:0:
65,384,89888,2,0,L|71:322,1,61.6250011754036,0|0,3:0|0:0,0:0:0:0:
56,241,90275,6,0,B|110:236|110:236|127:248|127:248|187:244,1,123.250002350807,0|0,1:2|3:0,0:0:0:0:
219,175,90856,1,2,1:2:0:0:
219,175,91049,1,2,1:2:0:0:
334,307,91436,1,2,3:2:0:0:
334,307,91630,1,2,0:0:0:0:
396,243,91823,6,0,B|405:112,1,123.250002350807,2|0,1:2|3:0,0:0:0:0:
441,48,92404,2,0,P|414:36|369:48,1,61.6250011754036,0|0,1:0|1:0,0:0:0:0:
280,180,92985,2,0,B|198:173,1,61.6250011754036,0|0,3:0|0:0,0:0:0:0:
171,105,93372,6,0,B|35:97,1,123.250002350807,0|0,1:2|3:0,0:0:0:0:
0,163,93952,1,2,1:2:0:0:
0,163,94146,1,2,1:2:0:0:
136,306,94533,1,2,0:0:0:0:
136,306,94727,1,2,0:0:0:0:
209,342,94920,6,0,B|220:288|220:288|206:266|206:266|219:211,1,123.250002350807,2|0,1:2|3:0,0:0:0:0:
196,147,95501,2,0,P|221:143|262:159,1,61.6250011754036,0|0,1:0|1:0,0:0:0:0:
335,199,95888,1,2,0:2:0:0:
335,199,96081,2,0,L|340:138,1,61.6250011754036,2|2,3:2|0:2,0:0:0:0:
349,45,96469,6,0,B|412:18|412:18|478:61,1,130.499996017456,4|2,1:2|3:0,0:0:0:0:
500,137,97049,1,10,0:0:0:0:
500,137,97243,2,0,L|489:217,1,65.2499980087281,2|8,1:2|0:0,0:0:0:0:
479,282,97630,2,0,L|522:289,2,32.624999004364,8|8|4,0:0|0:0|0:3,0:0:0:0:
422,345,98017,6,0,B|357:338|357:338|344:318|344:318|271:311,1,145,6|8,1:2|0:0,0:0:0:0:
208,307,98598,1,0,0:0:0:0:
140,378,98791,2,0,B|49:372,1,72.5,2|2,1:2|1:2,0:0:0:0:
0,323,99178,1,10,0:2:0:0:
57,258,99372,1,2,0:2:0:0:
1,189,99565,6,0,B|-9:101|-9:101|16:70|52:95,1,145,2|8,1:2|0:0,0:0:0:0:
109,148,100146,1,2,0:0:0:0:
109,148,100340,2,0,B|140:168|140:168|193:147,1,72.5,2|0,1:2|1:2,0:0:0:0:
248,108,100727,1,10,0:0:0:0:
261,190,100920,1,2,0:0:0:0:
275,275,101114,6,0,B|361:263|361:263|382:297|419:296,2,145,2|8|0,1:2|0:0|1:2,0:0:0:0:
197,322,102082,2,0,L|186:250,1,72.5,2|10,1:2|0:2,0:0:0:0:
134,188,102468,1,2,0:2:0:0:
206,133,102662,6,0,B|265:133|265:133|288:153|288:153|354:158,1,145,0|8,1:0|0:0,0:0:0:0:
434,180,103243,1,2,0:0:0:0:
434,180,103436,2,0,L|428:104,1,72.5,2|0,1:2|1:2,0:0:0:0:
395,16,103824,1,10,0:0:0:0:
311,34,104017,1,2,0:0:0:0:
230,54,104211,6,0,B|170:49|170:49|146:67|146:67|86:64,1,145,2|8,1:2|0:0,0:0:0:0:
6,35,104791,1,2,0:0:0:0:
6,35,104985,2,0,L|14:120,1,72.5,2|0,1:2|1:0,0:0:0:0:
21,192,105372,1,8,0:0:0:0:
155,290,105759,6,0,B|186:260|224:266|224:266|250:304|307:296,1,145,2|8,1:2|0:0,0:0:0:0:
274,378,106340,1,2,0:0:0:0:
274,378,106533,2,0,P|313:378|345:357,1,72.5,2|0,1:2|1:0,0:0:0:0:
393,296,106920,1,8,0:0:0:0:
316,134,107307,6,0,B|306:54|306:54|330:22|371:48,1,145,6|8,1:2|0:0,0:0:0:0:
449,28,107888,1,2,0:0:0:0:
449,28,108082,2,0,B|440:121,1,72.5,2|0,1:2|1:0,0:0:0:0:
489,177,108469,2,0,B|507:212|507:212|477:259,1,72.5,12|0,0:0|0:0,0:0:0:0:
425,308,108856,6,0,L|348:298,1,72.5,2|2,1:2|0:0,0:0:0:0:
376,383,109243,2,0,L|299:373,1,72.5,14|2,0:0|0:0,0:0:0:0:
226,364,109630,1,2,1:2:0:0:
226,364,109824,1,10,0:0:0:0:
173,294,110017,2,0,L|114:289,2,36.25,8|8|4,0:3|0:3|0:3,0:0:0:0:
237,241,110404,5,4,1:2:0:0:
160,84,110791,2,0,B|171:-9,1,72.5,10|0,0:0|0:0,0:0:0:0:
253,24,111178,2,0,B|244:95,1,72.5,10|0,0:0|0:0,0:0:0:0:
193,174,111565,2,0,L|137:167,3,36.25,8|8|10|8,0:0|0:0|0:0|0:0,0:0:0:0:
118,161,111953,6,0,P|108:205|131:249,1,72.5,2|0,1:2|0:0,0:0:0:0:
39,255,112339,2,0,P|63:293|110:308,1,72.5,8|2,0:0|0:0,0:0:0:0:
55,375,112727,2,0,P|99:385|143:362,1,72.5,10|0,0:0|0:0,0:0:0:0:
195,338,113114,2,0,L|238:333,3,36.25,8|8|8|8,0:0|0:0|0:0|0:0,0:0:0:0:
270,349,113501,5,0,1:0:0:0:
405,221,113888,2,0,B|438:201|438:201|488:218,1,72.5,10|0,0:0|0:0,0:0:0:0:
479,292,114275,2,0,B|446:312|446:312|396:295,1,72.5,10|0,0:0|0:0,0:0:0:0:
333,267,114662,2,0,L|325:218,3,36.25,8|8|10|8,0:0|0:0|0:0|0:0,0:0:0:0:
305,188,115049,6,0,L|221:199,1,72.5,2|0,1:2|0:0,0:0:0:0:
221,113,115436,2,0,L|292:103,1,72.5,10|0,0:0|0:0,0:0:0:0:
375,138,115824,1,10,0:0:0:0:
375,138,116017,1,0,1:0:0:0:
434,72,116210,2,0,L|480:63,3,36.25,10|8|8|8,0:0|0:0|0:0|0:0,0:0:0:0:
512,76,116598,5,0,1:0:0:0:
465,220,116985,2,0,L|458:306,1,72.5,10|0,0:0|0:0,0:0:0:0:
378,285,117372,2,0,L|383:212,1,72.5,10|0,0:0|0:0,0:0:0:0:
392,133,117759,2,0,L|346:127,3,36.25,8|8|10|8,0:0|0:0|0:0|0:0,0:0:0:0:
317,148,118146,6,0,L|225:135,1,72.5,2|0,1:2|0:0,0:0:0:0:
231,219,118533,2,0,L|302:229,1,72.5,8|2,0:0|0:0,0:0:0:0:
292,307,118920,2,0,L|220:296,1,72.5,10|0,0:0|0:0,0:0:0:0:
156,355,119307,2,0,L|104:349,3,36.25,8|8|8|8,0:0|0:0|0:0|0:0,0:0:0:0:
78,364,119695,5,0,1:2:0:0:
136,202,120082,2,0,B|155:169|155:169|134:127,1,72.5,10|0,0:0|0:0,0:0:0:0:
61,136,120469,2,0,B|42:169|42:169|57:199,1,72.5,10|0,0:0|0:0,0:0:0:0:
91,277,120856,2,0,L|144:284,3,36.25,8|8|10|8,0:0|0:0|0:0|0:0,0:0:0:0:
170,306,121243,5,2,1:3:0:0:
343,370,122017,2,0,B|390:367|390:367|404:350|404:350|469:347,1,116,6|2,0:2|0:0,0:0:0:0:
512,184,122791,6,0,B|498:51,1,130.499996017456,6|0,1:2|0:0,0:0:0:0:
477,14,123178,2,0,B|434:-5|434:-5|381:24,1,86.9999973449708,10|0,0:0|0:0,0:0:0:0:
364,98,123565,2,0,L|265:90,1,86.9999973449708,2|0,1:2|1:0,0:0:0:0:
401,189,123953,2,0,L|307:181,1,86.9999973449708,10|0,0:0|0:0,0:0:0:0:
249,270,124340,6,0,B|205:283|205:283|159:249,1,86.9999973449708,2|0,1:2|0:0,0:0:0:0:
102,303,124727,2,0,P|83:268|105:210,1,86.9999973449708,10|0,0:0|0:0,0:0:0:0:
160,138,125114,1,2,1:2:0:0:
216,72,125307,1,0,1:0:0:0:
172,0,125502,2,0,B|116:3|116:3|102:18|102:18|22:25,1,130.499996017456,10|0,0:0|0:0,0:0:0:0:
22,54,125888,6,0,B|37:160|37:160|-5:181|0:226,2,173.999994689942,0|8|0,1:2|0:0|1:2,0:0:0:0:
93,0,126856,1,0,1:0:0:0:
136,78,127049,2,0,P|167:97|233:87,1,86.9999973449708,10|0,0:0|0:0,0:0:0:0:
307,37,127436,6,0,L|301:141,1,86.9999973449708,2|0,1:2|0:0,0:0:0:0:
246,199,127824,2,0,B|237:303,1,86.9999973449708,10|0,0:0|0:0,0:0:0:0:
278,369,128211,2,0,B|320:387|320:387|370:357,1,86.9999973449708,2|0,1:2|1:0,0:0:0:0:
436,320,128598,1,10,0:0:0:0:
436,320,128985,6,0,B|448:135,1,173.999994689942,6|8,1:2|0:0,0:0:0:0:
408,44,129565,1,2,0:2:0:0:
347,103,129759,2,0,P|299:112|250:85,1,86.9999973449708,2|0,1:2|1:0,0:0:0:0:
222,16,130146,2,0,L|126:27,1,86.9999973449708,8|0,0:0|0:0,0:0:0:0:
42,39,130533,6,0,B|55:138|55:138|0:164|4:211,1,173.999994689942,6|8,1:2|0:0,0:0:0:0:
12,288,131113,1,2,0:2:0:0:
79,343,131307,2,0,L|175:328,1,86.9999973449708,2|0,1:2|1:0,0:0:0:0:
247,315,131695,1,8,0:0:0:0:
318,365,131888,1,2,0:0:0:0:
381,266,132082,6,0,B|392:163|392:163|360:128|317:157,1,173.999994689942,6|8,1:2|0:0,0:0:0:0:
265,212,132662,1,2,0:2:0:0:
200,145,132856,2,0,P|183:108|206:58,1,86.9999973449708,2|0,1:2|1:0,0:0:0:0:
258,0,133243,1,8,0:0:0:0:
349,63,133436,5,0,1:0:0:0:
349,63,133533,1,0,1:0:0:0:
349,63,133630,2,0,B|389:77|389:77|440:49,1,86.9999973449708,2|2,1:2|0:2,0:0:0:0:
512,18,134017,2,0,L|506:105,1,86.9999973449708,10|2,0:2|0:2,0:0:0:0:
463,186,134404,1,2,1:2:0:0:
512,263,134598,1,8,0:0:0:0:
465,335,134791,1,10,0:2:0:0:
465,335,134887,1,8,0:0:0:0:
465,335,134984,1,4,0:3:0:0:
373,267,135178,6,0,B|279:252|279:252|259:296|213:294,1,173.999994689942,6|10,1:2|0:0,0:0:0:0:
135,230,135759,1,0,1:0:0:0:
68,294,135953,1,10,0:0:0:0:
68,294,136147,1,0,1:0:0:0:
4,227,136340,2,0,B|-17:191|-17:191|16:136,1,86.9999973449708,10|0,0:0|1:0,0:0:0:0:
32,55,136727,6,0,L|128:69,1,86.9999973449708,10|0,0:0|1:0,0:0:0:0:
212,86,137114,1,10,0:0:0:0:
212,86,137307,1,0,1:0:0:0:
165,169,137501,1,10,0:0:0:0:
234,229,137695,1,0,1:0:0:0:
301,170,137888,2,0,B|377:157|377:157|398:188|445:178,1,130.499996017456,10|0,0:0|0:0,0:0:0:0:
459,151,138275,6,0,L|468:254,1,86.9999973449708,12|0,0:0|1:0,0:0:0:0:
470,330,138662,2,0,P|442:355|388:352,1,86.9999973449708,8|0,0:0|1:0,0:0:0:0:
327,300,139049,2,0,B|231:311,1,86.9999973449708,8|0,0:0|1:0,0:0:0:0:
166,384,139436,2,0,B|111:375|111:375|100:357|100:357|23:348,1,130.499996017456,10|0,0:2|0:0,0:0:0:0:
11,369,139823,6,0,L|3:175,1,173.999994689942,10|10,0:0|0:0,0:0:0:0:
2,104,140404,1,0,1:0:0:0:
55,32,140598,1,10,0:0:0:0:
55,32,140791,1,0,1:0:0:0:
118,103,140985,2,0,P|158:119|217:95,1,86.9999973449708,10|0,0:0|1:0,0:0:0:0:
227,16,141372,6,0,B|332:3|332:3|346:40|387:44,1,173.999994689942,14|8,0:0|0:0,0:0:0:0:
461,4,141953,1,2,1:2:0:0:
503,84,142146,2,0,L|492:172,1,86.9999973449708,10|0,0:0|1:0,0:0:0:0:
421,233,142533,1,8,0:0:0:0:
421,233,142727,1,0,1:0:0:0:
348,149,142920,6,0,B|313:112|269:120|269:120|240:166|177:153,1,173.999994689942,14|8,0:0|0:0,0:0:0:0:
122,95,143501,1,2,1:2:0:0:
60,162,143695,2,0,L|75:251,1,86.9999973449708,10|0,0:0|1:0,0:0:0:0:
90,339,144082,1,8,0:0:0:0:
163,384,144275,1,2,1:2:0:0:
230,299,144469,6,0,B|325:281|325:281|350:321|389:319,1,173.999994689942,14|8,0:0|0:0,0:0:0:0:
481,298,145049,1,2,1:2:0:0:
435,227,145243,1,10,0:0:0:0:
504,170,145436,1,2,1:2:0:0:
504,170,145630,2,0,B|525:127|525:127|497:86,1,86.9999973449708,10|2,0:2|1:2,0:0:0:0:
424,45,146017,6,0,B|319:54,1,86.9999973449708,10|2,0:2|1:2,0:0:0:0:
270,120,146404,1,10,0:2:0:0:
270,120,146598,1,2,1:2:0:0:
344,184,146791,2,0,L|337:282,1,86.9999973449708,10|0,0:0|1:0,0:0:0:0:
368,359,147178,2,0,B|322:371|322:371|275:338,1,86.9999973449708,10|0,0:0|1:0,0:0:0:0:
235,265,147565,6,0,B|138:253|138:253|123:296|81:303,1,173.999994689942,14|8,0:0|0:0,0:0:0:0:
0,250,148146,1,2,1:2:0:0:
54,183,148340,2,0,P|74:135|39:86,1,86.9999973449708,10|0,0:0|1:0,0:0:0:0:
8,27,148727,1,8,0:0:0:0:
89,0,148920,1,0,1:0:0:0:
167,77,149114,6,0,B|244:80|244:80|263:101|263:101|357:109,1,173.999994689942,14|8,0:0|0:0,0:0:0:0:
422,64,149695,1,2,1:2:0:0:
479,142,149888,1,10,0:0:0:0:
479,142,149984,1,8,0:0:0:0:
479,142,150081,1,0,1:0:0:0:
416,211,150275,2,0,B|390:244|390:244|416:280,1,86.9999973449708,8|4,0:2|0:3,0:0:0:0:
493,357,150662,5,6,1:2:0:0:
35,81,163049,6,0,L|145:82,1,101.499996902466,2|2,3:2|3:2,0:0:0:0:
206,29,163630,2,0,L|317:31,1,101.499996902466,2|2,0:2|0:2,0:0:0:0:
388,33,164210,1,2,3:2:0:0:
296,180,164598,5,0,3:2:0:0:
296,180,164985,1,0,3:2:0:0:
296,180,165372,2,0,L|180:178,1,101.499996902466,2|2,3:2|3:2,0:0:0:0:
31,189,166146,6,0,P|12:235|36:280,1,101.499996902466,2|2,3:2|3:2,0:0:0:0:
94,330,166727,2,0,B|206:330,1,101.499996902466,2|2,0:2|0:2,0:0:0:0:
275,330,167307,1,2,3:2:0:0:
343,182,167694,5,0,3:2:0:0:
343,182,168081,1,0,3:2:0:0:
343,182,168469,2,0,L|344:67,1,101.499996902466,2|2,3:2|3:2,0:0:0:0:
485,1,169243,6,0,P|506:41|481:107,1,101.499996902466,2|2,3:2|3:2,0:0:0:0:
435,166,169823,2,0,B|436:288,1,101.499996902466,2|2,0:2|0:2,0:0:0:0:
436,351,170404,1,2,3:2:0:0:
297,234,170791,6,0,P|249:212|199:234,1,101.499996902466,2|2,3:2|3:2,0:0:0:0:
114,359,171565,2,0,P|65:369|20:347,1,101.499996902466,2|2,3:2|3:2,0:0:0:0:
72,200,172339,6,0,L|73:77,1,101.499996902466,2|0,3:2|3:0,0:0:0:0:
76,19,172920,1,2,0:2:0:0:
76,19,173114,2,0,P|123:3|187:29,1,101.499996902466,2|0,3:2|3:0,0:0:0:0:
297,100,173888,5,0,3:0:0:0:
297,100,174275,1,0,3:0:0:0:
173,222,174662,1,2,3:2:0:0:
173,222,175049,1,2,3:2:0:0:
302,352,175436,6,0,B|353:347|353:347|370:331|370:331|432:326,1,116,2|2,3:2|3:2,0:0:0:0:
506,220,176210,2,0,B|514:149|514:149|496:124|463:141,1,116,2|2,3:2|3:2,0:0:0:0:
363,230,176985,5,2,3:2:0:0:
363,230,177372,1,2,3:2:0:0:
261,105,177759,1,2,3:2:0:0:
261,105,178146,1,2,3:2:0:0:
186,254,178533,5,0,3:0:0:0:
186,254,178920,1,0,3:0:0:0:
186,254,179307,1,0,3:0:0:0:
100,376,179694,2,0,P|61:383|27:361,1,58,2|0,3:2|0:0,0:0:0:0:
0,312,180081,5,2,3:2:0:0:
0,313,180469,1,2,3:2:0:0:
94,227,180856,1,2,3:2:0:0:
94,227,181244,1,2,3:2:0:0:
27,122,181630,6,0,P|4:78|42:17,1,116,2|0,3:2|3:0,0:0:0:0:
119,22,182210,1,2,0:0:0:0:
119,22,182404,2,0,B|185:24|185:24|191:56|229:67,1,116,2|0,3:2|3:0,0:0:0:0:
288,194,183178,6,0,B|335:189|335:189|351:173|351:173|399:168,1,116,2|0,3:2|3:0,0:0:0:0:
482,200,183759,1,2,0:0:0:0:
482,200,183952,2,0,B|476:78,1,116,2|0,3:2|3:0,0:0:0:0:
464,3,184533,1,2,0:0:0:0:
397,54,184727,6,0,B|328:41|328:41|317:64|290:71,1,116,2|0,3:2|3:0,0:0:0:0:
235,22,185307,1,2,0:0:0:0:
235,22,185501,2,0,B|152:16,1,58,2|0,3:2|0:0,0:0:0:0:
99,6,185888,1,0,3:0:0:0:
4,155,186275,6,0,B|-14:190|-14:190|6:222,1,72.5,4|8,1:2|0:0,0:0:0:0:
66,294,186662,1,8,0:0:0:0:
66,294,186856,1,8,0:0:0:0:
120,224,187049,2,0,P|140:217|158:217,3,36.25,10|8|8|8,0:2|0:0|0:2|0:0,0:0:0:0:
194,253,187436,1,10,0:0:0:0:
194,253,187533,1,8,0:0:0:0:
194,253,187630,1,8,0:3:0:0:
262,345,187823,6,0,B|369:329|369:329|388:368|438:368,1,173.999994689942,6|10,1:2|0:0,0:0:0:0:
502,318,188404,1,0,1:0:0:0:
439,257,188598,1,10,0:0:0:0:
439,257,188792,1,0,1:0:0:0:
498,184,188985,2,0,B|518:143|518:143|480:97,1,86.9999973449708,10|0,0:0|1:0,0:0:0:0:
422,41,189372,6,0,L|325:48,1,86.9999973449708,10|0,0:0|1:0,0:0:0:0:
262,5,189759,1,10,0:0:0:0:
262,5,189952,1,0,1:0:0:0:
204,73,190146,1,10,0:0:0:0:
258,151,190340,1,0,1:0:0:0:
204,234,190533,2,0,B|150:229|150:229|130:209|130:209|71:204,1,130.499996017456,10|0,0:0|0:0,0:0:0:0:
46,192,190920,6,0,L|57:288,1,86.9999973449708,12|0,0:0|1:0,0:0:0:0:
18,360,191307,2,0,B|56:380|56:380|105:352,1,86.9999973449708,8|0,0:0|1:0,0:0:0:0:
177,332,191694,2,0,L|276:345,1,86.9999973449708,8|0,0:0|1:0,0:0:0:0:
346,381,192081,2,0,L|338:235,1,130.499996017456,10|0,0:2|0:0,0:0:0:0:
374,234,192469,6,0,B|379:134|379:134|354:99|309:124,1,173.999994689942,10|10,0:0|0:0,0:0:0:0:
247,175,193049,1,0,1:0:0:0:
179,229,193243,1,10,0:0:0:0:
179,229,193436,1,0,1:0:0:0:
109,175,193630,2,0,P|92:138|116:84,1,86.9999973449708,10|0,0:0|1:0,0:0:0:0:
170,16,194017,6,0,B|276:8|276:8|296:49|353:44,1,173.999994689942,12|8,0:0|0:0,0:0:0:0:
421,0,194598,1,2,1:2:0:0:
476,66,194791,2,0,L|469:161,1,86.9999973449708,10|0,0:0|1:0,0:0:0:0:
510,231,195178,1,8,0:0:0:0:
510,231,195372,1,0,1:0:0:0:
453,311,195565,6,0,B|382:305|382:305|364:284|364:284|272:277,1,173.999994689942,14|8,0:0|0:0,0:0:0:0:
195,278,196146,1,2,1:2:0:0:
157,354,196340,2,0,P|111:364|69:338,1,86.9999973449708,10|0,0:0|1:0,0:0:0:0:
18,281,196727,1,8,0:0:0:0:
63,206,196920,1,2,1:2:0:0:
0,123,197114,6,0,B|-11:19|-11:19|15:-12|50:13,1,173.999994689942,14|8,0:0|0:0,0:0:0:0:
118,65,197694,1,2,1:2:0:0:
191,27,197888,1,10,0:0:0:0:
260,83,198081,1,2,1:2:0:0:
260,83,198275,2,0,L|253:183,1,86.9999973449708,10|2,0:2|1:2,0:0:0:0:
187,241,198662,6,0,P|174:276|210:328,1,86.9999973449708,10|2,0:2|1:2,0:0:0:0:
264,378,199049,1,10,0:2:0:0:
264,378,199243,1,2,1:2:0:0:
321,302,199436,2,0,L|414:296,1,86.9999973449708,10|0,0:0|1:0,0:0:0:0:
486,343,199823,2,0,B|507:302|507:302|484:247,1,86.9999973449708,10|0,0:0|1:0,0:0:0:0:
452,174,200210,6,0,B|416:139|366:143|366:143|343:186|273:179,1,173.999994689942,14|8,0:0|0:0,0:0:0:0:
196,213,200791,1,2,1:2:0:0:
133,155,200985,2,0,P|116:103|132:64,1,86.9999973449708,10|0,0:0|1:0,0:0:0:0:
180,2,201372,1,8,0:0:0:0:
180,2,201565,1,0,1:0:0:0:
266,62,201759,6,0,B|461:55,1,173.999994689942,14|8,0:0|0:0,0:0:0:0:
512,120,202340,1,2,1:2:0:0:
450,178,202533,2,0,L|467:289,1,86.9999973449708,10|0,0:0|1:0,0:0:0:0:
483,352,202920,1,8,0:2:0:0:
405,384,203114,1,2,1:2:0:0:
329,317,203307,6,0,B|227:302|227:302|221:340|181:354,1,173.999994689942,14|8,0:0|0:0,0:0:0:0:
98,358,203887,1,2,1:2:0:0:
36,293,204081,1,10,0:0:0:0:
88,215,204274,1,2,1:2:0:0:
88,215,204468,2,0,L|183:225,1,86.9999973449708,10|2,0:2|1:2,0:0:0:0:
248,162,204856,6,0,B|285:138|285:138|344:165,1,86.9999973449708,10|2,0:2|1:2,0:0:0:0:
386,237,205243,1,10,0:2:0:0:
386,237,205437,1,2,1:2:0:0:
458,175,205630,2,0,L|447:74,1,86.9999973449708,10|0,0:0|1:0,0:0:0:0:
414,7,206017,2,0,P|438:-2|471:7,2,43.4999986724854,10|8|4,0:0|0:3|0:3,0:0:0:0:
343,72,206404,6,0,L|233:68,1,86.9999973449708,6|8,1:2|0:0,0:0:0:0:
185,12,206791,2,0,L|75:8,1,86.9999973449708,8|10,1:2|0:0,0:0:0:0:
41,82,207178,1,10,1:2:0:0:
41,82,207372,1,8,0:0:0:0:
55,170,207565,1,8,1:2:0:0:
55,170,207759,1,8,0:0:0:0:
67,256,207952,6,0,L|129:249,3,43.4999986724854,8|8|8|8,1:2|0:0|0:0|0:0,0:0:0:0:
145,224,208339,2,0,L|207:217,3,43.4999986724854,8|8|8|8,1:2|0:0|0:0|0:0,0:0:0:0:
233,237,208727,2,0,L|232:177,3,43.4999986724854,0|8|8|8,1:0|0:3|0:3|0:3,0:0:0:0:
267,160,209114,2,0,L|266:100,3,43.4999986724854,0|8|4|4,1:0|0:3|0:3|0:3,0:0:0:0:
512,169,211049,6,0,P|467:180|401:147,1,116,2|2,0:3|0:3,0:0:0:0:
319,20,211823,2,0,L|265:27,3,34.4374990804196,8|8|4|0,0:0|0:0|0:3|0:0,0:0:0:0:
250,11,212210,2,0,L|123:24,1,103.312497241259,8|0,0:0|0:0,0:0:0:0:
101,24,212598,6,0,B|87:83|87:83|103:111|103:111|89:190,1,159.500004867554,6|10,1:2|0:2,0:0:0:0:
44,251,213179,2,0,P|88:269|148:247,1,79.7500024337769,2|0,0:2|1:0,0:0:0:0:
208,281,213566,2,0,L|199:187,1,79.7500024337769,2|8,1:2|0:0,0:0:0:0:
233,120,213953,1,0,0:0:0:0:
309,193,214146,6,0,B|407:185|407:185|437:154|402:119,1,159.500004867554,2|10,1:2|0:2,0:0:0:0:
360,57,214727,2,0,P|412:39|460:64,1,79.7500024337769,2|0,0:2|1:0,0:0:0:0:
503,96,215114,2,0,L|505:192,1,79.7500024337769,2|8,1:2|0:0,0:0:0:0:
508,288,215501,5,2,0:0:0:0:
508,288,215598,1,2,0:0:0:0:
508,288,215695,2,0,B|463:259|429:269|429:269|407:314|354:310,1,159.500004867554,2|10,1:2|0:2,0:0:0:0:
288,359,216275,2,0,L|276:265,1,79.7500024337769,2|0,0:2|1:0,0:0:0:0:
327,210,216662,2,0,P|291:191|236:205,1,79.7500024337769,2|8,1:2|0:0,0:0:0:0:
191,251,217050,1,0,0:0:0:0:
110,180,217243,6,0,B|98:83|98:83|122:52|167:76,2,159.500004867554,2|8|2,1:2|0:2|1:2,0:0:0:0:
52,255,218210,1,0,1:2:0:0:
100,332,218404,1,8,0:0:0:0:
265,280,218791,6,0,B|357:270|357:270|366:307|413:319,1,159.500004867554,2|10,1:2|0:2,0:0:0:0:
485,364,219372,2,0,L|490:269,1,79.7500024337769,2|0,0:2|1:0,0:0:0:0:
431,212,219759,2,0,P|417:177|430:127,1,79.7500024337769,2|8,1:2|0:0,0:0:0:0:
475,68,220146,1,0,0:0:0:0:
391,1,220339,6,0,B|322:4|322:4|306:26|306:26|213:36,1,159.500004867554,2|10,1:2|0:2,0:0:0:0:
152,11,220920,2,0,B|149:104,1,79.7500024337769,2|0,0:2|1:0,0:0:0:0:
143,180,221307,2,0,P|171:194|238:177,1,79.7500024337769,2|8,1:2|0:0,0:0:0:0:
320,146,221694,5,2,0:0:0:0:
320,146,221791,1,2,0:0:0:0:
320,146,221888,2,0,B|299:245|299:245|332:259|337:296,1,159.500004867554,2|10,1:2|0:2,0:0:0:0:
297,379,222468,2,0,P|246:380|217:358,1,79.7500024337769,2|0,0:2|1:0,0:0:0:0:
179,288,222856,2,0,L|96:297,1,79.7500024337769,2|8,1:2|0:0,0:0:0:0:
19,248,223243,1,0,0:0:0:0:
72,161,223436,6,0,B|80:93|80:93|60:73|60:73|69:-7,2,159.500004867554,2|8|2,1:2|0:0|1:2,0:0:0:0:
137,213,224404,1,8,1:2:0:0:
217,173,224598,2,0,L|223:217,3,39.8750012168885,8|8|8|4,0:0|0:0|0:3|0:3,0:0:0:0:
245,231,224985,6,0,B|238:315|238:315|252:337|295:326,1,130.499996017456,14|0,0:2|0:0,0:0:0:0:
312,305,225372,1,10,0:2:0:0:
397,349,225565,2,0,P|436:358|484:322,1,86.9999973449708,2|8,1:2|0:2,0:0:0:0:
510,248,225952,2,0,L|513:149,1,86.9999973449708,2|8,1:2|0:2,0:0:0:0:
472,72,226339,1,0,1:2:0:0:
400,144,226533,6,0,B|356:155|356:155|311:127,1,86.9999973449708,10|0,0:2|1:2,0:0:0:0:
251,76,226920,1,10,0:2:0:0:
193,144,227114,2,0,P|176:185|205:245,1,86.9999973449708,2|8,1:2|0:2,0:0:0:0:
245,305,227501,2,0,L|143:316,1,86.9999973449708,2|8,1:2|0:2,0:0:0:0:
96,379,227888,1,0,1:2:0:0:
39,291,228081,6,0,L|44:105,1,173.999994689942,10|10,0:2|0:2,0:0:0:0:
52,26,228662,2,0,P|98:8|149:36,1,86.9999973449708,2|8,1:2|0:2,0:0:0:0:
184,91,229049,2,0,B|300:81,1,86.9999973449708,2|8,1:2|0:2,0:0:0:0:
336,31,229436,1,0,1:2:0:0:
400,115,229630,6,0,B|408:226|408:226|374:253|334:227,1,173.999994689942,10|8,0:2|0:2,0:0:0:0:
279,168,230210,1,0,1:2:0:0:
218,227,230404,2,0,P|206:268|230:322,1,86.9999973449708,10|0,0:2|1:2,0:0:0:0:
289,376,230791,1,8,0:2:0:0:
289,376,230985,1,0,1:2:0:0:
359,309,231178,6,0,B|462:298,1,86.9999973449708,14|0,0:2|1:2,0:0:0:0:
505,233,231565,1,10,0:2:0:0:
436,173,231759,2,0,P|420:130|441:87,1,86.9999973449708,2|8,1:2|0:2,0:0:0:0:
493,33,232146,2,0,B|457:4|457:4|389:17,1,86.9999973449708,2|8,1:2|0:2,0:0:0:0:
351,67,232533,1,0,1:2:0:0:
277,0,232727,6,0,L|166:11,1,86.9999973449708,8|0,0:0|1:0,0:0:0:0:
106,33,233114,2,0,B|84:71|84:71|118:122,1,86.9999973449708,8|0,0:0|1:0,0:0:0:0:
178,161,233501,2,0,L|264:151,1,86.9999973449708,8|0,0:0|1:0,0:0:0:0:
349,149,233888,2,0,B|376:180|376:180|354:222,1,86.9999973449708,8|0,0:0|1:0,0:0:0:0:
311,308,234275,6,0,P|270:317|206:279,1,86.9999973449708,14|0,0:2|1:0,0:0:0:0:
196,384,234662,2,0,P|160:361|142:289,1,86.9999973449708,8|0,0:0|1:0,0:0:0:0:
165,244,235048,1,8,0:0:0:0:
165,244,235242,1,0,1:0:0:0:
100,185,235436,1,8,0:0:0:0:
100,185,235630,1,0,1:0:0:0:
161,96,235823,6,0,B|268:99,1,86.9999973449708,10|0,0:2|1:2,0:0:0:0:
309,38,236210,1,10,0:2:0:0:
309,38,236404,2,0,B|416:41,1,86.9999973449708,2|8,1:2|0:0,0:0:0:0:
465,88,236791,1,10,1:2:0:0:
406,152,236985,2,0,P|396:175|406:209,2,43.4999986724854,10|8|4,1:2|0:3|0:3,0:0:0:0:
483,186,237372,5,0,1:0:0:0:
439,282,237565,1,14,0:0:0:0:
439,282,237759,2,0,L|358:276,1,79.7500024337769,2|0,1:2|0:0,0:0:0:0:
309,206,238146,1,6,1:2:0:0:
309,206,238340,2,0,L|223:211,1,79.7500024337769,10|12,0:0|0:3,0:0:0:0:
138,195,238727,6,0,B|155:296|155:296|119:315|118:351,1,159.500004867554,6|2,1:2|1:2,0:0:0:0:
197,370,239307,1,2,1:2:0:0:
260,319,239501,1,2,1:2:0:0:
346,367,239694,5,6,1:2:0:0:
256,192,239791,12,0,241146,0:0:0:0:
