osu file format v14

[General]
AudioFilename: audio.mp3
AudioLeadIn: 0
PreviewTime: 51674
Countdown: 0
SampleSet: Drum
StackLeniency: 0.7
Mode: 3
LetterboxInBreaks: 0
SpecialStyle: 0
WidescreenStoryboard: 0

[Editor]
Bookmarks: 1240,8196,22109,36022,51674,65587
DistanceSpacing: 0.7
BeatDivisor: 2
GridSize: 4
TimelineZoom: 0.4999996

[Metadata]
Title:Seishun Spinner
TitleUnicode:青春スピナー
Artist:Chieru (CV: Sakura Ayane), Kuroe (CV: Tanezaki Atsumi), Yuni (CV: Kohara Konomi)
ArtistUnicode:チエル (CV: 佐倉綾音)、クロエ (CV: 種崎敦美)、ユニ (CV: 小原好美)
Creator:Drum-Hitnormal
Version:Easy
Source:プリンセスコネクト!Re:Dive
Tags:dudehacker faputa cygames Princess Connect! redive Priconne Character Song 16 Japanese Pop jpop j-pop Mobile Video Game COCC-17676 Mutsuki Shuhei 睦月周平 Mizuno Genki ミズノ ゲンキ Nakayoshi-bu なかよし部 short cut ver purikone プリコネ
BeatmapID:2589683
BeatmapSetID:1245882

[Difficulty]
HPDrainRate:7
CircleSize:4
OverallDifficulty:7
ApproachRate:5
SliderMultiplier:1.4
SliderTickRate:1

[Events]
//Background and Video events
Video,337,"video.mp4"
0,0,"ez.jpg",0,0
//Break Periods
//Storyboard Layer 0 (Background)
//Storyboard Layer 1 (Fail)
//Storyboard Layer 2 (Pass)
//Storyboard Layer 3 (Foreground)
//Storyboard Layer 4 (Overlay)
//Storyboard Sound Samples
Sample,5587,0,"LR_Snare Hit.wav",70
Sample,6022,0,"LR_Snare Hit.wav",70

[TimingPoints]
1240,434.782608695652,4,3,1,70,1,0
51674,-100,4,3,1,70,0,1
76022,-100,4,3,1,70,0,0

[HitObjects]
448,192,1240,5,12,0:0:0:0:
320,192,1674,1,12,0:0:0:0:
64,192,2109,1,12,0:0:0:0:
192,192,2544,1,12,0:0:0:0:
448,192,2979,1,12,0:0:0:0:
192,192,3413,1,12,0:0:0:0:
64,192,3848,1,12,0:0:0:0:
320,192,4283,1,12,0:0:0:0:
448,192,4718,128,12,5153:0:0:0:0:
192,192,5153,128,12,5587:0:0:0:0:
320,192,5587,128,12,6022:0:0:0:0:
64,192,6022,128,12,6457:0:0:0:0:
448,192,7544,128,12,7979:0:0:0:0:
192,192,7979,1,8,0:0:0:0:
320,192,8196,1,2,0:0:0:0:
448,192,8196,1,4,0:0:0:0:
64,192,8631,1,8,0:0:0:0:
320,192,9066,1,2,0:0:0:0:
448,192,9066,1,0,0:0:0:0:
192,192,9500,1,8,0:0:0:0:
320,192,9935,1,2,0:0:0:0:
64,192,10370,1,8,0:0:0:0:
320,192,10805,1,2,0:0:0:0:
448,192,10805,1,0,0:0:0:0:
192,192,11239,1,8,0:0:0:0:
64,192,11674,1,2,0:0:0:0:
448,192,12109,1,8,0:0:0:0:
192,192,12544,1,2,0:0:0:0:
64,192,12544,1,0,0:0:0:0:
320,192,12979,1,8,0:0:0:0:
64,192,13413,1,2,0:0:0:0:
448,192,13848,1,8,0:0:0:0:
64,192,14283,1,2,0:0:0:0:
192,192,14283,1,0,0:0:0:0:
320,192,14718,1,8,0:0:0:0:
448,192,15153,1,2,0:0:0:0:
192,192,15587,1,8,0:0:0:0:
448,192,16022,1,2,0:0:0:0:
320,192,16022,1,0,0:0:0:0:
64,192,16457,1,8,0:0:0:0:
448,192,16892,1,2,0:0:0:0:
192,192,17326,1,8,0:0:0:0:
320,192,17761,1,2,0:0:0:0:
448,192,17761,1,0,0:0:0:0:
64,192,18196,1,8,0:0:0:0:
192,192,18631,1,2,0:0:0:0:
448,192,19066,1,8,0:0:0:0:
64,192,19500,1,2,0:0:0:0:
192,192,19500,1,0,0:0:0:0:
320,192,19935,1,8,0:0:0:0:
192,192,20370,1,2,0:0:0:0:
448,192,20805,1,8,0:0:0:0:
64,192,21239,1,2,0:0:0:0:
192,192,21239,1,0,0:0:0:0:
320,192,21674,1,8,0:0:0:0:
64,192,22109,1,2,0:0:0:0:
448,192,22109,1,4,0:0:0:0:
320,192,22544,1,8,0:0:0:0:
192,192,22979,1,2,0:0:0:0:
448,192,23413,1,8,0:0:0:0:
64,192,23848,1,2,0:0:0:0:
320,192,24283,1,8,0:0:0:0:
192,192,24718,1,2,0:0:0:0:
448,192,25153,1,8,0:0:0:0:
64,192,25587,1,2,0:0:0:0:
320,192,26022,1,8,0:0:0:0:
192,192,26457,1,2,0:0:0:0:
448,192,26892,1,8,0:0:0:0:
64,192,27326,1,2,0:0:0:0:
320,192,27761,1,8,0:0:0:0:
192,192,28196,1,2,0:0:0:0:
448,192,28631,1,8,0:0:0:0:
64,192,29066,1,2,0:0:0:0:
192,192,29500,1,8,0:0:0:0:
448,192,29935,1,2,0:0:0:0:
320,192,30370,1,8,0:0:0:0:
64,192,30805,1,2,0:0:0:0:
192,192,31239,1,8,0:0:0:0:
448,192,31674,1,2,0:0:0:0:
320,192,32109,1,8,0:0:0:0:
64,192,32544,1,2,0:0:0:0:
320,192,32979,1,8,0:0:0:0:
192,192,33413,1,2,0:0:0:0:
448,192,33848,1,8,0:0:0:0:
320,192,34283,1,2,0:0:0:0:
64,192,34718,1,8,0:0:0:0:
192,192,35153,1,2,0:0:0:0:
448,192,35587,128,8,36022:0:0:0:0:
64,192,36022,1,2,0:0:0:0:
192,192,36022,1,4,0:0:0:0:
192,192,36457,1,0,0:0:0:70:Clap.wav
320,192,36892,1,0,0:0:0:70:Clap.wav
320,192,37326,1,0,0:0:0:70:Clap.wav
64,192,37761,1,0,0:0:0:70:Clap.wav
64,192,38196,1,0,0:0:0:70:Clap.wav
448,192,38631,1,0,0:0:0:70:Clap.wav
448,192,39066,1,0,0:0:0:70:Clap.wav
192,192,39500,1,0,0:0:0:70:Clap.wav
192,192,39935,1,0,0:0:0:70:Clap.wav
320,192,40370,1,0,0:0:0:70:Clap.wav
320,192,40805,1,0,0:0:0:70:Clap.wav
64,192,41239,1,0,0:0:0:70:Clap.wav
64,192,41674,128,0,42109:0:0:0:70:Clap.wav
192,192,42109,128,0,42544:0:0:0:70:Clap.wav
448,192,42544,1,0,0:0:0:70:LR_Snare Hit.wav
64,192,42761,1,12,0:0:0:0:
320,192,43196,1,8,0:0:0:0:
320,192,43413,1,8,0:0:0:0:
192,192,43848,128,0,44283:0:0:0:0:
448,192,44283,1,0,0:0:0:70:LR_Snare Hit.wav
64,192,44500,1,12,0:0:0:0:
320,192,44935,1,8,0:0:0:0:
320,192,45153,1,8,0:0:0:0:
448,192,45587,128,0,46022:0:0:0:0:
64,192,46022,1,0,0:0:0:70:LR_Snare Hit.wav
320,192,46239,1,12,0:0:0:0:
192,192,46674,1,8,0:0:0:0:
192,192,46892,1,8,0:0:0:0:
448,192,47109,1,0,0:0:0:0:
448,192,47544,1,0,0:0:0:0:
192,192,47979,128,12,48413:0:0:0:0:
320,192,48413,1,0,0:0:0:0:
64,192,48631,1,8,0:0:0:0:
448,192,49066,1,8,0:0:0:0:
192,192,49500,1,8,0:0:0:0:
448,192,49718,128,8,50153:0:0:0:0:
64,192,50153,1,8,0:0:0:0:
64,192,50370,1,8,0:0:0:0:
192,192,51022,128,0,51674:0:0:0:0:
320,192,51674,1,2,0:0:0:0:
448,192,51674,1,4,0:0:0:0:
64,192,52109,1,8,0:0:0:0:
448,192,52544,1,2,0:0:0:0:
192,192,52979,1,8,0:0:0:0:
320,192,53413,1,2,0:0:0:0:
64,192,53848,1,8,0:0:0:0:
448,192,54283,1,2,0:0:0:0:
320,192,54718,1,8,0:0:0:0:
64,192,55153,1,2,0:0:0:0:
192,192,55587,1,8,0:0:0:0:
448,192,56022,1,2,0:0:0:0:
192,192,56457,1,8,0:0:0:0:
320,192,56674,128,2,57109:0:0:0:0:
64,192,57109,1,8,0:0:0:0:
448,192,57326,1,8,0:0:0:0:
192,192,57544,1,8,0:0:0:0:
64,192,57979,128,8,58631:0:0:0:0:
448,192,57979,1,4,0:0:0:0:
320,192,58631,1,2,0:0:0:0:
448,192,58631,1,4,0:0:0:0:
192,192,59066,1,8,0:0:0:0:
320,192,59500,1,2,0:0:0:0:
448,192,59935,1,8,0:0:0:0:
64,192,60370,1,2,0:0:0:0:
320,192,60805,1,8,0:0:0:0:
192,192,61239,1,2,0:0:0:0:
448,192,61674,1,8,0:0:0:0:
64,192,62109,1,2,0:0:0:0:
320,192,62544,1,8,0:0:0:0:
192,192,62761,1,0,0:0:0:0:
448,192,62979,1,2,0:0:0:0:
64,192,63305,1,0,0:0:0:0:
320,192,63631,128,8,64066:0:0:0:0:
192,192,64066,1,8,0:0:0:0:
448,192,64283,1,8,0:0:0:0:
192,192,64500,1,8,0:0:0:0:
64,192,64718,1,2,0:0:0:0:
448,192,64935,128,12,65587:0:0:0:0:
64,192,65587,1,2,0:0:0:0:
192,192,65587,1,4,0:0:0:0:
320,192,66022,1,8,0:0:0:0:
64,192,66457,1,2,0:0:0:0:
448,192,66892,1,8,0:0:0:0:
192,192,67326,1,2,0:0:0:0:
320,192,67761,1,8,0:0:0:0:
64,192,68196,1,2,0:0:0:0:
448,192,68631,1,8,0:0:0:0:
192,192,69066,1,2,0:0:0:0:
320,192,69500,1,8,0:0:0:0:
64,192,69935,1,2,0:0:0:0:
448,192,70370,1,8,0:0:0:0:
192,192,70587,128,10,71022:0:0:0:0:
320,192,71022,1,8,0:0:0:0:
64,192,71239,1,8,0:0:0:0:
448,192,71457,1,8,0:0:0:0:
192,192,71892,1,8,0:0:0:0:
320,192,71892,128,4,72544:0:0:0:0:
64,192,72544,1,2,0:0:0:0:
448,192,72979,1,8,0:0:0:0:
192,192,73413,1,2,0:0:0:0:
320,192,73848,1,8,0:0:0:0:
64,192,74066,1,0,0:0:0:0:
448,192,74500,1,0,0:0:0:0:
320,192,74718,1,8,0:0:0:0:
192,192,74935,1,0,0:0:0:0:
64,192,75370,1,0,0:0:0:0:
320,192,75587,1,8,0:0:0:0:
448,192,75805,1,0,0:0:0:0:
64,192,76022,1,8,0:0:0:0:
192,192,76022,1,0,0:0:0:0:
64,192,77544,1,8,0:0:0:0:
448,192,77544,128,4,81457:0:0:0:0:
