osu file format v14

[General]
AudioFilename: audio.mp3
AudioLeadIn: 0
PreviewTime: 51562
Countdown: 0
SampleSet: Normal
StackLeniency: 0.7
Mode: 1
LetterboxInBreaks: 0
WidescreenStoryboard: 1

[Editor]
Bookmarks: 21826
DistanceSpacing: 0.6
BeatDivisor: 4
GridSize: 32
TimelineZoom: 0.7999996

[Metadata]
Title:Seishun Spinner
TitleUnicode:青春スピナー
Artist:Chieru (CV: Sakura Ayane), Chloe (CV: Tanezaki Atsumi), Yuni (CV: Kohara Konomi)
ArtistUnicode:チエル (CV: 佐倉綾音)、クロエ (CV: 種崎敦美)、ユニ (CV: 小原好美)
Creator:4sbet1
Version:EASY
Source:プリンセスコネクト!Re:Dive
Tags:Cygames Princess Connect! redive プリコネ priconne purikone 授けの財団と聖なる学舎の異端児 聖テレサ女学院 Sazuke no Angel to Seinaru Gakusha no Lycéenne Lyceenne なかよし部 St. Theresa's Girls Academy Nakayoshibu Nakayoshi Bu Friendship Club ユニちゃんズ yunichanzu Ending ED Character Song 16 Game Size Short Version Ver. Japanese Video Game pop j-pop jpop Anime Kuroe
BeatmapID:3692466
BeatmapSetID:1778907

[Difficulty]
HPDrainRate:8
CircleSize:5
OverallDifficulty:3
ApproachRate:5
SliderMultiplier:1.4
SliderTickRate:1

[Events]
//Background and Video events
0,0,"BG.png",0,90
Video,0,"BG_Seishun.mp4"
//Break Periods
//Storyboard Layer 0 (Background)
//Storyboard Layer 1 (Fail)
//Storyboard Layer 2 (Pass)
//Storyboard Layer 3 (Foreground)
//Storyboard Layer 4 (Overlay)
//Storyboard Sound Samples

[TimingPoints]
-5068,434.782608695652,4,1,0,80,1,0
1888,-100,4,1,0,80,0,0
6997,-100,4,1,0,5,0,0
8084,-100,4,1,0,80,0,0
36562,-100,4,1,0,60,0,0
43301,-100,4,1,0,80,0,0
52214,-100,4,1,0,90,0,0
52323,-100,4,1,0,90,0,1
76671,-100,4,1,0,90,0,0
76779,-100,4,1,0,70,0,0
78084,-100,4,1,0,60,0,0

[HitObjects]
256,192,1888,5,4,0:0:0:0:
256,192,2758,1,4,0:0:0:0:
256,192,3627,1,4,0:0:0:0:
256,192,4497,1,4,0:0:0:0:
256,192,5366,1,4,0:0:0:0:
256,192,6236,1,4,0:0:0:0:
256,192,8192,1,12,0:0:0:0:
256,192,8845,1,0,0:0:0:0:
256,192,9714,1,8,0:0:0:0:
256,192,10584,1,0,0:0:0:0:
256,192,11018,1,8,0:0:0:0:
256,192,11453,1,8,0:0:0:0:
256,192,12323,1,0,0:0:0:0:
256,192,13192,1,8,0:0:0:0:
256,192,14062,1,0,0:0:0:0:
256,192,14497,1,0,0:0:0:0:
256,192,14931,1,8,0:0:0:0:
256,192,15801,1,0,0:0:0:0:
256,192,16671,1,8,0:0:0:0:
256,192,17540,1,8,0:0:0:0:
256,192,17975,1,8,0:0:0:0:
256,192,18410,1,8,0:0:0:0:
256,192,19279,1,0,0:0:0:0:
256,192,20149,1,8,0:0:0:0:
256,192,21018,1,0,0:0:0:0:
256,192,21453,1,0,0:0:0:0:
256,192,21888,1,8,0:0:0:0:
256,192,22758,1,4,0:0:0:0:
256,192,23627,1,8,0:0:0:0:
256,192,24497,1,0,0:0:0:0:
256,192,25366,1,8,0:0:0:0:
256,192,25801,1,8,0:0:0:0:
256,192,26236,1,0,0:0:0:0:
256,192,27540,1,0,0:0:0:0:
256,192,27975,1,8,0:0:0:0:
256,192,28845,1,8,0:0:0:0:
256,192,29714,1,0,0:0:0:0:
256,192,30584,1,8,0:0:0:0:
256,192,31453,1,0,0:0:0:0:
256,192,32323,1,8,0:0:0:0:
256,192,32758,1,0,0:0:0:0:
256,192,33192,1,0,0:0:0:0:
256,192,34497,1,8,0:0:0:0:
256,192,34931,1,8,0:0:0:0:
256,192,35801,1,8,0:0:0:0:
256,192,36671,5,4,0:0:0:0:
256,192,38410,1,8,0:0:0:0:
256,192,40149,1,8,0:0:0:0:
256,192,41888,1,8,0:0:0:0:
256,192,43410,1,4,0:0:0:0:
256,192,45149,1,4,0:0:0:0:
256,192,46888,1,4,0:0:0:0:
256,192,48627,1,4,0:0:0:0:
256,192,50366,5,12,0:0:0:0:
256,192,51671,1,8,0:0:0:0:
256,192,52323,5,4,0:0:0:0:
256,192,53192,1,8,0:0:0:0:
256,192,53845,1,0,0:0:0:0:
256,192,54497,1,0,0:0:0:0:
256,192,54931,1,8,0:0:0:0:
256,192,56018,1,0,0:0:0:0:
256,192,56671,1,8,0:0:0:0:
256,192,57323,1,4,0:0:0:0:
256,192,58192,1,4,0:0:0:0:
256,192,58627,1,4,0:0:0:0:
256,192,59279,1,4,0:0:0:0:
256,192,60149,1,8,0:0:0:0:
256,192,60801,1,0,0:0:0:0:
256,192,61453,1,8,0:0:0:0:
256,192,61888,1,8,0:0:0:0:
256,192,62975,1,0,0:0:0:0:
256,192,63627,1,8,0:0:0:0:
256,192,64279,1,4,0:0:0:0:
256,192,65584,1,12,0:0:0:0:
256,192,66236,5,4,0:0:0:0:
256,192,67105,1,8,0:0:0:0:
256,192,67758,1,0,0:0:0:0:
256,192,68410,1,0,0:0:0:0:
256,192,68845,1,8,0:0:0:0:
256,192,69931,1,0,0:0:0:0:
256,192,70584,1,8,0:0:0:0:
256,192,71236,1,4,0:0:0:0:
256,192,72105,1,4,0:0:0:0:
256,192,72540,1,4,0:0:0:0:
256,192,73192,1,4,0:0:0:0:
256,192,74062,1,8,0:0:0:0:
256,192,74714,1,8,0:0:0:0:
256,192,75366,1,8,0:0:0:0:
256,192,76236,1,8,0:0:0:0:
256,192,76671,1,0,0:0:0:0:
256,192,78192,12,0,79497,0:0:0:0:
