osu file format v14

[General]
AudioFilename: audio.mp3
AudioLeadIn: 0
PreviewTime: 49307
Countdown: 0
SampleSet: Soft
StackLeniency: 0.7
Mode: 0
LetterboxInBreaks: 0
WidescreenStoryboard: 0

[Editor]
DistanceSpacing: 0.7
BeatDivisor: 6
GridSize: 8
TimelineZoom: 1.3

[Metadata]
Title:Be Your Girl
TitleUnicode:Be Your Girl
Artist:Chieko Kawabe
ArtistUnicode:Chieko Kawabe
Creator:Enorin
Version:Nyu
Source:エルフェンリート
Tags:Elfen Lied Ending Lucy Nyu Kaede Brilliance
BeatmapID:1138539
BeatmapSetID:537259

[Difficulty]
HPDrainRate:1
CircleSize:2
OverallDifficulty:1
ApproachRate:1
SliderMultiplier:0.8
SliderTickRate:1

[Events]
//Background and Video events
0,0,"elfen-lied_00362863.jpg",0,0
//Break Periods
//Storyboard Layer 0 (Background)
//Storyboard Layer 1 (Fail)
//Storyboard Layer 2 (Pass)
//Storyboard Layer 3 (Foreground)
//Storyboard Sound Samples

[TimingPoints]
1340,374.993658536586,4,2,0,85,1,0
13339,-100,4,2,0,55,0,1
24964,-100,4,2,0,55,0,0
49339,-100,4,2,0,85,0,1
57964,-100,4,2,0,85,0,0
61338,-100,4,2,0,85,0,1
72963,-100,4,2,0,85,0,0
85396,374.993658536586,4,2,0,85,1,0
86337,374.993658536586,4,2,0,85,1,0
86752,374.993658536586,4,2,0,85,1,0
87212,374.993658536586,4,2,0,85,1,0

[Colours]
Combo1 : 0,0,255
Combo2 : 0,255,255
Combo3 : 0,128,255
Combo4 : 0,0,255
Combo5 : 0,255,255
Combo6 : 0,128,255

[HitObjects]
40,272,1340,5,4,3:1:0:0:
200,184,2089,1,0,1:3:0:0:
224,272,2464,2,0,P|248:272|376:208,1,160,2|2,0:0|0:0,0:0:0:0:
400,128,3589,1,0,1:3:0:0:
328,64,3964,2,0,P|208:80|104:152,1,240,2|0,0:0|1:3,0:0:0:0:
160,264,5652,2,0,L|200:288,1,40,2|2,0:0|0:0,0:0:0:0:
272,328,6214,1,2,0:0:0:0:
336,264,6589,1,0,1:3:0:0:
416,320,6964,2,0,L|416:72,1,240,2|0,0:0|1:3,0:0:0:0:
328,56,8464,5,2,0:0:0:0:
328,56,8839,2,0,P|320:56|192:136,1,160,2|0,0:0|1:3,0:0:0:0:
272,184,9964,2,0,P|224:264|88:288,1,240,0|0,0:0|1:3,0:0:0:0:
80,200,11464,2,0,L|-8:200,2,80,0|0|4,3:0|3:0|1:3,0:0:0:0:
168,192,12589,1,4,1:3:0:0:
232,128,12964,1,4,1:3:0:0:
232,128,13339,6,0,L|320:128,1,80,4|2,2:1|0:0,0:0:0:0:
400,120,14089,2,0,L|440:40,2,80,0|2|2,1:3|0:0|0:0,0:0:0:0:
384,208,15214,1,0,0:0:0:0:
384,208,15589,2,0,P|296:336|152:296,1,320,0|0,1:3|1:3,0:0:0:0:
88,240,17464,1,0,0:0:0:0:
48,160,17839,2,0,P|72:144|128:128,3,80,0|0|0|0,3:0|3:0|1:3|3:0,0:0:0:0:
192,184,19339,6,0,P|232:168|264:136,1,80,4|2,2:1|0:0,0:0:0:0:
328,80,20089,2,0,L|384:144,2,80,0|2|2,1:3|0:0|0:0,0:0:0:0:
240,64,21214,1,0,0:0:0:0:
240,64,21589,2,0,P|104:112|184:216,1,320,0|0,1:3|1:3,0:0:0:0:
272,256,23464,1,0,0:0:0:0:
272,256,23839,2,0,L|272:168,3,80,0|0|0|0,0:0|1:3|1:3|1:3,0:0:0:0:
192,96,25339,5,2,0:2:0:0:
344,48,25902,1,2,0:2:0:0:
448,120,26464,2,0,P|424:200|288:264,1,240,0|10,0:0|0:0,0:0:0:0:
208,296,27964,2,0,L|128:320,1,80
72,248,28714,2,0,L|144:192,1,80,0|10,0:0|0:0,0:0:0:0:
192,128,29464,1,0,0:0:0:0:
280,96,29839,2,0,P|352:88|368:88,2,80,0|0|10,3:0|3:0|0:0,3:0:0:0:
144,64,31339,5,2,0:2:0:0:
216,192,31901,1,2,0:2:0:0:
256,328,32464,2,0,P|216:328|56:216,1,240,0|10,0:0|0:0,0:0:0:0:
48,128,33964,1,0,0:0:0:0:
136,88,34339,2,0,B|176:80|216:104|216:104|256:88|288:72,1,160,0|10,0:0|0:0,0:0:0:0:
376,48,35464,1,0,0:0:0:0:
424,128,35839,2,0,L|504:128,2,80,0|0|10,3:0|3:0|0:0,0:0:0:0:
264,128,37339,5,2,0:0:0:0:
352,264,37901,1,2,0:0:0:0:
200,304,38464,2,0,P|112:312|40:192,1,240,0|10,0:0|0:0,0:0:0:0:
104,128,39964,2,0,L|104:48,2,80
176,184,41089,1,10,0:0:0:0:
248,128,41464,2,0,P|304:88|320:208,1,240,0|10,0:0|0:0,0:0:0:0:
304,296,42964,6,0,L|224:336,1,80
208,240,43714,2,0,L|120:240,1,80,0|10,0:0|0:0,0:0:0:0:
80,160,44464,2,0,L|-8:160,2,80
168,128,45589,1,10,0:0:0:0:
264,128,45964,2,0,L|264:40,2,80,0|4|0,0:0|0:3|0:0,0:0:0:0:
272,184,46901,2,0,P|392:216|424:168,1,200,0|0,0:0|3:0,0:0:0:0:
432,80,48214,6,0,L|520:80,2,80,2|2|0,0:0|0:0|0:0,0:0:0:0:
344,120,49339,2,0,P|304:104|280:72,1,80,4|2,2:1|0:0,0:0:0:0:
192,40,50089,2,0,P|160:56|128:96,1,80,0|2,0:0|0:0,0:0:0:0:
96,176,50839,2,0,P|88:224|176:280,1,160,0|2,0:0|0:0,0:0:0:0:
240,216,51964,5,0,0:0:0:0:
304,280,52339,2,0,L|392:280,2,80,0|2|0,0:0|0:0|0:0,0:0:0:0:
224,328,53464,1,2,0:0:0:0:
136,296,53839,2,0,P|104:272|136:168,1,160,2|0,0:0|1:3,0:0:0:0:
192,96,54964,1,0,1:3:0:0:
280,64,55339,6,0,P|296:64|360:96,1,80,4|0,2:1|0:0,0:0:0:0:
336,176,56089,1,0,1:3:0:0:
392,248,56464,2,0,L|472:248,2,80
328,312,57589,2,0,P|280:288|264:264,1,80,0|2,1:3|0:0,0:0:0:0:
280,176,58339,2,0,P|204:181|174:251,3,160,2|0|2|0,0:0|1:3|0:0|1:3,0:0:0:0:
256,296,60963,6,0,P|336:320|336:320,1,80,0|4,0:0|2:1,0:0:0:0:
424,328,61713,1,0,0:0:0:0:
496,272,62088,1,0,0:0:0:0:
424,216,62463,2,0,L|344:216,2,80,2|2|2,0:0|0:0|0:0,0:0:0:0:
488,144,63588,2,0,P|464:96|432:80,1,80
352,104,64338,2,0,L|352:24,2,80
320,192,65463,2,0,L|400:192,3,80,2|2|2|0,0:0|0:0|0:0|1:3,0:0:0:0:
488,152,66963,6,0,P|488:112|464:72,1,80,0|4,1:3|2:1,0:0:0:0:
384,104,67713,2,0,P|352:64|320:48,1,80,0|0,0:0|1:3,0:0:0:0:
264,112,68463,1,0,0:0:0:0:
264,112,68838,2,0,P|232:112|184:144,1,80
144,216,69588,2,0,L|312:216,3,160,0|0|0|0,1:3|1:3|1:3|0:0,1:3:0:0:
352,104,72588,2,4,L|312:72,1,40,0|4,0:0|2:1,2:1:0:0:
184,40,73338,6,0,P|112:72|96:152,1,160,4|2,2:1|0:0,0:0:0:0:
128,232,74463,2,0,L|40:232,2,80,2|0|2,0:0|0:0|0:0,0:0:0:0:
200,288,75588,2,0,P|248:296|280:288,1,80,2|0,0:0|3:0,0:0:0:0:
352,232,76338,2,0,L|352:144,4,80,2|2|2|2|0,0:0|0:0|0:0|0:0|3:0,0:0:0:0:
320,320,78213,2,0,L|232:320,1,80,0|0,0:0|3:0,0:0:0:0:
152,304,78963,1,0,0:0:0:0:
88,240,79338,6,0,P|96:184|176:128,1,160,0|4,0:0|0:3,2:2:0:0:
240,192,80463,2,0,P|336:168|376:112,1,160,4|4,0:3|0:3,0:2:0:0:
464,80,81588,2,0,L|464:168,1,80,4|4,0:3|0:3,0:2:0:0:
440,248,82338,2,4,P|424:264|360:272,4,80,4|4|4|4|4,1:3|1:3|1:3|1:3|1:3,1:3:0:0:
400,128,84588,1,2,0:0:0:0:
296,128,84963,1,2,0:0:0:0:
216,200,85338,5,4,3:1:0:0:
