osu file format v14

[General]
AudioFilename: chico historia.mp3
AudioLeadIn: 0
PreviewTime: 38806
Countdown: 0
SampleSet: None
StackLeniency: 0.7
Mode: 0
LetterboxInBreaks: 0
WidescreenStoryboard: 1

[Editor]
DistanceSpacing: 0.9
BeatDivisor: 4
GridSize: 4
TimelineZoom: 1.5

[Metadata]
Title:Historia
TitleUnicode:Historia
Artist:Chico with Honeyworks
ArtistUnicode:Chico with Honeyworks
Creator:SeaRasp
Version:Normal
Source:
Tags:
BeatmapID:896795
BeatmapSetID:413564

[Difficulty]
HPDrainRate:4
CircleSize:3
OverallDifficulty:4
ApproachRate:5
SliderMultiplier:0.999999999999999
SliderTickRate:1

[Events]
//Background and Video events
0,0,"Background.jpg",0,0
//Break Periods
//Storyboard Layer 0 (Background)
//Storyboard Layer 1 (Fail)
//Storyboard Layer 2 (Pass)
//Storyboard Layer 3 (Foreground)
//Storyboard Sound Samples

[TimingPoints]
328,326.086956521739,4,2,1,50,1,0
5545,-100,4,2,1,50,0,0
39458,-100,4,2,1,60,0,1
47936,-100,4,2,1,60,0,1
48262,-100,4,2,1,60,0,1
48588,-100,4,2,1,60,0,1
48914,-100,4,2,1,60,0,1
49893,-100,4,2,1,50,0,0
81197,-100,4,2,1,5,0,0

[HitObjects]
256,192,2936,12,0,4893,0:0:0:0:
100,96,5545,6,0,P|200:104|320:92,1,200,6|0,0:0|0:0,0:0:0:0:
352,36,6849,2,0,P|352:100|444:208,1,200,2|0,0:0|0:0,0:0:0:0:
376,276,8154,6,0,L|276:280,2,99.9999999999999,2|0|0,0:0|0:0|0:0,0:0:0:0:
352,184,9458,2,0,P|252:176|144:184,1,200,2|0,0:0|0:0,0:0:0:0:
92,240,10762,6,0,P|112:180|80:48,1,200,10|0,0:0|0:0,0:0:0:0:
180,24,12067,2,0,L|296:24,1,99.9999999999999,2|0,0:0|0:0,0:0:0:0:
344,96,12719,6,0,P|352:156|484:208,1,200,0|2,0:0|0:0,0:0:0:0:
440,120,14023,1,0,0:0:0:0:
440,120,14675,2,0,B|388:164|388:164|320:184|320:184|260:228,1,200,2|0,0:0|0:0,0:0:0:0:
192,204,15980,6,0,L|256:300,2,99.9999999999999,6|0|0,0:0|0:0|0:0,0:0:0:0:
112,136,16958,1,0,0:0:0:0:
216,104,17284,2,0,L|328:72,1,99.9999999999999,2|0,0:0|0:0,0:0:0:0:
400,132,17936,2,0,L|504:96,1,99.9999999999999
488,192,18588,6,0,P|396:232|312:176,1,200,6|0,0:0|0:0,0:0:0:0:
272,96,19567,1,0,0:0:0:0:
216,180,19893,2,0,L|132:256,1,99.9999999999999,2|0,0:0|0:0,0:0:0:0:
60,232,20545,2,0,P|104:280|116:328,1,99.9999999999999
212,324,21197,6,0,P|312:324|424:316,1,200,6|0,0:0|0:0,0:0:0:0:
472,236,22175,1,0,0:0:0:0:
392,172,22501,2,0,P|344:120|344:120,1,50,2|0,0:0|0:0,0:0:0:0:
288,92,22827,1,0,0:0:0:0:
216,132,22991,2,0,P|156:184|72:172,1,150
60,104,23806,6,0,P|56:204|60:308,1,200,4|0,0:0|0:0,0:0:0:0:
156,248,24947,1,8,0:0:0:0:
248,304,25273,1,8,0:0:0:0:
336,240,25599,2,0,B|376:204|376:204|400:152|400:152|436:112,1,150,8|0,0:0|0:0,0:0:0:0:
488,44,26414,5,6,0:0:0:0:
392,36,26741,2,0,P|304:36|276:40,1,99.9999999999999
224,120,27393,1,0,0:0:0:0:
136,56,27719,2,0,P|116:136|204:224,1,200,2|0,0:0|0:0,0:0:0:0:
284,204,29023,5,6,0:0:0:0:
384,188,29349,2,0,P|376:240|340:288,1,99.9999999999999
256,300,30001,1,0,0:0:0:0:
152,300,30327,2,0,P|144:200|152:80,1,200,2|0,0:0|0:0,0:0:0:0:
224,24,31632,5,6,0:0:0:0:
328,68,31958,2,0,P|372:88|416:132,2,99.9999999999999
240,124,32936,2,0,P|236:224|244:328,1,200,2|0,0:0|0:0,0:0:0:0:
328,288,34241,5,6,0:0:0:0:
328,288,34567,2,0,P|268:236|160:296,1,200
104,204,35545,6,0,L|104:96,1,99.9999999999999,10|0,0:0|0:0,0:0:0:0:
128,68,36034,2,0,P|180:72|244:60,1,99.9999999999999,8|0,0:0|0:0,0:0:0:0:
304,132,36523,1,8,0:0:0:0:
256,192,36849,8,0,39132,0:0:0:0:
328,144,39458,6,0,P|328:208|324:264,1,99.9999999999999,12|8,0:0|0:0,0:0:0:0:
232,296,40110,2,0,P|232:232|236:176,1,99.9999999999999,8|8,0:0|0:0,0:0:0:0:
232,92,40762,1,8,0:0:0:0:
148,140,41088,1,8,0:0:0:0:
144,44,41414,2,0,B|212:44|212:44|264:32,1,99.9999999999999,8|8,0:0|0:0,0:0:0:0:
276,56,41904,6,0,P|344:60|440:52,1,150
480,136,42719,2,0,L|480:240,1,99.9999999999999,8|8,0:0|0:0,0:0:0:0:
380,232,43371,2,0,L|380:332,1,99.9999999999999,8|8,0:0|0:0,0:0:0:0:
280,336,44023,6,0,L|216:336,1,50,8|0,0:0|0:0,0:0:0:0:
136,336,44675,1,12,0:0:0:0:
136,336,45001,2,0,P|140:276|136:228,1,99.9999999999999,8|8,0:0|0:0,0:0:0:0:
56,180,45654,2,0,P|53:130|57:80,1,99.9999999999999,8|8,0:0|0:0,0:0:0:0:
156,40,46306,5,8,0:0:0:0:
156,40,46632,2,0,P|156:108|152:152,1,99.9999999999999,8|8,0:0|0:0,0:0:0:0:
192,164,47121,2,0,P|276:164|360:160,1,150
412,88,47936,1,8,0:0:0:0:
444,184,48262,6,0,P|444:232|448:292,2,99.9999999999999,8|8|8,0:0|0:0|0:0,0:0:0:0:
344,160,49241,2,0,P|344:264|348:372,1,200,8|12,0:0|0:0,0:0:0:0:
256,324,50219,5,0,0:0:0:0:
256,324,50545,2,0,P|156:324|96:292,1,150
64,212,51523,2,0,P|116:204|180:228,1,99.9999999999999
264,64,52501,6,0,P|364:56|464:60,1,200,6|0,0:0|0:0,0:0:0:0:
428,164,53643,2,0,P|432:276|432:276,1,99.9999999999999
384,292,54132,2,0,L|380:180,2,99.9999999999999
284,308,55110,5,4,0:0:0:0:
180,312,55436,2,0,P|128:316|72:312,1,99.9999999999999
24,216,56251,2,0,P|88:176|140:220,1,150
220,172,57067,5,0,0:0:0:0:
220,172,57719,2,0,P|320:172|436:168,1,200,6|0,0:0|0:0,0:0:0:0:
376,84,58860,1,0,0:0:0:0:
376,84,59349,6,0,P|332:128|300:164,2,99.9999999999999
272,36,60327,2,0,P|216:36|168:36,1,99.9999999999999,6|0,0:0|0:0,0:0:0:0:
148,132,60980,2,0,P|92:132|44:132,1,99.9999999999999
32,240,61632,6,0,P|32:292|24:352,1,99.9999999999999,2|0,0:0|0:0,0:0:0:0:
120,348,62284,2,0,L|224:348,1,99.9999999999999
280,264,62936,6,0,L|388:264,1,99.9999999999999,6|0,0:0|0:0,0:0:0:0:
464,312,63588,2,0,P|476:264|456:200,1,99.9999999999999
376,168,64241,6,0,P|365:119|377:71,1,99.9999999999999,2|0,0:0|0:0,0:0:0:0:
452,24,64893,2,0,P|364:48|256:28,1,200,0|6,0:0|0:0,0:0:0:0:
152,52,65871,5,0,0:0:0:0:
152,52,66197,2,0,L|136:104,1,50
96,112,66523,2,0,L|80:164,1,50
48,188,66849,2,0,B|28:248|28:248|28:328|136:340,1,200,2|0,0:0|0:0,0:0:0:0:
208,288,67827,5,0,0:0:0:0:
316,292,68154,2,0,P|356:324|356:324,2,50,6|0|0,0:0|0:0|0:0,0:0:0:0:
292,196,68806,2,0,B|280:136|328:88|328:88,1,99.9999999999999
396,64,69458,6,0,P|344:44|200:64,1,200,2|0,0:0|0:0,0:0:0:0:
128,132,70436,1,0,0:0:0:0:
128,132,70762,2,0,L|128:200,1,50,6|0,0:0|0:0,0:0:0:0:
96,216,71088,6,0,L|100:328,1,99.9999999999999
144,344,71577,2,0,P|200:344|244:316,1,99.9999999999999
264,224,72067,2,0,P|307:201|357:202,1,99.9999999999999,2|0,0:0|0:0,0:0:0:0:
412,276,72719,6,0,P|404:204|420:168,1,99.9999999999999
464,108,73371,2,0,L|360:112,1,99.9999999999999,6|0,0:0|0:0,0:0:0:0:
280,168,74023,2,0,L|212:168,2,50
232,80,74675,6,0,B|184:72|136:120|140:176|140:176|92:212|88:272|120:308,1,300,2|0,0:0|0:0,0:0:0:0:
256,192,75980,12,0,81197,0:0:0:0:
