osu file format v14

[General]
AudioFilename: chico historia.mp3
AudioLeadIn: 0
PreviewTime: 38806
Countdown: 0
SampleSet: Soft
StackLeniency: 0.7
Mode: 0
LetterboxInBreaks: 0
WidescreenStoryboard: 1

[Editor]
DistanceSpacing: 0.9
BeatDivisor: 4
GridSize: 4
TimelineZoom: 2

[Metadata]
Title:Historia
TitleUnicode:Historia
Artist:Chico with Honeyworks
ArtistUnicode:Chico with Honeyworks
Creator:SeaRasp
Version:Insane
Source:
Tags:
BeatmapID:896810
BeatmapSetID:413564

[Difficulty]
HPDrainRate:6.5
CircleSize:4
OverallDifficulty:7.5
ApproachRate:9
SliderMultiplier:1.7
SliderTickRate:1

[Events]
//Background and Video events
0,0,"Background.jpg",0,0
//Break Periods
//Storyboard Layer 0 (Background)
//Storyboard Layer 1 (Fail)
//Storyboard Layer 2 (Pass)
//Storyboard Layer 3 (Foreground)
//Storyboard Sound Samples

[TimingPoints]
328,326.086956521739,4,2,1,50,1,0
5545,-117.647058823529,4,2,1,50,0,0
39458,-100,4,2,1,60,0,1
47936,-86.9565217391304,4,2,1,60,0,1
48262,-100,4,2,1,60,0,1
48588,-86.9565217391304,4,2,1,60,0,1
48914,-100,4,2,1,60,0,1
49893,-117.647058823529,4,2,1,50,0,0
81197,-117.647058823529,4,2,1,5,0,0

[HitObjects]
256,192,2936,12,0,5219,0:0:0:0:
152,256,5545,6,0,L|96:196,1,72.2500013780594
120,80,5871,1,0,0:0:0:0:
256,192,6034,2,0,P|272:232|260:280,1,72.2500013780594
208,332,6360,1,0,0:0:0:0:
360,272,6523,2,0,L|448:236,1,72.2500013780594,2|0,0:0|0:0,0:0:0:0:
404,80,6849,6,0,P|376:136|380:172,1,72.2500013780594,2|2,0:0|0:0,0:0:0:0:
460,140,7175,1,0,0:0:0:0:
316,88,7338,2,0,B|268:64|268:64|160:48,1,144.500002756119,2|0,0:0|0:0,0:0:0:0:
100,160,7827,2,0,L|188:172,1,72.2500013780594
292,236,8154,6,0,P|252:280|212:288,1,72.2500013780594,2|0,0:0|0:0,0:0:0:0:
148,260,8480,1,0,0:0:0:0:
268,116,8643,2,0,P|324:112|392:164,1,144.500002756119,2|0,0:0|0:0,0:0:0:0:
424,260,9132,2,0,L|424:348,1,72.2500013780594
336,232,9458,5,2,0:0:0:0:
476,188,9621,1,0,0:0:0:0:
338,117,9784,2,0,P|303:110|268:116,1,72.2500013780594,0|2,0:0|0:0,0:0:0:0:
166,28,10110,2,2,P|200:88|298:112,1,144.500002756119,2|0,0:0|0:0,0:0:0:0:
268,16,10599,1,0,0:0:0:0:
148,160,10762,6,0,L|88:224,1,72.2500013780594,0|2,0:0|0:0,0:0:0:0:
96,312,11088,1,0,0:0:0:0:
256,212,11251,2,0,P|268:168|256:128,1,72.2500013780594,2|0,0:0|0:0,0:0:0:0:
192,80,11577,1,2,0:0:0:0:
176,260,11741,2,0,P|208:292|248:302,1,72.2500013780594,2|0,0:0|0:0,0:0:0:0:
336,280,12067,5,2,0:0:0:0:
396,148,12230,1,0,0:0:0:0:
432,248,12393,1,0,0:0:0:0:
296,184,12556,2,0,P|300:112|364:48,1,144.500002756119,2|0,0:0|0:0,0:0:0:0:
212,68,13045,2,0,P|260:80|292:104,1,72.2500013780594
132,180,13371,6,2,P|84:168|52:144,1,72.2500013780594
124,92,13697,1,0,0:0:0:0:
68,240,13860,1,2,0:0:0:0:
220,208,14023,2,0,L|304:184,1,72.2500013780594,2|0,0:0|0:0,0:0:0:0:
360,64,14349,2,0,B|408:92|408:92|428:116,1,72.2500013780594
472,256,14675,5,2,0:0:0:0:
392,204,14838,1,0,0:0:0:0:
484,160,15001,1,0,0:0:0:0:
380,300,15164,1,2,0:0:0:0:
188,160,15327,2,0,P|244:220|304:244,1,144.500002756119,2|0,0:0|0:0,0:0:0:0:
300,112,15817,1,0,0:0:0:0:
208,44,15980,6,0,P|164:44|112:68,1,72.2500013780594
84,144,16306,1,0,0:0:0:0:
300,112,16469,2,0,P|320:80|324:32,1,72.2500013780594
208,44,16795,1,0,0:0:0:0:
188,148,16958,2,0,P|205:181|245:208,1,72.2500013780594
336,204,17284,5,0,0:0:0:0:
228,300,17447,1,0,0:0:0:0:
284,136,17610,1,0,0:0:0:0:
308,280,17773,2,0,P|352:284|420:196,1,144.500002756119,0|2,0:0|0:0,0:0:0:0:
424,184,18181,1,2,0:0:0:0:
428,152,18263,1,2,0:0:0:0:
432,44,18425,1,0,0:0:0:0:
284,136,18588,6,0,L|332:200,1,72.2500013780594
328,42,18914,1,0,0:0:0:0:
176,96,19077,2,0,P|160:136|168:188,1,72.2500013780594
238,240,19404,1,0,0:0:0:0:
82,238,19567,1,0,0:0:0:0:
158,310,19730,1,0,0:0:0:0:
324,309,19893,6,0,P|345:268|339:216,1,72.2500013780594
293,162,20219,1,0,0:0:0:0:
492,58,20382,2,0,P|463:107|388:161,1,144.500002756119
427,27,20871,2,0,P|474:46|509:72,1,72.2500013780594
293,162,21197,6,0,P|246:143|211:117,1,72.2500013780594
200,38,21523,1,0,0:0:0:0:
361,78,21686,2,0,P|393:120|399:154,1,72.2500013780594
352,237,22012,2,0,L|312:321,2,72.2500013780594
218,256,22501,6,0,L|179:332,1,72.2500013780594
88,248,22827,1,0,0:0:0:0:
58,130,22991,2,0,P|99:93|211:98,1,144.500002756119
248,166,23480,1,0,0:0:0:0:
289,68,23643,6,0,L|315:-3,2,72.2500013780594
348,148,24132,2,0,P|347:191|326:238,1,72.2500013780594
246,267,24458,2,0,P|235:301|235:337,1,72.2500013780594
322,309,24784,1,0,0:0:0:0:
160,292,24947,6,0,B|83:291|83:291|-2:249,1,144.500002756119,0|8,0:0|0:0,0:0:0:0:
32,228,25355,1,8,0:0:0:0:
44,196,25437,1,8,0:0:0:0:
79,102,25599,1,8,0:0:0:0:
150,34,25762,2,8,P|174:68|176:109,1,72.2500013780594
156,251,26088,2,8,P|132:217|130:176,1,72.2500013780594
282,65,26414,6,0,P|278:135|229:185,1,144.500002756119,4|0,0:0|0:0,0:0:0:0:
177,97,26904,1,0,0:0:0:0:
281,65,27067,2,0,L|373:67,1,72.2500013780594
301,187,27393,2,0,L|209:185,1,72.2500013780594
389,134,27719,6,0,P|407:186|349:277,1,144.500002756119
300,188,28208,1,0,0:0:0:0:
206,323,28371,2,0,P|249:295|289:262,1,72.2500013780594
112,244,28697,2,0,P|69:272|29:305,1,72.2500013780594
117,85,29023,5,12,0:0:0:0:
117,165,29186,1,8,0:0:0:0:
198,122,29349,2,0,P|204:80|193:40,1,72.2500013780594,0|8,0:0|0:0,0:0:0:0:
197,51,29594,1,8,0:0:0:0:
197,51,29675,2,0,L|275:49,1,72.2500013780594,8|0,0:0|0:0,0:0:0:0:
364,152,30001,2,0,L|286:154,1,72.2500013780594
455,86,30327,6,0,P|478:167|436:246,2,144.500002756119
455,85,31632,5,4,0:0:0:0:
343,152,31958,2,0,P|283:189|192:231,1,144.500002756119
120,167,32447,1,0,0:0:0:0:
108,74,32610,1,8,0:0:0:0:
192,104,32773,1,8,0:0:0:0:
32,128,32936,6,0,P|25:179|43:227,1,72.2500013780594
97,331,33262,2,0,P|104:280|86:232,1,72.2500013780594
159,111,33588,2,0,P|152:162|170:210,1,72.2500013780594
224,314,33914,2,0,P|231:263|213:215,1,72.2500013780594
265,149,34241,5,4,0:0:0:0:
316,73,34567,1,0,0:0:0:0:
353,155,34893,1,0,0:0:0:0:
229,68,35219,1,0,0:0:0:0:
312,224,35545,5,8,0:0:0:0:
408,80,35871,5,8,0:0:0:0:
265,149,36034,1,8,0:0:0:0:
229,68,36360,5,8,0:0:0:0:
353,155,36523,1,8,0:0:0:0:
472,187,36849,6,0,P|474:138|467:102,1,72.2500013780594
350,241,37175,2,0,P|348:290|355:326,1,72.2500013780594
304,156,37501,5,0,0:0:0:0:
349,78,37664,1,0,0:0:0:0:
390,154,37827,1,0,0:0:0:0:
256,238,37991,5,0,0:0:0:0:
154,85,38154,1,0,0:0:0:0:
304,156,38317,1,0,0:0:0:0:
155,245,38480,1,0,0:0:0:0:
144,272,38806,5,0,0:0:0:0:
195,176,38969,1,0,0:0:0:0:
247,81,39132,2,0,P|290:91|365:67,1,108.375002067089
399,1,39458,6,0,P|385:74|439:172,1,170,12|8,0:0|0:0,0:0:0:0:
485,69,39947,1,0,0:0:0:0:
375,227,40110,2,0,P|407:187|428:146,1,85,8|0,0:0|0:0,0:0:0:0:
272,195,40436,1,8,0:0:0:0:
292,298,40599,1,0,0:0:0:0:
337,131,40762,6,0,P|296:107|240:111,1,85,8|0,0:0|0:0,0:0:0:0:
110,240,41088,2,0,P|151:264|207:260,1,85,8|0,0:0|0:0,0:0:0:0:
156,79,41414,1,8,0:0:0:0:
174,181,41577,1,0,0:0:0:0:
260,106,41741,1,8,0:0:0:0:
67,147,41904,6,0,P|72:236|146:290,1,170,4|0,0:0|0:0,0:0:0:0:
156,79,42393,2,0,P|116:50|57:47,1,85,8|0,0:0|0:0,0:0:0:0:
177,182,42719,2,0,L|291:183,1,85,8|0,0:0|0:0,0:0:0:0:
363,52,43045,2,0,P|329:93|323:149,1,85,8|0,0:0|0:0,0:0:0:0:
411,128,43371,1,8,0:0:0:0:
451,49,43534,1,0,0:0:0:0:
363,52,43697,1,8,0:0:0:0:
418,213,43860,5,0,0:0:0:0:
512,145,44023,1,8,0:0:0:0:
402,95,44186,1,0,0:0:0:0:
393,280,44349,5,8,0:0:0:0:
507,257,44512,1,0,0:0:0:0:
429,166,44675,5,12,0:0:0:0:
352,156,44838,1,0,0:0:0:0:
310,222,45001,2,0,P|260:256|203:259,1,85,8|0,0:0|0:0,0:0:0:0:
72,181,45327,2,0,P|122:147|179:144,1,85,8|0,0:0|0:0,0:0:0:0:
145,231,45654,1,8,0:0:0:0:
70,86,45817,1,0,0:0:0:0:
242,92,45980,6,0,B|311:91|311:91|356:101|356:101|426:96,1,170,8|8,0:0|0:0,0:0:0:0:
490,175,46469,1,0,0:0:0:0:
367,288,46632,2,0,P|397:245|440:228,1,85,8|0,0:0|0:0,0:0:0:0:
456,317,46958,1,8,0:0:0:0:
281,147,47121,2,0,P|324:177|341:220,1,85,0|12,0:0|0:0,3:0:0:0:
254,232,47447,1,0,0:0:0:0:
184,100,47610,6,0,B|200:82|224:73|224:73|236:59|236:59|275:54|312:10,1,127.5,8|0,0:0|0:0,0:0:0:0:
337,89,47936,2,0,B|314:118|276:124|276:124|265:139|265:139|233:150|208:177,1,146.62500279665,8|0,0:0|0:0,0:0:0:0:
128,170,48262,6,0,P|148:221|229:257,1,127.5,8|0,0:0|0:0,0:0:0:0:
301,244,48588,2,0,L|429:135,1,146.62500279665,8|0,0:0|0:0,0:0:0:0:
442,173,48914,5,0,0:0:0:0:
462,198,48995,1,0,0:0:0:0:
475,227,49077,1,0,0:0:0:0:
482,258,49158,1,0,0:0:0:0:
480,290,49241,6,8,L|458:354,2,56.6666666666667
282,297,49567,2,8,L|304:233,2,56.6666666666667
397,252,49893,6,0,L|448:105,1,144.500002756119,4|0,0:0|0:0,0:0:0:0:
348,21,50382,1,8,0:0:0:0:
359,34,50463,1,8,0:0:0:0:
370,48,50545,1,8,0:0:0:0:
270,144,50708,1,0,0:0:0:0:
379,58,50871,1,0,0:0:0:0:
256,157,51034,6,0,P|220:188|128:269,1,144.500002756119,4|0,0:0|0:0,0:0:0:0:
106,100,51523,2,0,P|128:142|121:190,1,72.2500013780594,8|0,0:0|0:0,0:0:0:0:
74,314,51849,2,0,P|52:272|59:224,1,72.2500013780594,8|0,0:0|0:0,0:0:0:0:
152,256,52175,1,0,0:0:0:0:
152,256,52338,1,0,0:0:0:0:
265,191,52501,6,0,P|278:262|251:328,1,144.500002756119,4|0,0:0|0:0,0:0:0:0:
327,154,52991,1,8,0:0:0:0:
327,154,53072,1,8,0:0:0:0:
327,154,53154,2,0,L|247:201,1,72.2500013780594
341,40,53480,1,0,0:0:0:0:
446,71,53643,6,0,P|470:125|445:213,1,144.500002756119,4|0,0:0|0:0,0:0:0:0:
363,271,54132,2,0,P|339:217|364:129,2,144.500002756119,4|0|0,0:0|0:0|0:0,0:0:0:0:
362,272,55110,5,4,0:0:0:0:
183,217,55436,1,0,0:0:0:0:
232,308,55599,1,0,0:0:0:0:
242,323,55680,1,0,0:0:0:0:
252,338,55762,1,0,0:0:0:0:
172,200,55925,1,0,0:0:0:0:
260,352,56088,1,0,0:0:0:0:
162,185,56251,6,0,B|139:141|139:141|117:118|117:118|86:41,1,144.500002756119,4|0,0:0|0:0,0:0:0:0:
235,25,56741,2,0,P|184:32|147:57,1,72.2500013780594
303,111,57067,2,0,P|354:104|391:79,1,72.2500013780594,8|0,0:0|0:0,0:0:0:0:
317,26,57393,1,0,0:0:0:0:
359,180,57556,1,0,0:0:0:0:
189,300,57719,6,0,P|207:239|289:191,1,144.500002756119,4|0,0:0|0:0,0:0:0:0:
361,280,58208,1,8,0:0:0:0:
361,280,58289,1,8,0:0:0:0:
361,280,58371,2,0,P|309:282|259:283,1,72.2500013780594,8|0,0:0|0:0,0:0:0:0:
247,361,58697,1,0,0:0:0:0:
213,220,58860,6,0,P|199:157|190:121,1,72.2500013780594,4|0,0:0|0:0,0:0:0:0:
114,85,59186,1,0,0:0:0:0:
248,60,59349,2,0,P|305:46|342:32,1,72.2500013780594
420,116,59675,2,0,P|363:130|326:144,1,72.2500013780594,8|8,0:0|0:0,0:0:0:0:
454,29,60001,1,8,0:0:0:0:
508,168,60164,1,8,0:0:0:0:
360,240,60327,6,0,P|284:216|244:140,1,144.500002756119,0|8,0:0|0:0,0:0:0:0:
272,76,60817,1,0,0:0:0:0:
140,188,60980,1,8,0:0:0:0:
348,136,61143,1,0,0:0:0:0:
176,96,61306,1,8,0:0:0:0:
216,264,61469,1,0,0:0:0:0:
348,136,61632,6,0,P|384:96|392:48,1,72.2500013780594,8|0,0:0|0:0,0:0:0:0:
176,96,61958,2,0,P|140:136|132:184,1,72.2500013780594,8|0,0:0|0:0,0:0:0:0:
216,264,62284,1,8,0:0:0:0:
348,136,62447,1,0,0:0:0:0:
224,160,62610,1,8,0:0:0:0:
380,240,62773,1,0,0:0:0:0:
380,56,62936,6,0,P|344:51|308:57,1,72.2500013780594,12|0,0:0|0:0,0:0:0:0:
136,218,63262,2,0,P|172:223|208:217,1,72.2500013780594,8|0,0:0|0:0,0:0:0:0:
78,141,63588,5,8,0:0:0:0:
138,309,63751,1,0,0:0:0:0:
171,140,63914,1,8,0:0:0:0:
54,267,64077,1,0,0:0:0:0:
132,64,64241,6,0,P|173:53|221:71,1,72.2500013780594,8|0,0:0|0:0,0:0:0:0:
206,213,64567,2,0,P|165:224|117:206,1,72.2500013780594,8|0,0:0|0:0,0:0:0:0:
268,137,64893,5,8,0:0:0:0:
235,345,65056,1,0,0:0:0:0:
293,250,65219,2,0,P|318:281|340:292,1,36.1250006890297,8|0,0:0|0:0,0:0:0:0:
206,213,65382,2,0,P|182:179|163:168,1,36.1250006890297,8|0,0:0|0:0,0:0:0:0:
375,204,65545,6,0,P|395:153|387:117,1,72.2500013780594,12|0,0:0|0:0,0:0:0:0:
307,32,65871,2,0,P|323:84|407:139,1,144.500002756119
169,102,66360,2,0,P|217:127|315:106,1,144.500002756119
126,18,66849,6,0,P|92:49|77:85,1,72.2500013780594
50,220,67175,2,0,P|84:189|99:153,2,72.2500013780594
12,137,67664,1,0,0:0:0:0:
137,245,67827,2,0,L|203:301,1,72.2500013780594
305,178,68154,5,4,0:0:0:0:
214,208,68317,1,0,0:0:0:0:
305,87,68480,2,0,P|368:111|396:197,1,144.500002756119
219,158,68969,2,0,P|191:96|232:15,1,144.500002756119
305,86,69458,6,0,P|365:84|392:87,1,72.2500013780594
254,245,69784,2,0,P|194:247|167:244,1,72.2500013780594
119,170,70110,1,0,0:0:0:0:
115,314,70273,1,0,0:0:0:0:
22,167,70436,6,0,P|45:108|139:84,1,144.500002756119,0|4,0:0|0:0,0:0:0:0:
194,131,70925,1,0,0:0:0:0:
187,283,71088,2,0,P|183:231|206:192,1,72.2500013780594
276,177,71414,1,0,0:0:0:0:
367,59,71577,2,0,P|344:117|315:136,1,72.2500013780594
283,57,71904,1,0,0:0:0:0:
432,125,72067,6,0,P|452:156|429:263,1,144.500002756119
366,188,72556,1,0,0:0:0:0:
283,305,72719,2,0,P|328:290|361:259,1,72.2500013780594
204,193,73045,2,0,P|159:208|126:239,2,72.2500013780594,0|0|4,0:0|0:0|0:0,0:0:0:0:
209,276,73534,5,0,0:0:0:0:
137,138,73697,2,0,B|121:102|132:68|132:68|114:28|69:34,1,144.500002756119
222,104,74186,2,0,B|238:140|227:174|227:174|245:214|290:208,1,144.500002756119
329,106,74675,6,0,L|351:43,3,36.1250006890297
357,126,75001,1,0,0:0:0:0:
375,146,75082,1,0,0:0:0:0:
387,170,75164,1,0,0:0:0:0:
392,196,75245,1,0,0:0:0:0:
391,220,75328,1,0,0:0:0:0:
396,246,75409,1,0,0:0:0:0:
408,270,75491,1,0,0:0:0:0:
426,290,75572,1,0,0:0:0:0:
451,305,75654,6,0,L|494:306,1,36.1250006890297,8|0,0:0|0:0,0:0:0:0:
299,247,75817,2,0,L|256:246,1,36.1250006890297,8|0,0:0|0:0,0:0:0:0:
188,189,75980,5,12,0:0:0:0:
256,192,76061,12,0,81197,0:0:0:0:
