osu file format v14

[General]
AudioFilename: chico historia.mp3
AudioLeadIn: 0
PreviewTime: 38806
Countdown: 0
SampleSet: Soft
StackLeniency: 0.7
Mode: 0
LetterboxInBreaks: 0
WidescreenStoryboard: 1

[Editor]
DistanceSpacing: 0.9
BeatDivisor: 4
GridSize: 4
TimelineZoom: 2

[Metadata]
Title:Historia
TitleUnicode:Historia
Artist:Chico with Honeyworks
ArtistUnicode:Chico with Honeyworks
Creator:SeaRasp
Version:Hard
Source:
Tags:
BeatmapID:896809
BeatmapSetID:413564

[Difficulty]
HPDrainRate:6
CircleSize:4
OverallDifficulty:6
ApproachRate:7
SliderMultiplier:1.5
SliderTickRate:1

[Events]
//Background and Video events
0,0,"Background.jpg",0,0
//Break Periods
//Storyboard Layer 0 (Background)
//Storyboard Layer 1 (Fail)
//Storyboard Layer 2 (Pass)
//Storyboard Layer 3 (Foreground)
//Storyboard Sound Samples

[TimingPoints]
328,326.086956521739,4,2,1,50,1,0
5545,-117.647058823529,4,2,1,50,0,0
39458,-100,4,2,1,60,0,1
47936,-86.9565217391304,4,2,1,60,0,1
48262,-100,4,2,1,60,0,1
48588,-86.9565217391304,4,2,1,60,0,1
48914,-100,4,2,1,60,0,1
49893,-117.647058823529,4,2,1,50,0,0
81197,-117.647058823529,4,2,1,5,0,0

[HitObjects]
155,83,5545,6,0,P|130:137|152:209,1,127.50000243187
314,227,6034,2,0,B|284:181|284:181|211:142,1,127.50000243187
218,246,6523,2,0,L|260:302,1,63.7500012159348
345,314,6849,6,0,P|376:298|400:262,2,63.7500012159348
314,227,7338,2,0,P|345:198|447:196,1,127.50000243187
456,112,7827,1,0,0:0:0:0:
456,112,7991,1,0,0:0:0:0:
375,78,8154,2,0,P|393:52|420:35,2,63.7500012159348
294,129,8643,2,0,B|262:140|262:140|152:142,1,127.50000243187
96,72,9132,2,0,P|75:105|72:154,1,63.7500012159348
86,266,9458,6,0,P|107:233|110:184,2,63.7500012159348
19,328,9947,1,0,0:0:0:0:
102,359,10110,2,0,B|144:358|144:358|185:344|185:344|240:344,1,127.50000243187
310,346,10599,1,0,0:0:0:0:
318,218,10762,6,0,P|282:257|278:291,1,63.7500012159348
367,289,11088,1,0,0:0:0:0:
406,212,11251,2,0,P|379:153|299:134,1,127.50000243187
240,164,11741,2,0,P|236:120|252:80,1,63.7500012159348
312,40,12067,6,0,P|280:16|232:16,1,63.7500012159348
172,44,12393,1,0,0:0:0:0:
156,132,12556,2,0,B|156:220|156:220|136:272,1,127.50000243187
64,312,13045,1,0,0:0:0:0:
200,320,13208,6,0,P|160:344|136:344,2,63.7500012159348
224,232,13697,2,0,P|248:212|280:207,1,63.7500012159348
356,264,14023,2,0,P|372:224|332:128,1,127.50000243187
328,56,14512,1,0,0:0:0:0:
268,128,14675,6,0,L|200:128,2,63.7500012159348
328,56,15164,1,0,0:0:0:0:
240,44,15327,2,0,B|192:44|192:44|156:56|156:56|104:56,1,127.50000243187
24,56,15817,1,0,0:0:0:0:
24,56,15980,6,0,P|16:108|24:144,1,63.7500012159348,4|0,0:0|0:0,0:0:0:0:
80,192,16306,1,0,0:0:0:0:
148,256,16469,2,0,P|192:280|284:244,1,127.50000243187
304,176,16958,2,0,L|364:128,1,63.7500012159348
456,164,17284,6,0,L|396:212,1,63.7500012159348
364,280,17610,1,0,0:0:0:0:
456,280,17773,2,0,P|444:324|364:368,1,127.50000243187
288,332,18262,2,0,P|236:328|208:332,1,63.7500012159348
136,368,18588,2,0,P|104:369|72:365,1,63.7500012159348,4|0,0:0|0:0,0:0:0:0:
12,292,18914,1,0,0:0:0:0:
88,216,19077,2,0,B|144:184|156:124|156:124|180:96,1,127.50000243187
248,68,19567,2,0,P|300:60|328:72,1,63.7500012159348
388,140,19893,6,0,P|419:143|449:134,2,63.7500012159348
288,164,20382,2,0,B|288:208|288:208|272:252|272:252|272:312,1,127.50000243187
356,328,20871,2,0,L|356:264,1,63.7500012159348
192,264,21197,6,0,L|192:328,2,63.7500012159348,4|0|0,0:0|0:0|0:0,0:0:0:0:
128,184,21686,2,0,P|180:164|260:184,1,127.50000243187
288,268,22175,2,0,P|349:281|408:261,1,127.50000243187
344,188,22664,6,0,L|344:104,1,63.7500012159348
428,112,22991,2,0,P|408:64|320:44,1,127.50000243187
264,88,23480,1,0,0:0:0:0:
264,180,23643,6,0,B|244:208|244:208|144:256,1,127.50000243187,4|0,0:0|0:0,0:0:0:0:
141,164,24132,2,0,L|84:192,1,63.7500012159348
80,280,24458,1,0,0:0:0:0:
160,344,24621,2,0,L|296:272,1,127.50000243187
400,232,25273,5,0,0:0:0:0:
400,232,25355,1,0,0:0:0:0:
400,232,25436,2,0,P|376:196|336:176,1,63.7500012159348
256,176,25762,2,0,P|231:156|215:128,1,63.7500012159348
304,92,26088,1,0,0:0:0:0:
304,92,26251,1,0,0:0:0:0:
228,36,26414,6,0,P|184:40|112:120,1,127.50000243187,4|0,0:0|0:0,0:0:0:0:
210,253,27067,2,0,B|224:209|224:209|214:125,1,127.50000243187
128,312,27719,6,0,P|161:340|269:334,1,127.50000243187
308,280,28371,1,0,0:0:0:0:
308,280,29023,6,0,P|348:220|348:204,1,63.7500012159348,4|0,0:0|0:0,0:0:0:0:
332,156,29349,2,0,P|360:201|450:240,1,127.50000243187
388,68,30001,6,0,P|336:56|244:92,2,127.50000243187
260,256,30980,2,0,B|291:236|291:236|335:152,1,127.50000243187
160,182,31632,5,4,0:0:0:0:
160,182,31958,2,0,B|180:213|180:213|264:257,2,127.50000243187
96,96,32936,6,0,P|144:84|184:84,1,63.7500012159348
240,136,33262,2,0,P|271:132|302:122,1,63.7500012159348
208,12,33588,2,0,P|256:0|296:0,1,63.7500012159348
352,52,33914,2,0,P|383:48|414:38,1,63.7500012159348
388,136,34241,5,4,0:0:0:0:
388,136,34567,2,0,P|384:196|388:272,1,127.50000243187
444,336,35219,1,0,0:0:0:0:
352,344,35545,6,0,P|292:348|240:344,1,95.6250018239022
232,332,35871,1,0,0:0:0:0:
172,232,36034,2,0,P|232:228|284:232,1,95.6250018239022
292,244,36360,1,0,0:0:0:0:
400,256,36523,2,0,P|396:200|356:160,1,95.6250018239022
348,156,36849,6,0,P|292:136|260:132,2,63.7500012159348
292,244,37338,1,0,0:0:0:0:
160,212,37501,2,0,P|216:192|248:188,2,63.7500012159348
216,300,37990,1,0,0:0:0:0:
352,264,38154,6,0,P|296:244|264:240,1,63.7500012159348
296,340,38480,1,0,0:0:0:0:
352,264,38806,2,0,L|392:204,1,63.7500012159348
320,136,39132,2,0,P|352:72|372:56,1,95.6250018239022
400,68,39458,6,0,B|304:32|304:32|252:24,1,150,12|8,0:0|0:0,0:0:0:0:
168,84,39947,1,0,0:0:0:0:
72,48,40110,2,0,P|64:88|72:132,1,75,8|0,0:0|0:0,0:0:0:0:
144,176,40436,2,0,P|148:213|140:249,1,75,8|0,0:0|0:0,0:0:0:0:
56,308,40762,6,0,B|72:328|72:328|136:352,1,75,8|0,0:0|0:0,0:0:0:0:
212,304,41088,2,0,L|296:328,1,75,8|0,0:0|0:0,0:0:0:0:
348,248,41414,2,0,P|376:208|376:160,1,75,8|0,0:0|0:0,0:0:0:0:
292,180,41741,1,8,0:0:0:0:
344,104,41904,6,0,P|284:88|204:136,1,150,4|0,0:0|0:0,0:0:0:0:
204,220,42393,2,0,P|156:204|132:176,1,75,8|0,0:0|0:0,0:0:0:0:
68,72,42719,2,0,P|116:88|140:116,1,75,8|0,0:0|0:0,0:0:0:0:
52,160,43045,1,8,0:0:0:0:
80,248,43208,1,0,0:0:0:0:
172,272,43371,6,0,L|244:320,2,75,8|0|8,0:0|0:0|0:0,0:0:0:0:
140,192,43860,1,0,0:0:0:0:
132,104,44023,2,0,L|60:56,2,75,8|0|8,0:0|0:0|0:0,0:0:0:0:
228,96,44512,1,0,0:0:0:0:
228,96,44675,6,0,P|312:96|376:152,1,150,12|8,0:0|0:0,0:0:0:0:
392,224,45164,1,0,0:0:0:0:
304,200,45327,2,0,P|304:248|328:304,1,75,8|0,0:0|0:0,0:0:0:0:
244,336,45654,2,0,L|148:336,1,75,8|0,0:0|0:0,0:0:0:0:
96,244,45980,6,0,L|192:244,1,75,8|0,0:0|0:0,0:0:0:0:
220,160,46306,1,8,0:0:0:0:
264,80,46469,1,0,0:0:0:0:
168,80,46632,2,0,P|116:56|84:40,2,75,8|0|8,0:0|0:0|0:0,0:0:0:0:
220,160,47121,6,0,P|268:168|352:112,1,150
404,60,47610,2,0,P|392:124|420:200,1,112.5,8|0,0:0|0:0,0:0:0:0:
436,188,47936,2,0,P|452:248|440:332,1,129.375002467632,12|0,0:0|0:0,0:0:0:0:
416,328,48262,6,0,B|376:328|376:328|356:320|356:320|280:320,1,112.5,8|0,0:0|0:0,0:0:0:0:
268,304,48588,2,0,B|220:304|220:304|184:288|184:288|108:284,1,129.375002467632,12|0,0:0|0:0,0:0:0:0:
108,284,48914,6,0,L|48:320,3,37.5
144,196,49241,2,0,L|192:164,3,37.5
30,181,49567,6,0,L|-6:209,1,37.5
1,205,49730,1,0,0:0:0:0:
1,205,49811,1,0,0:0:0:0:
12,216,49893,6,0,B|52:176|52:176|72:144|72:144|112:100,1,127.50000243187
104,20,50382,1,0,0:0:0:0:
104,20,50463,1,0,0:0:0:0:
104,20,50545,2,0,P|160:40|172:56,1,63.7500012159348
180,132,50871,1,0,0:0:0:0:
256,68,51034,6,0,P|320:76|400:108,1,127.50000243187,4|0,0:0|0:0,0:0:0:0:
424,184,51523,2,0,L|408:264,1,63.7500012159348,8|0,0:0|0:0,0:0:0:0:
304,284,51849,2,0,L|320:204,1,63.7500012159348,8|0,0:0|0:0,0:0:0:0:
304,284,52501,6,0,B|260:288|260:288|208:300|208:300|160:304,1,127.50000243187,4|0,0:0|0:0,0:0:0:0:
88,320,52991,1,0,0:0:0:0:
96,184,53154,2,0,P|116:224|116:268,1,63.7500012159348
28,244,53480,1,0,0:0:0:0:
8,156,53643,6,0,P|28:124|128:104,1,127.50000243187,4|0,0:0|0:0,0:0:0:0:
184,156,54132,2,0,P|245:146|285:98,2,127.50000243187,4|0|0,0:0|0:0|0:0,0:0:0:0:
204,72,55110,5,4,0:0:0:0:
204,72,55599,1,0,0:0:0:0:
204,72,55681,1,0,0:0:0:0:
204,72,55762,2,0,L|260:0,1,63.7500012159348
340,32,56088,1,0,0:0:0:0:
368,124,56251,6,0,B|340:156|340:156|328:192|328:192|288:228,1,127.50000243187,4|0,0:0|0:0,0:0:0:0:
316,312,56741,2,0,L|372:264,1,63.7500012159348,8|0,0:0|0:0,0:0:0:0:
240,156,57067,2,0,L|184:204,1,63.7500012159348,8|0,0:0|0:0,0:0:0:0:
192,196,57719,5,4,0:0:0:0:
96,164,58208,1,0,0:0:0:0:
96,164,58289,1,0,0:0:0:0:
96,164,58371,2,0,P|148:112|148:112,1,63.7500012159348
168,28,58697,1,0,0:0:0:0:
240,96,58860,6,0,B|292:96|292:96|324:76,1,63.7500012159348,4|0,0:0|0:0,0:0:0:0:
372,28,59186,1,0,0:0:0:0:
372,136,59349,2,0,P|368:192|376:220,1,63.7500012159348
456,248,59675,2,0,P|458:279|453:310,1,63.7500012159348,8|8,0:0|0:0,0:0:0:0:
376,276,60001,1,8,0:0:0:0:
376,276,60164,1,8,0:0:0:0:
280,280,60327,6,0,B|240:276|240:276|208:256,1,63.7500012159348,12|0,0:0|0:0,0:0:0:0:
144,160,60654,2,0,B|184:164|184:164|216:184,1,63.7500012159348,8|0,0:0|0:0,0:0:0:0:
128,252,60980,1,8,0:0:0:0:
56,196,61143,1,0,0:0:0:0:
72,104,61306,1,8,0:0:0:0:
160,76,61469,1,0,0:0:0:0:
232,132,61632,6,0,B|248:184|204:232|204:232|208:256,1,127.50000243187,8|8,0:0|0:0,0:0:0:0:
236,340,62121,1,0,0:0:0:0:
300,264,62284,2,0,L|344:208,1,63.7500012159348,8|0,0:0|0:0,0:0:0:0:
440,224,62610,2,0,L|396:280,1,63.7500012159348,8|0,0:0|0:0,0:0:0:0:
400,148,62936,6,0,P|368:124|320:124,1,63.7500012159348,8|0,0:0|0:0,0:0:0:0:
244,152,63262,2,0,P|213:144|189:123,1,63.7500012159348,8|0,0:0|0:0,0:0:0:0:
144,64,63588,2,0,P|144:124|96:180,1,127.50000243187,8|8,0:0|0:0,0:0:0:0:
64,96,64077,1,8,0:0:0:0:
12,176,64241,6,0,P|28:228|104:264,2,127.50000243187,8|8|8,0:0|0:0|0:0,0:0:0:0:
64,96,65056,1,0,0:0:0:0:
144,68,65219,2,0,L|148:24,1,31.8750006079674,8|0,0:0|0:0,0:0:0:0:
224,96,65382,2,0,L|228:60,1,31.8750006079674,8|0,0:0|0:0,0:0:0:0:
292,152,65545,6,0,P|248:180|160:152,1,127.50000243187,8|0,0:0|0:0,0:0:0:0:
312,64,66197,1,0,0:0:0:0:
316,64,66360,2,0,P|364:92|384:160,1,127.50000243187
328,240,66849,6,0,P|343:300|396:333,1,127.50000243187
420,244,67338,1,0,0:0:0:0:
328,240,67501,2,0,P|272:236|248:244,1,63.7500012159348
216,316,67827,2,0,P|184:319|153:313,1,63.7500012159348
116,240,68154,6,0,P|112:296|44:356,1,127.50000243187
32,184,68806,1,0,0:0:0:0:
32,268,68969,1,0,0:0:0:0:
116,148,69295,5,0,0:0:0:0:
116,64,69458,1,0,0:0:0:0:
44,104,69621,1,0,0:0:0:0:
188,104,69784,2,0,L|264:100,1,63.7500012159348
304,36,70110,2,0,P|280:116|304:168,2,127.50000243187,0|0|4,0:0|0:0|0:0,0:0:0:0:
376,104,70925,5,0,0:0:0:0:
380,200,71088,2,0,P|394:260|370:318,1,127.50000243187
180,236,71577,2,0,P|240:221|298:245,1,127.50000243187
232,316,72067,6,0,P|188:332|152:328,1,63.7500012159348
92,280,72393,1,0,0:0:0:0:
92,188,72556,1,0,0:0:0:0:
92,88,72719,2,0,B|96:44|96:44|116:20,1,63.7500012159348
192,80,73045,2,0,B|188:124|188:124|168:148,1,63.7500012159348
92,188,73371,5,0,0:0:0:0:
168,236,73534,1,0,0:0:0:0:
252,192,73697,2,0,P|320:168|356:112,1,127.50000243187
328,200,74186,2,0,P|393:231|458:216,1,127.50000243187
424,316,74675,6,0,L|416:352,3,31.8750006079674
348,304,75001,2,0,L|341:335,3,31.8750006079674
268,284,75327,2,0,L|261:315,3,31.8750006079674
200,220,75654,6,0,L|216:176,1,31.8750006079674,8|0,0:0|0:0,0:0:0:0:
116,248,75817,2,0,L|104:284,1,31.8750006079674,8|0,0:0|0:0,0:0:0:0:
88,164,75980,5,0,0:0:0:0:
256,192,76061,12,0,81197,0:0:0:0:
