osu file format v14

[General]
AudioFilename: chico historia.mp3
AudioLeadIn: 0
PreviewTime: 38806
Countdown: 0
SampleSet: Soft
StackLeniency: 0.7
Mode: 0
LetterboxInBreaks: 0
WidescreenStoryboard: 0

[Editor]
DistanceSpacing: 0.9
BeatDivisor: 4
GridSize: 4
TimelineZoom: 2

[Metadata]
Title:Historia
TitleUnicode:Historia
Artist:Chico with Honeyworks
ArtistUnicode:Chico with Honeyworks
Creator:SeaRasp
Version:Extra
Source:
Tags:
BeatmapID:896794
BeatmapSetID:413564

[Difficulty]
HPDrainRate:7
CircleSize:4
OverallDifficulty:8.5
ApproachRate:9.3
SliderMultiplier:1.8
SliderTickRate:1

[Events]
//Background and Video events
0,0,"Background.jpg",0,0
//Break Periods
//Storyboard Layer 0 (Background)
//Storyboard Layer 1 (Fail)
//Storyboard Layer 2 (Pass)
//Storyboard Layer 3 (Foreground)
//Storyboard Sound Samples

[TimingPoints]
328,326.086956521739,4,2,1,50,1,0
5545,-117.647058823529,4,2,1,50,0,0
39458,-100,4,2,1,60,0,1
47936,-86.9565217391304,4,2,1,60,0,1
48262,-100,4,2,1,60,0,1
48588,-86.9565217391304,4,2,1,60,0,1
48914,-100,4,2,1,60,0,1
49893,-117.647058823529,4,2,1,50,0,0
81197,-117.647058823529,4,2,1,5,0,0

[HitObjects]
256,192,2936,12,0,5219,0:0:0:0:
248,172,5545,6,0,L|204:256,1,76.5000014591217
56,256,5871,1,2,0:0:0:0:
152,64,6034,2,0,P|192:44|248:48,1,76.5000014591217
160,184,6360,1,0,0:0:0:0:
44,36,6523,1,2,0:0:0:0:
52,152,6686,1,0,0:0:0:0:
223,42,6849,6,0,P|283:78|295:110,1,76.5000014591217,2|2,0:0|0:0,0:0:0:0:
256,168,7175,1,0,0:0:0:0:
412,64,7338,2,0,P|404:128|312:196,1,153.000002918243,2|2,0:0|0:0,0:0:0:0:
256,168,7827,1,0,0:0:0:0:
344,296,7991,1,0,0:0:0:0:
424,160,8154,5,2,0:0:0:0:
248,268,8317,1,0,0:0:0:0:
112,180,8480,2,0,L|47:138,1,76.5000014591217,2|0,0:0|0:0,0:0:0:0:
256,152,8806,1,0,0:0:0:0:
152,292,8969,1,0,0:0:0:0:
172,108,9132,2,0,P|208:76|296:72,1,114.750002188683,2|0,0:0|0:0,0:0:0:0:
356,112,9458,6,0,L|384:188,1,76.5000014591217,2|0,0:0|0:0,0:0:0:0:
328,280,9784,1,0,0:0:0:0:
480,224,9947,1,2,0:0:0:0:
268,196,10110,2,0,P|232:240|244:348,1,153.000002918243,2|0,0:0|0:0,0:0:0:0:
328,280,10599,1,0,0:0:0:0:
368,144,10762,6,2,P|340:108|304:92,2,76.5000014591217,0|2|0,0:0|0:0|0:0,0:0:0:0:
268,196,11251,1,2,0:0:0:0:
80,232,11414,1,2,0:0:0:0:
140,60,11577,1,0,0:0:0:0:
216,260,11741,1,2,0:0:0:0:
52,156,11904,1,0,0:0:0:0:
224,76,12067,6,0,P|272:60|332:52,1,76.5000014591217,2|0,0:0|0:0,0:0:0:0:
392,64,12393,1,0,0:0:0:0:
428,200,12556,2,0,P|372:250|297:256,1,153.000002918243,2|0,0:0|0:0,0:0:0:0:
228,192,13045,1,0,0:0:0:0:
232,104,13208,6,0,P|254:73|288:55,1,76.5000014591217,2|0,0:0|0:0,0:0:0:0:
384,8,13534,1,2,0:0:0:0:
308,156,13697,1,0,0:0:0:0:
208,16,13860,1,0,0:0:0:0:
408,112,14023,1,2,0:0:0:0:
216,224,14186,1,0,0:0:0:0:
96,140,14349,2,0,L|24:96,1,76.5000014591217,2|0,0:0|0:0,0:0:0:0:
144,64,14675,5,0,0:0:0:0:
304,200,14838,1,2,0:0:0:0:
104,268,15001,1,2,0:0:0:0:
240,136,15164,1,0,0:0:0:0:
424,128,15327,2,0,P|450:198|424:268,1,153.000002918243,2|0,0:0|0:0,0:0:0:0:
216,224,15817,1,0,0:0:0:0:
328,96,15980,6,0,P|352:60|400:40,1,76.5000014591217
472,52,16306,1,0,0:0:0:0:
364,192,16469,2,0,P|321:200|273:180,1,76.5000014591217
232,116,16795,1,0,0:0:0:0:
328,96,16958,1,0,0:0:0:0:
290,191,17121,1,0,0:0:0:0:
200,208,17284,5,0,0:0:0:0:
268,32,17447,1,0,0:0:0:0:
384,172,17610,1,0,0:0:0:0:
248,284,17773,2,0,P|192:296|112:232,1,153.000002918243,0|2,0:0|0:0,0:0:0:0:
104,212,18181,1,2,0:0:0:0:
104,176,18262,1,2,0:0:0:0:
160,40,18425,5,0,0:0:0:0:
288,180,18588,1,4,0:0:0:0:
104,212,18751,1,0,0:0:0:0:
252,80,18914,1,0,0:0:0:0:
312,256,19077,2,0,L|344:340,1,76.5000014591217
232,380,19404,1,0,0:0:0:0:
196,216,19567,2,0,P|224:172|268:152,1,76.5000014591217
424,152,19893,5,0,0:0:0:0:
339,327,20056,1,0,0:0:0:0:
243,159,20219,1,0,0:0:0:0:
388,72,20382,2,0,P|444:68|512:140,1,153.000002918243
244,256,20871,2,0,P|204:248|160:216,1,76.5000014591217
136,36,21197,6,0,P|188:52|220:76,1,76.5000014591217,4|0,0:0|0:0,0:0:0:0:
243,159,21523,1,0,0:0:0:0:
68,112,21686,2,0,P|36:72|36:36,1,76.5000014591217
136,36,22012,1,0,0:0:0:0:
243,159,22175,1,0,0:0:0:0:
88,208,22338,1,0,0:0:0:0:
224,68,22501,6,0,B|260:31|260:31|314:11,1,76.5000014591217
380,60,22827,1,0,0:0:0:0:
464,200,22991,2,0,P|436:228|320:224,1,153.000002918243
243,159,23480,1,0,0:0:0:0:
380,60,23643,6,0,P|444:56|480:64,1,76.5000014591217,0|4,0:0|0:0,0:0:0:0:
504,128,23969,1,0,0:0:0:0:
292,160,24132,2,0,P|256:120|252:76,1,76.5000014591217
296,28,24458,1,0,0:0:0:0:
384,184,24621,1,0,0:0:0:0:
200,180,24784,1,0,0:0:0:0:
376,84,24947,6,0,P|428:96|484:196,1,153.000002918243,0|8,0:0|0:0,0:0:0:0:
480,208,25355,1,8,0:0:0:0:
468,240,25436,1,8,0:0:0:0:
384,344,25599,1,8,0:0:0:0:
384,184,25762,1,8,0:0:0:0:
236,232,25925,1,8,0:0:0:0:
260,68,26088,1,8,0:0:0:0:
227,87,26169,1,8,0:0:0:0:
190,97,26251,1,8,0:0:0:0:
152,95,26332,1,8,0:0:0:0:
116,87,26417,6,0,P|132:152|136:188,1,76.5000014591217,12|0,0:0|0:0,0:0:0:0:
140,256,26741,1,0,0:0:0:0:
296,180,26904,1,0,0:0:0:0:
286,196,26985,1,0,0:0:0:0:
276,216,27067,2,0,B|312:180|312:180|344:168|372:164,1,76.5000014591217
408,84,27393,1,8,0:0:0:0:
440,216,27556,1,8,0:0:0:0:
312,76,27719,6,0,B|268:40|268:40|184:36,1,114.750002188683
180,52,28045,2,0,P|176:104|180:144,1,76.5000014591217
280,240,28371,2,0,P|284:188|280:148,1,76.5000014591217
180,280,28697,2,0,P|176:332|180:372,1,76.5000014591217
204,200,29023,5,12,0:0:0:0:
256,324,29186,2,0,B|292:340|292:340|340:316,1,76.5000014591217,8|0,0:0|0:0,0:0:0:0:
400,184,29512,1,8,0:0:0:0:
384,195,29593,1,8,0:0:0:0:
368,208,29675,2,0,B|384:172|384:172|380:124,1,76.5000014591217,8|0,0:0|0:0,0:0:0:0:
244,32,30001,2,0,B|244:71|244:71|268:113,1,76.5000014591217
204,196,30327,6,0,B|136:112|136:112|144:136|136:168,1,153.000002918243
64,240,30817,1,0,0:0:0:0:
212,332,30980,2,0,P|264:324|304:304,1,76.5000014591217
344,217,31306,2,0,B|312:285|312:285|276:325,1,114.750002188683
285,314,31632,5,12,0:0:0:0:
376,152,31795,1,8,0:0:0:0:
376,152,31958,2,0,L|348:56,1,76.5000014591217
216,20,32284,2,0,L|244:116,1,76.5000014591217
300,24,32610,1,8,0:0:0:0:
144,76,32773,1,8,0:0:0:0:
104,268,32936,6,0,P|108:220|104:156,1,76.5000014591217
284,256,33262,2,0,P|280:304|284:368,1,76.5000014591217
128,244,33588,2,0,P|132:196|128:132,1,76.5000014591217
308,232,33914,2,0,P|304:280|308:344,1,76.5000014591217
244,168,34241,6,0,P|296:140|380:176,1,153.000002918243,4|0,0:0|0:0,0:0:0:0:
392,260,34730,1,0,0:0:0:0:
464,136,34893,2,0,L|460:52,1,76.5000014591217
308,140,35219,2,0,L|312:224,1,76.5000014591217
216,71,35545,6,0,P|244:46|279:30,1,76.5000014591217,8|0,0:0|0:0,0:0:0:0:
212,172,35871,1,8,0:0:0:0:
408,256,36034,1,8,0:0:0:0:
152,248,36360,5,8,0:0:0:0:
468,168,36523,1,8,0:0:0:0:
352,264,36849,5,0,0:0:0:0:
208,148,37012,1,0,0:0:0:0:
176,328,37175,1,0,0:0:0:0:
320,168,37338,1,0,0:0:0:0:
104,112,37501,5,0,0:0:0:0:
240,248,37664,1,0,0:0:0:0:
284,68,37827,1,0,0:0:0:0:
128,224,37991,1,0,0:0:0:0:
344,268,38154,5,0,0:0:0:0:
320,168,38317,1,0,0:0:0:0:
212,148,38480,1,0,0:0:0:0:
168,160,38806,5,0,0:0:0:0:
299,135,38969,1,0,0:0:0:0:
431,111,39132,2,0,B|412:192|412:192|380:240,1,114.750002188683,2|0,0:0|0:0,0:0:0:0:
320,208,39458,6,0,P|380:264|364:356,1,180,12|8,0:0|0:0,0:0:0:0:
296,292,39947,1,0,0:0:0:0:
208,168,40110,2,0,P|236:120|280:100,1,90,8|0,0:0|0:0,0:0:0:0:
376,116,40436,1,8,0:0:0:0:
296,292,40599,1,0,0:0:0:0:
140,240,40762,6,0,P|112:192|128:136,1,90,8|0,0:0|0:0,0:0:0:0:
264,103,41088,1,8,0:0:0:0:
296,292,41251,1,0,0:0:0:0:
172,60,41414,2,0,P|200:24|252:8,1,90,8|0,0:0|0:0,0:0:0:0:
340,28,41741,1,8,0:0:0:0:
420,160,41904,6,0,P|384:228|272:264,1,180
124,276,42393,1,8,0:0:0:0:
264,103,42556,1,0,0:0:0:0:
240,336,42719,1,8,0:0:0:0:
56,200,42882,1,0,0:0:0:0:
188,40,43045,2,0,P|222:11|266:4,1,90,8|0,0:0|0:0,0:0:0:0:
276,200,43371,6,0,P|231:196|195:170,1,90,8|0,0:0|0:0,0:0:0:0:
264,104,43697,1,8,0:0:0:0:
464,48,43860,1,0,0:0:0:0:
408,248,44023,1,8,0:0:0:0:
336,36,44186,1,0,0:0:0:0:
512,184,44349,1,8,0:0:0:0:
292,256,44512,1,0,0:0:0:0:
352,56,44675,6,0,P|367:97|359:141,1,90,8|0,0:0|0:0,0:0:0:0:
174,114,45001,2,0,L|274:102,1,90,8|0,0:0|0:0,0:0:0:0:
152,284,45327,2,0,L|52:296,1,90,8|0,0:0|0:0,0:0:0:0:
104,196,45654,1,8,0:0:0:0:
216,352,45817,1,0,0:0:0:0:
16,184,45980,6,0,P|44:132|96:112,1,90,8|0,0:0|0:0,0:0:0:0:
316,36,46306,2,0,P|288:88|236:108,1,90,8|0,0:0|0:0,0:0:0:0:
224,108,46550,1,0,0:0:0:0:
184,96,46632,1,8,0:0:0:0:
108,28,46795,1,0,0:0:0:0:
262,102,46958,1,8,0:0:0:0:
112,216,47121,1,0,0:0:0:0:
268,20,47284,6,0,P|330:57|353:117,1,135,8|0,0:0|0:0,0:0:0:0:
354,160,47610,6,0,B|380:140|389:117|389:117|411:103|411:103|425:68|459:34,1,135,8|0,0:0|0:0,0:0:0:0:
504,98,47936,2,0,B|481:131|469:157|469:157|447:171|447:171|431:209|379:233,1,155.250002961159,12|0,0:0|0:0,0:0:0:0:
321,242,48262,6,0,P|391:269|430:328,1,135,8|0,0:0|0:0,0:0:0:0:
380,324,48588,1,8,0:0:0:0:
367,324,48669,1,0,0:0:0:0:
354,327,48751,1,0,0:0:0:0:
343,333,48832,1,0,0:0:0:0:
332,340,48914,5,8,0:0:0:0:
292,336,48996,1,0,0:0:0:0:
256,316,49077,1,0,0:0:0:0:
236,280,49159,1,0,0:0:0:0:
232,240,49241,5,8,0:0:0:0:
244,200,49322,1,0,0:0:0:0:
224,164,49404,1,0,0:0:0:0:
184,160,49485,1,0,0:0:0:0:
156,188,49567,1,8,0:0:0:0:
164,228,49648,1,0,0:0:0:0:
144,264,49730,1,0,0:0:0:0:
104,276,49811,1,0,0:0:0:0:
68,272,49893,6,0,P|56:340|72:376,1,76.5000014591217,8|0,0:0|0:0,0:0:0:0:
220,200,50382,1,8,0:0:0:0:
230,215,50463,1,8,0:0:0:0:
240,228,50545,2,0,B|248:184|248:184|272:140,1,76.5000014591217,8|0,0:0|0:0,0:0:0:0:
312,80,50871,1,0,0:0:0:0:
88,24,51034,6,0,P|144:64|232:80,1,153.000002918243,4|0,0:0|0:0,0:0:0:0:
96,164,51523,2,0,P|100:112|112:80,1,76.5000014591217
220,224,51849,2,0,P|216:276|204:308,1,76.5000014591217
128,248,52175,1,0,0:0:0:0:
128,248,52338,1,0,0:0:0:0:
244,96,52501,6,0,P|312:124|348:204,1,153.000002918243,4|0,0:0|0:0,0:0:0:0:
176,160,52991,1,8,0:0:0:0:
164,128,53072,1,8,0:0:0:0:
160,92,53154,2,0,P|176:48|216:20,1,76.5000014591217,8|0,0:0|0:0,0:0:0:0:
284,16,53480,1,0,0:0:0:0:
347,191,53643,6,0,B|315:263|315:263|253:303,1,153.000002918243,4|0,0:0|0:0,0:0:0:0:
136,304,54132,2,0,L|140:200,1,76.5000014591217
91,96,54458,2,0,L|179:100,1,76.5000014591217
176,108,54784,1,0,0:0:0:0:
176,108,55110,6,0,B|265:123|265:123|353:99,1,153.000002918243,4|0,0:0|0:0,0:0:0:0:
344,196,55599,1,8,0:0:0:0:
326,203,55680,1,8,0:0:0:0:
308,209,55762,1,8,0:0:0:0:
212,240,55925,1,0,0:0:0:0:
368,188,56088,1,0,0:0:0:0:
132,192,56251,6,0,P|116:252|184:336,1,153.000002918243,4|0,0:0|0:0,0:0:0:0:
216,148,56741,1,0,0:0:0:0:
136,96,56904,1,0,0:0:0:0:
304,52,57067,2,0,L|316:24,3,25.5000004863739
332,144,57393,1,0,0:0:0:0:
420,96,57556,1,0,0:0:0:0:
268,216,57719,6,0,P|316:232|420:172,1,153.000002918243,4|0,0:0|0:0,0:0:0:0:
332,144,58208,1,8,0:0:0:0:
199,250,58371,2,0,L|287:206,2,76.5000014591217,8|0|0,0:0|0:0|0:0,0:0:0:0:
331,143,58860,6,0,P|368:208|354:282,1,153.000002918243,4|0,0:0|0:0,0:0:0:0:
144,328,59349,2,0,P|104:264|104:232,1,76.5000014591217,4|8,0:0|0:0,0:0:0:0:
160,90,59675,1,8,0:0:0:0:
200,248,59838,1,0,0:0:0:0:
304,136,60001,1,8,0:0:0:0:
240,336,60164,1,0,0:0:0:0:
220,136,60327,6,0,P|176:96|128:88,1,76.5000014591217,12|0,0:0|0:0,0:0:0:0:
304,72,60654,5,8,0:0:0:0:
260,240,60817,1,0,0:0:0:0:
424,184,60980,1,8,0:0:0:0:
220,136,61143,1,0,0:0:0:0:
264,364,61306,5,8,0:0:0:0:
316,156,61469,1,0,0:0:0:0:
100,232,61632,1,8,0:0:0:0:
336,280,61795,1,0,0:0:0:0:
284,52,61958,5,8,0:0:0:0:
220,256,62121,1,0,0:0:0:0:
156,96,62284,2,0,P|152:48|164:4,1,76.5000014591217,8|0,0:0|0:0,0:0:0:0:
337,204,62610,2,0,P|341:252|329:296,1,76.5000014591217,8|0,0:0|0:0,0:0:0:0:
248,168,62936,5,8,0:0:0:0:
360,112,63099,1,0,0:0:0:0:
264,48,63262,1,8,0:0:0:0:
336,204,63425,1,0,0:0:0:0:
444,60,63588,5,8,0:0:0:0:
248,168,63751,1,0,0:0:0:0:
476,280,63914,1,8,0:0:0:0:
360,112,64077,1,0,0:0:0:0:
160,216,64241,5,8,0:0:0:0:
400,244,64404,1,0,0:0:0:0:
308,20,64567,1,8,0:0:0:0:
272,288,64730,1,0,0:0:0:0:
176,76,64893,5,8,0:0:0:0:
64,276,65056,1,0,0:0:0:0:
280,148,65219,2,0,L|220:116,1,38.2500007295609,8|0,0:0|0:0,0:0:0:0:
64,36,65382,2,0,L|84:88,1,38.2500007295609,8|0,0:0|0:0,0:0:0:0:
176,252,65545,5,12,0:0:0:0:
296,304,65708,1,0,0:0:0:0:
360,136,65871,2,0,L|268:188,1,76.5000014591217
168,128,66197,1,0,0:0:0:0:
320,48,66360,2,0,P|392:48|452:132,1,153.000002918243
424,240,66849,5,0,0:0:0:0:
232,128,67012,1,0,0:0:0:0:
260,324,67175,1,0,0:0:0:0:
348,144,67338,1,0,0:0:0:0:
132,120,67501,2,0,P|72:112|20:108,1,76.5000014591217
184,314,67827,2,0,P|244:322|296:326,1,76.5000014591217
341,67,68154,6,0,L|349:163,2,76.5000014591217,4|2|0,0:0|0:0|0:0,0:0:0:0:
464,80,68643,1,0,0:0:0:0:
316,52,68806,1,2,0:0:0:0:
356,192,68969,1,0,0:0:0:0:
384,112,69132,1,0,0:0:0:0:
240,152,69295,1,0,0:0:0:0:
316,276,69458,6,0,P|345:330|357:354,1,76.5000014591217
172,296,69784,2,0,P|143:242|131:218,1,76.5000014591217
120,80,70110,1,0,0:0:0:0:
184,136,70273,1,0,0:0:0:0:
64,16,70436,2,0,P|36:60|43:137,1,114.750002188683
184,136,70762,6,0,L|216:52,1,76.5000014591217,4|0,0:0|0:0,0:0:0:0:
332,152,71088,1,2,0:0:0:0:
240,272,71251,1,0,0:0:0:0:
184,136,71414,1,0,0:0:0:0:
332,56,71577,5,2,0:0:0:0:
448,252,71741,1,0,0:0:0:0:
240,272,71904,1,0,0:0:0:0:
412,104,72067,2,0,P|448:68|484:48,1,76.5000014591217
505,202,72393,2,0,P|469:238|433:258,1,76.5000014591217
328,276,72719,1,2,0:0:0:0:
368,168,72882,1,0,0:0:0:0:
184,112,73045,1,2,0:0:0:0:
232,216,73208,1,0,0:0:0:0:
264,72,73371,6,0,P|240:40|205:23,1,76.5000014591217
16,88,73697,2,0,P|40:120|74:136,1,76.5000014591217,4|0,0:0|0:0,0:0:0:0:
116,48,74023,1,2,0:0:0:0:
160,180,74186,2,0,L|192:268,1,76.5000014591217,0|0,0:0|0:0,0:0:0:0:
164,336,74512,1,0,0:0:0:0:
296,256,74675,5,4,0:0:0:0:
320,241,74756,1,0,0:0:0:0:
343,224,74838,1,0,0:0:0:0:
363,203,74919,1,0,0:0:0:0:
376,184,75001,5,0,0:0:0:0:
371,146,75082,1,0,0:0:0:0:
348,116,75164,1,0,0:0:0:0:
312,104,75245,1,0,0:0:0:0:
276,113,75327,1,0,0:0:0:0:
252,142,75408,1,0,0:0:0:0:
249,180,75490,1,0,0:0:0:0:
267,213,75571,1,0,0:0:0:0:
300,232,75654,6,0,L|356:256,1,38.2500007295609,8|0,0:0|0:0,0:0:0:0:
346,86,75817,2,0,L|294:114,1,38.2500007295609,8|0,0:0|0:0,0:0:0:0:
208,188,75980,5,12,0:0:0:0:
256,192,76061,12,0,81197,0:0:0:0:
