osu file format v14

[General]
AudioFilename: audio.mp3
AudioLeadIn: 0
PreviewTime: 61131
Countdown: 0
SampleSet: Normal
StackLeniency: 0.7
Mode: 1
LetterboxInBreaks: 0
WidescreenStoryboard: 1

[Editor]
DistanceSpacing: 1
BeatDivisor: 4
GridSize: 32
TimelineZoom: 2.999999

[Metadata]
Title:Skrik
TitleUnicode:Skrik
Artist:Chicala Lpis
ArtistUnicode:Chicala Lpis
Creator:Capu
Version:Stingy's Futsuu
Source:
Tags:electronic instrumental video game give up treatment vol. volume 5 muse dash trap choir cinematic coryn stingy
BeatmapID:2358280
BeatmapSetID:1128817

[Difficulty]
HPDrainRate:7
CircleSize:2
OverallDifficulty:4
ApproachRate:10
SliderMultiplier:1.4
SliderTickRate:1

[Events]
//Background and Video events
0,0,"1247124.jpg",0,-60
//Break Periods
//Storyboard Layer 0 (Background)
//Storyboard Layer 1 (Fail)
//Storyboard Layer 2 (Pass)
//Storyboard Layer 3 (Foreground)
//Storyboard Layer 4 (Overlay)
//Storyboard Sound Samples

[TimingPoints]
1185,300,4,1,0,70,1,0
1185,-100,4,1,0,70,0,0
2085,-100,4,1,0,40,0,0
5685,-100,4,1,0,70,0,0
6885,-100,4,1,0,40,0,0
10635,-100,4,1,0,70,0,0
13185,-100,4,1,0,70,0,0
27585,-100,4,1,0,70,0,0
32985,-100,4,1,0,40,0,0
41985,-100,4,1,0,70,0,0
80385,-100,4,1,0,70,0,1
93585,-100,4,1,0,70,0,0
94785,-100,4,1,0,70,0,1
99585,-100,4,1,0,70,0,0
109785,-100,4,1,0,40,0,0
113985,-100,4,1,0,90,0,0

[HitObjects]
256,192,1185,5,12,0:0:0:0:
256,192,1485,1,12,0:0:0:0:
256,192,2385,1,0,0:0:0:0:
256,192,2985,1,8,0:0:0:0:
256,192,3585,1,0,0:0:0:0:
256,192,4185,1,0,0:0:0:0:
256,192,4785,1,8,0:0:0:0:
256,192,5385,1,0,0:0:0:0:
256,192,5985,1,8,0:0:0:0:
256,192,6285,1,8,0:0:0:0:
256,192,7185,1,8,0:0:0:0:
256,192,7785,1,0,0:0:0:0:
256,192,8385,12,0,10485,0:0:0:0:
256,192,10785,5,4,0:0:0:0:
256,192,13185,1,4,0:0:0:0:
256,192,13485,1,0,0:0:0:0:
256,192,13785,1,0,0:0:0:0:
256,192,14385,1,0,0:0:0:0:
256,192,14685,1,8,0:0:0:0:
256,192,14835,1,8,0:0:0:0:
256,192,15135,1,0,0:0:0:0:
256,192,15435,1,8,0:0:0:0:
256,192,15585,1,0,0:0:0:0:
256,192,15885,1,0,0:0:0:0:
256,192,16185,1,0,0:0:0:0:
256,192,16785,1,8,0:0:0:0:
256,192,16935,1,8,0:0:0:0:
256,192,17385,1,0,0:0:0:0:
256,192,17685,1,8,0:0:0:0:
256,192,17985,1,0,0:0:0:0:
256,192,18285,1,0,0:0:0:0:
256,192,18585,1,0,0:0:0:0:
256,192,19185,1,0,0:0:0:0:
256,192,19485,1,8,0:0:0:0:
256,192,19635,1,8,0:0:0:0:
256,192,19935,1,0,0:0:0:0:
256,192,20235,1,8,0:0:0:0:
256,192,20385,1,0,0:0:0:0:
256,192,20685,1,0,0:0:0:0:
256,192,20985,1,0,0:0:0:0:
256,192,21585,1,8,0:0:0:0:
256,192,21735,1,8,0:0:0:0:
256,192,22035,1,8,0:0:0:0:
256,192,22335,1,8,0:0:0:0:
256,192,22635,1,8,0:0:0:0:
256,192,22785,1,4,0:0:0:0:
256,192,23085,1,0,0:0:0:0:
256,192,23385,1,0,0:0:0:0:
256,192,23985,1,8,0:0:0:0:
256,192,24285,1,0,0:0:0:0:
256,192,24585,1,8,0:0:0:0:
256,192,24885,1,0,0:0:0:0:
256,192,25035,1,0,0:0:0:0:
256,192,25185,1,0,0:0:0:0:
256,192,27585,1,4,0:0:0:0:
256,192,27885,1,0,0:0:0:0:
256,192,28185,1,0,0:0:0:0:
256,192,28785,1,12,0:0:0:0:
256,192,29085,1,8,0:0:0:0:
256,192,29385,1,0,0:0:0:0:
256,192,29535,1,0,0:0:0:0:
256,192,29835,1,0,0:0:0:0:
256,192,29985,1,12,0:0:0:0:
256,192,30585,1,12,0:0:0:0:
256,192,31185,1,12,0:0:0:0:
256,192,31485,1,12,0:0:0:0:
256,192,31785,1,12,0:0:0:0:
256,192,32085,1,12,0:0:0:0:
256,192,32385,1,0,0:0:0:0:
256,192,33585,1,0,0:0:0:0:
256,192,34185,1,8,0:0:0:0:
256,192,34785,1,0,0:0:0:0:
256,192,35385,1,0,0:0:0:0:
256,192,35985,1,8,0:0:0:0:
256,192,36585,1,0,0:0:0:0:
256,192,37185,1,8,0:0:0:0:
256,192,37485,1,8,0:0:0:0:
256,192,38385,1,8,0:0:0:0:
256,192,38985,1,0,0:0:0:0:
256,192,39585,12,0,41685,0:0:0:0:
256,192,41985,5,4,0:0:0:0:
256,192,42285,1,0,0:0:0:0:
256,192,42585,1,8,0:0:0:0:
256,192,42735,1,0,0:0:0:0:
256,192,43185,1,8,0:0:0:0:
256,192,43335,1,0,0:0:0:0:
256,192,43635,1,8,0:0:0:0:
256,192,44385,1,0,0:0:0:0:
256,192,44685,1,0,0:0:0:0:
256,192,44985,1,8,0:0:0:0:
256,192,45135,1,0,0:0:0:0:
256,192,45585,1,8,0:0:0:0:
256,192,45735,1,8,0:0:0:0:
256,192,46035,1,8,0:0:0:0:
256,192,46335,1,8,0:0:0:0:
256,192,46635,1,8,0:0:0:0:
256,192,46785,1,0,0:0:0:0:
256,192,47085,1,0,0:0:0:0:
256,192,47385,1,8,0:0:0:0:
256,192,47535,1,0,0:0:0:0:
256,192,47985,1,8,0:0:0:0:
256,192,48135,1,0,0:0:0:0:
256,192,48435,1,8,0:0:0:0:
256,192,49185,1,0,0:0:0:0:
256,192,49485,1,0,0:0:0:0:
256,192,49785,1,8,0:0:0:0:
256,192,49935,1,0,0:0:0:0:
256,192,50385,1,8,0:0:0:0:
256,192,50535,1,0,0:0:0:0:
256,192,50685,1,8,0:0:0:0:
256,192,50985,1,0,0:0:0:0:
256,192,51285,1,8,0:0:0:0:
256,192,51585,1,4,0:0:0:0:
256,192,52185,1,8,0:0:0:0:
256,192,52635,1,0,0:0:0:0:
256,192,53085,1,0,0:0:0:0:
256,192,53385,1,8,0:0:0:0:
256,192,53835,1,0,0:0:0:0:
256,192,53985,1,0,0:0:0:0:
256,192,54435,1,0,0:0:0:0:
256,192,54585,1,8,0:0:0:0:
256,192,55035,1,0,0:0:0:0:
256,192,55485,1,0,0:0:0:0:
256,192,55785,1,8,0:0:0:0:
256,192,56085,1,0,0:0:0:0:
256,192,56385,1,4,0:0:0:0:
256,192,56985,1,8,0:0:0:0:
256,192,57285,1,0,0:0:0:0:
256,192,57585,1,4,0:0:0:0:
256,192,58185,1,8,0:0:0:0:
256,192,58485,1,8,0:0:0:0:
256,192,58785,1,4,0:0:0:0:
256,192,59385,1,0,0:0:0:0:
256,192,59985,1,12,0:0:0:0:
256,192,61185,1,4,0:0:0:0:
256,192,61785,1,8,0:0:0:0:
256,192,62235,1,0,0:0:0:0:
256,192,62685,1,0,0:0:0:0:
256,192,62985,1,8,0:0:0:0:
256,192,63435,1,0,0:0:0:0:
256,192,63585,1,0,0:0:0:0:
256,192,64035,1,0,0:0:0:0:
256,192,64185,1,8,0:0:0:0:
256,192,64635,1,8,0:0:0:0:
256,192,64785,1,0,0:0:0:0:
256,192,65085,1,0,0:0:0:0:
256,192,65385,1,8,0:0:0:0:
256,192,65535,1,0,0:0:0:0:
256,192,65985,1,4,0:0:0:0:
256,192,66585,1,8,0:0:0:0:
256,192,67035,1,0,0:0:0:0:
256,192,67485,1,0,0:0:0:0:
256,192,67785,1,8,0:0:0:0:
256,192,68235,1,0,0:0:0:0:
256,192,68385,1,0,0:0:0:0:
256,192,68835,1,0,0:0:0:0:
256,192,68985,1,8,0:0:0:0:
256,192,69135,1,0,0:0:0:0:
256,192,69435,1,0,0:0:0:0:
256,192,69585,1,0,0:0:0:0:
256,192,69885,1,0,0:0:0:0:
256,192,70185,1,0,0:0:0:0:
256,192,70785,1,4,0:0:0:0:
256,192,71085,1,8,0:0:0:0:
256,192,71535,1,0,0:0:0:0:
256,192,71685,1,8,0:0:0:0:
256,192,71985,1,0,0:0:0:0:
256,192,72285,1,8,0:0:0:0:
256,192,72735,1,0,0:0:0:0:
256,192,72885,1,8,0:0:0:0:
256,192,73185,1,0,0:0:0:0:
256,192,73485,1,8,0:0:0:0:
256,192,73935,1,0,0:0:0:0:
256,192,74085,1,8,0:0:0:0:
256,192,74385,1,0,0:0:0:0:
256,192,74685,1,8,0:0:0:0:
256,192,74835,1,0,0:0:0:0:
256,192,74985,1,0,0:0:0:0:
256,192,75285,1,8,0:0:0:0:
256,192,75585,1,0,0:0:0:0:
256,192,75885,1,8,0:0:0:0:
256,192,76335,1,0,0:0:0:0:
256,192,76485,1,8,0:0:0:0:
256,192,76635,1,0,0:0:0:0:
256,192,76785,1,0,0:0:0:0:
256,192,77085,1,8,0:0:0:0:
256,192,77535,1,0,0:0:0:0:
256,192,77685,1,8,0:0:0:0:
256,192,77835,1,8,0:0:0:0:
256,192,77985,1,0,0:0:0:0:
256,192,80385,1,4,0:0:0:0:
256,192,80835,1,8,0:0:0:0:
256,192,80985,1,0,0:0:0:0:
256,192,81285,1,0,0:0:0:0:
256,192,81585,1,8,0:0:0:0:
256,192,81885,1,0,0:0:0:0:
256,192,82185,1,8,0:0:0:0:
256,192,82785,1,0,0:0:0:0:
256,192,83235,1,8,0:0:0:0:
256,192,83385,1,0,0:0:0:0:
256,192,83685,1,0,0:0:0:0:
256,192,83835,1,0,0:0:0:0:
256,192,83985,1,12,0:0:0:0:
256,192,84285,1,12,0:0:0:0:
256,192,84585,1,12,0:0:0:0:
256,192,85185,1,4,0:0:0:0:
256,192,85635,1,8,0:0:0:0:
256,192,85785,1,0,0:0:0:0:
256,192,86085,1,0,0:0:0:0:
256,192,86385,1,8,0:0:0:0:
256,192,86685,1,0,0:0:0:0:
256,192,86985,1,8,0:0:0:0:
256,192,87285,1,8,0:0:0:0:
256,192,87585,1,4,0:0:0:0:
256,192,88185,1,4,0:0:0:0:
256,192,88785,1,4,0:0:0:0:
256,192,89385,1,0,0:0:0:0:
256,192,89535,1,0,0:0:0:0:
256,192,89685,1,0,0:0:0:0:
256,192,89985,1,4,0:0:0:0:
256,192,90435,1,0,0:0:0:0:
256,192,90585,1,8,0:0:0:0:
256,192,90885,1,0,0:0:0:0:
256,192,91185,1,8,0:0:0:0:
256,192,91485,1,0,0:0:0:0:
256,192,91785,1,8,0:0:0:0:
256,192,92385,1,0,0:0:0:0:
256,192,92835,1,0,0:0:0:0:
256,192,92985,1,8,0:0:0:0:
256,192,93285,1,0,0:0:0:0:
256,192,93435,1,0,0:0:0:0:
256,192,93585,1,12,0:0:0:0:
256,192,94035,1,12,0:0:0:0:
256,192,94485,1,12,0:0:0:0:
256,192,94785,1,4,0:0:0:0:
256,192,95085,1,0,0:0:0:0:
256,192,95385,1,8,0:0:0:0:
256,192,95685,1,0,0:0:0:0:
256,192,95985,1,12,0:0:0:0:
256,192,96285,1,0,0:0:0:0:
256,192,96585,1,8,0:0:0:0:
256,192,97185,1,4,0:0:0:0:
256,192,97785,1,4,0:0:0:0:
256,192,98385,1,8,0:0:0:0:
256,192,98685,1,8,0:0:0:0:
256,192,98985,1,8,0:0:0:0:
256,192,99285,1,8,0:0:0:0:
256,192,99585,1,4,0:0:0:0:
256,192,100185,1,8,0:0:0:0:
256,192,100335,1,0,0:0:0:0:
256,192,100635,1,0,0:0:0:0:
256,192,100785,1,0,0:0:0:0:
256,192,101385,1,8,0:0:0:0:
256,192,101535,1,0,0:0:0:0:
256,192,101985,1,0,0:0:0:0:
256,192,102585,1,8,0:0:0:0:
256,192,102735,1,0,0:0:0:0:
256,192,103185,1,0,0:0:0:0:
256,192,103335,1,0,0:0:0:0:
256,192,103635,1,0,0:0:0:0:
256,192,103785,1,8,0:0:0:0:
256,192,104085,1,0,0:0:0:0:
256,192,104385,5,4,0:0:0:0:
256,192,104985,1,8,0:0:0:0:
256,192,105135,1,0,0:0:0:0:
256,192,105585,1,0,0:0:0:0:
256,192,105885,1,0,0:0:0:0:
256,192,106185,1,8,0:0:0:0:
256,192,106335,1,0,0:0:0:0:
256,192,106785,1,8,0:0:0:0:
256,192,107085,1,0,0:0:0:0:
256,192,107385,1,8,0:0:0:0:
256,192,107535,1,0,0:0:0:0:
256,192,107985,1,8,0:0:0:0:
256,192,108585,1,8,0:0:0:0:
256,192,109185,1,0,0:0:0:0:
256,192,110385,1,0,0:0:0:0:
256,192,111585,1,0,0:0:0:0:
256,192,112785,1,0,0:0:0:0:
256,192,113385,1,0,0:0:0:0:
256,192,113685,1,0,0:0:0:0:
256,192,113985,5,12,0:0:0:0:
256,192,114135,1,0,0:0:0:0:
256,192,114435,1,12,0:0:0:0:
256,192,114585,1,0,0:0:0:0:
256,192,114885,1,12,0:0:0:0:
256,192,115185,1,0,0:0:0:0:
256,192,115335,1,0,0:0:0:0:
256,192,115485,1,12,0:0:0:0:
256,192,115785,1,12,0:0:0:0:
256,192,116085,1,12,0:0:0:0:
256,192,116385,1,0,0:0:0:0:
