osu file format v14

[General]
AudioFilename: audio.mp3
AudioLeadIn: 0
PreviewTime: 61131
Countdown: 0
SampleSet: Normal
StackLeniency: 0.7
Mode: 1
LetterboxInBreaks: 0
WidescreenStoryboard: 1

[Editor]
DistanceSpacing: 1.1
BeatDivisor: 4
GridSize: 32
TimelineZoom: 3.499999

[Metadata]
Title:Skrik
TitleUnicode:Skrik
Artist:Chicala Lpis
ArtistUnicode:Chicala Lpis
Creator:Capu
Version:Oni
Source:
Tags:electronic instrumental video game give up treatment vol. volume 5 muse dash trap choir cinematic coryn stingy
BeatmapID:2358279
BeatmapSetID:1128817

[Difficulty]
HPDrainRate:5.5
CircleSize:2
OverallDifficulty:6
ApproachRate:10
SliderMultiplier:1.4
SliderTickRate:1

[Events]
//Background and Video events
0,0,"1247124.jpg",0,-60
//Break Periods
//Storyboard Layer 0 (Background)
//Storyboard Layer 1 (Fail)
//Storyboard Layer 2 (Pass)
//Storyboard Layer 3 (Foreground)
//Storyboard Layer 4 (Overlay)
//Storyboard Sound Samples

[TimingPoints]
1185,300,4,1,0,100,1,0
1705,-125,4,1,0,45,0,0
5905,-100,4,1,0,80,0,0
6505,-125,4,1,0,45,0,0
10705,-50,4,1,0,100,0,0
13105,-100,4,1,0,70,0,0
13183,-100,4,1,0,70,0,0
13185,-100,4,1,0,70,0,1
21583,-86.9565217391304,4,1,0,70,0,1
21585,-86.9565217391304,4,1,0,70,0,0
21733,-90.9090909090909,4,1,0,70,0,0
22033,-95.2380952380952,4,1,0,70,0,0
22333,-100,4,1,0,70,0,0
22633,-105.263157894737,4,1,0,70,0,0
22783,-100,4,1,0,70,0,0
22785,-100,4,1,0,70,0,1
25183,-100,4,1,0,70,0,1
25185,-100,4,1,0,70,0,0
27583,-100,4,1,0,70,0,0
27585,-100,4,1,0,70,0,1
29533,-100,4,1,0,70,0,1
29535,-100,4,1,0,70,0,0
29983,-100,4,1,0,70,0,0
29985,-100,4,1,0,70,0,1
32383,-100,4,1,0,70,0,1
32385,-100,4,1,0,70,0,0
32610,-100,4,1,0,45,0,0
41835,-90.9090909090909,4,1,0,70,0,0
51583,-93.0232558139535,4,1,0,70,0,0
51733,-95.2380952380952,4,1,0,70,0,0
52183,-100,4,1,0,70,0,0
56083,-99.009900990099,4,1,0,70,0,0
56120,-98.0392156862745,4,1,0,70,0,0
56233,-96.1538461538461,4,1,0,70,0,0
56283,-94.3396226415094,4,1,0,70,0,0
56333,-92.5925925925926,4,1,0,70,0,0
56383,-90.9090909090909,4,1,0,70,0,0
60883,-96.8054211035818,4,1,0,70,0,0
61183,-100,4,1,0,70,0,0
70783,-90.9090909090909,4,1,0,70,0,0
70785,-90.9090909090909,4,1,0,70,0,1
77983,-90.9090909090909,4,1,0,70,0,1
77985,-90.9090909090909,4,1,0,70,0,0
80383,-83.3333333333333,4,1,0,70,0,0
80385,-83.3333333333333,4,1,0,70,0,1
99583,-83.3333333333333,4,1,0,70,0,1
99585,-83.3333333333333,4,1,0,70,0,0
99883,-90.9090909090909,4,1,0,70,0,0
109485,-90.9090909090909,4,1,0,25,0,0
113908,-76.9230769230769,4,1,0,95,0,0
113985,-76.9230769230769,4,1,0,95,0,1
116383,-76.9230769230769,4,1,0,95,0,1
116385,-76.9230769230769,4,1,0,95,0,0

[HitObjects]
256,192,1185,5,12,0:0:0:0:
256,192,1485,1,12,0:0:0:0:
256,192,1785,1,0,0:0:0:0:
256,192,2085,1,0,0:0:0:0:
256,192,2385,1,8,0:0:0:0:
256,192,2685,1,8,0:0:0:0:
256,192,2985,1,0,0:0:0:0:
256,192,3285,1,8,0:0:0:0:
256,192,3585,1,0,0:0:0:0:
256,192,3885,1,0,0:0:0:0:
256,192,4185,1,8,0:0:0:0:
256,192,4485,1,8,0:0:0:0:
256,192,4785,1,0,0:0:0:0:
256,192,5085,1,0,0:0:0:0:
256,192,5385,1,8,0:0:0:0:
256,192,5685,1,0,0:0:0:0:
256,192,5985,1,12,0:0:0:0:
256,192,6285,1,12,0:0:0:0:
256,192,6585,1,0,0:0:0:0:
256,192,6885,1,8,0:0:0:0:
256,192,7185,1,8,0:0:0:0:
256,192,7485,1,0,0:0:0:0:
256,192,7785,1,8,0:0:0:0:
256,192,8085,1,0,0:0:0:0:
256,192,8385,1,0,0:0:0:0:
256,192,8685,1,8,0:0:0:0:
256,192,8985,1,8,0:0:0:0:
256,192,9285,1,0,0:0:0:0:
256,192,9585,1,8,0:0:0:0:
256,192,9885,1,0,0:0:0:0:
256,192,10185,1,0,0:0:0:0:
256,192,10485,1,8,0:0:0:0:
256,192,10785,2,4,L|160:192,28,70
256,192,13185,1,4,0:0:0:0:
256,192,13335,1,8,0:0:0:0:
256,192,13410,1,0,0:0:0:0:
256,192,13485,1,8,0:0:0:0:
256,192,13560,1,8,0:0:0:0:
256,192,13635,1,8,0:0:0:0:
256,192,13785,1,0,0:0:0:0:
256,192,13935,1,8,0:0:0:0:
256,192,14085,1,0,0:0:0:0:
256,192,14160,1,0,0:0:0:0:
256,192,14235,1,8,0:0:0:0:
256,192,14385,1,8,0:0:0:0:
256,192,14460,1,8,0:0:0:0:
256,192,14535,1,8,0:0:0:0:
256,192,14685,1,0,0:0:0:0:
256,192,14835,1,0,0:0:0:0:
256,192,14985,1,8,0:0:0:0:
256,192,15060,1,8,0:0:0:0:
256,192,15135,1,0,0:0:0:0:
256,192,15435,1,8,0:0:0:0:
256,192,15585,1,0,0:0:0:0:
256,192,15735,1,8,0:0:0:0:
256,192,15810,1,8,0:0:0:0:
256,192,15885,1,0,0:0:0:0:
256,192,15960,1,0,0:0:0:0:
256,192,16035,1,0,0:0:0:0:
256,192,16185,1,8,0:0:0:0:
256,192,16285,1,0,0:0:0:0:
256,192,16385,1,0,0:0:0:0:
256,192,16485,1,8,0:0:0:0:
256,192,16635,1,0,0:0:0:0:
256,192,16785,1,8,0:0:0:0:
256,192,16935,1,0,0:0:0:0:
256,192,17085,1,8,0:0:0:0:
256,192,17160,1,8,0:0:0:0:
256,192,17235,1,0,0:0:0:0:
256,192,17310,1,0,0:0:0:0:
256,192,17385,1,8,0:0:0:0:
256,192,17535,1,8,0:0:0:0:
256,192,17835,1,0,0:0:0:0:
256,192,17985,1,8,0:0:0:0:
256,192,18135,1,0,0:0:0:0:
256,192,18210,1,0,0:0:0:0:
256,192,18285,1,8,0:0:0:0:
256,192,18360,1,8,0:0:0:0:
256,192,18435,1,0,0:0:0:0:
256,192,18585,1,8,0:0:0:0:
256,192,18735,1,0,0:0:0:0:
256,192,18810,1,8,0:0:0:0:
256,192,18885,1,0,0:0:0:0:
256,192,19035,1,0,0:0:0:0:
256,192,19185,1,8,0:0:0:0:
256,192,19260,1,8,0:0:0:0:
256,192,19335,1,8,0:0:0:0:
256,192,19485,1,0,0:0:0:0:
256,192,19635,1,0,0:0:0:0:
256,192,19785,1,8,0:0:0:0:
256,192,19860,1,8,0:0:0:0:
256,192,19935,1,0,0:0:0:0:
256,192,20235,1,8,0:0:0:0:
256,192,20385,1,0,0:0:0:0:
256,192,20535,1,8,0:0:0:0:
256,192,20610,1,0,0:0:0:0:
256,192,20685,1,8,0:0:0:0:
256,192,20760,1,0,0:0:0:0:
256,192,20835,1,8,0:0:0:0:
256,192,20985,1,8,0:0:0:0:
256,192,21085,1,8,0:0:0:0:
256,192,21185,1,8,0:0:0:0:
256,192,21285,1,0,0:0:0:0:
256,192,21435,1,8,0:0:0:0:
256,192,21585,1,4,0:0:0:0:
256,192,21735,1,4,0:0:0:0:
256,192,22035,1,4,0:0:0:0:
256,192,22335,1,4,0:0:0:0:
256,192,22635,1,4,0:0:0:0:
256,192,22785,1,12,0:0:0:0:
256,192,22935,1,0,0:0:0:0:
256,192,23010,1,0,0:0:0:0:
256,192,23085,1,8,0:0:0:0:
256,192,23160,1,8,0:0:0:0:
256,192,23235,1,8,0:0:0:0:
256,192,23385,1,0,0:0:0:0:
256,192,23535,1,8,0:0:0:0:
256,192,23610,1,8,0:0:0:0:
256,192,23685,1,0,0:0:0:0:
256,192,23835,1,8,0:0:0:0:
256,192,23985,1,8,0:0:0:0:
256,192,24060,1,8,0:0:0:0:
256,192,24135,1,8,0:0:0:0:
256,192,24285,1,0,0:0:0:0:
256,192,24435,1,0,0:0:0:0:
256,192,24585,1,8,0:0:0:0:
256,192,24660,1,8,0:0:0:0:
256,192,24735,1,0,0:0:0:0:
256,192,24885,1,0,0:0:0:0:
256,192,25035,1,0,0:0:0:0:
256,192,25185,1,12,0:0:0:0:
256,192,27585,1,4,0:0:0:0:
256,192,27735,1,8,0:0:0:0:
256,192,27810,1,8,0:0:0:0:
256,192,27885,1,0,0:0:0:0:
256,192,27960,1,0,0:0:0:0:
256,192,28035,1,0,0:0:0:0:
256,192,28185,1,8,0:0:0:0:
256,192,28335,1,0,0:0:0:0:
256,192,28410,1,8,0:0:0:0:
256,192,28485,1,0,0:0:0:0:
256,192,28635,1,0,0:0:0:0:
256,192,28785,1,8,0:0:0:0:
256,192,28860,1,8,0:0:0:0:
256,192,28935,1,8,0:0:0:0:
256,192,29085,1,0,0:0:0:0:
256,192,29235,1,0,0:0:0:0:
256,192,29385,1,8,0:0:0:0:
256,192,29460,1,8,0:0:0:0:
256,192,29535,1,0,0:0:0:0:
256,192,29835,1,0,0:0:0:0:
256,192,29985,1,12,0:0:0:0:
256,192,30135,1,0,0:0:0:0:
256,192,30285,1,8,0:0:0:0:
256,192,30435,1,0,0:0:0:0:
256,192,30510,1,0,0:0:0:0:
256,192,30585,1,8,0:0:0:0:
256,192,30735,1,0,0:0:0:0:
256,192,30885,1,8,0:0:0:0:
256,192,30960,1,8,0:0:0:0:
256,192,31035,1,0,0:0:0:0:
256,192,31185,1,8,0:0:0:0:
256,192,31335,1,0,0:0:0:0:
256,192,31410,1,0,0:0:0:0:
256,192,31485,1,8,0:0:0:0:
256,192,31635,1,0,0:0:0:0:
256,192,31785,1,8,0:0:0:0:
256,192,31860,1,8,0:0:0:0:
256,192,31935,1,0,0:0:0:0:
256,192,32010,1,0,0:0:0:0:
256,192,32085,1,8,0:0:0:0:
256,192,32160,1,8,0:0:0:0:
256,192,32235,1,0,0:0:0:0:
256,192,32385,1,0,0:0:0:0:
256,192,32685,1,0,0:0:0:0:
256,192,32985,1,8,0:0:0:0:
256,192,33285,1,8,0:0:0:0:
256,192,33585,1,0,0:0:0:0:
256,192,33885,1,8,0:0:0:0:
256,192,34185,1,0,0:0:0:0:
256,192,34485,1,0,0:0:0:0:
256,192,34785,1,8,0:0:0:0:
256,192,35085,1,8,0:0:0:0:
256,192,35385,1,8,0:0:0:0:
256,192,35685,1,0,0:0:0:0:
256,192,35985,1,8,0:0:0:0:
256,192,36285,1,0,0:0:0:0:
256,192,36585,1,8,0:0:0:0:
256,192,36885,1,0,0:0:0:0:
256,192,37185,1,8,0:0:0:0:
256,192,37485,1,8,0:0:0:0:
256,192,37785,1,0,0:0:0:0:
256,192,38085,1,8,0:0:0:0:
256,192,38385,1,0,0:0:0:0:
256,192,38685,1,0,0:0:0:0:
256,192,38985,1,8,0:0:0:0:
256,192,39285,1,8,0:0:0:0:
256,192,39585,1,0,0:0:0:0:
256,192,39885,1,8,0:0:0:0:
256,192,40185,1,0,0:0:0:0:
256,192,40485,1,0,0:0:0:0:
256,192,40785,1,8,0:0:0:0:
256,192,41085,1,8,0:0:0:0:
256,192,41385,1,0,0:0:0:0:
256,192,41985,1,12,0:0:0:0:
256,192,42135,1,0,0:0:0:0:
256,192,42285,1,8,0:0:0:0:
256,192,42435,1,0,0:0:0:0:
256,192,42510,1,0,0:0:0:0:
256,192,42585,1,8,0:0:0:0:
256,192,42735,1,8,0:0:0:0:
256,192,42885,1,0,0:0:0:0:
256,192,43035,1,8,0:0:0:0:
256,192,43110,1,0,0:0:0:0:
256,192,43185,1,8,0:0:0:0:
256,192,43335,1,8,0:0:0:0:
256,192,43485,1,0,0:0:0:0:
256,192,43635,1,8,0:0:0:0:
256,192,43785,1,0,0:0:0:0:
256,192,43935,1,8,0:0:0:0:
256,192,44010,1,8,0:0:0:0:
256,192,44085,1,0,0:0:0:0:
256,192,44160,1,0,0:0:0:0:
256,192,44235,1,8,0:0:0:0:
256,192,44385,1,8,0:0:0:0:
256,192,44535,1,0,0:0:0:0:
256,192,44685,1,8,0:0:0:0:
256,192,44835,1,0,0:0:0:0:
256,192,44910,1,0,0:0:0:0:
256,192,44985,1,8,0:0:0:0:
256,192,45135,1,8,0:0:0:0:
256,192,45285,1,0,0:0:0:0:
256,192,45435,1,8,0:0:0:0:
256,192,45585,1,12,0:0:0:0:
256,192,45735,1,12,0:0:0:0:
256,192,46035,1,4,0:0:0:0:
256,192,46335,1,4,0:0:0:0:
256,192,46635,1,12,0:0:0:0:
256,192,46785,1,4,0:0:0:0:
256,192,47085,1,8,0:0:0:0:
256,192,47235,1,0,0:0:0:0:
256,192,47310,1,0,0:0:0:0:
256,192,47385,1,8,0:0:0:0:
256,192,47535,1,8,0:0:0:0:
256,192,47685,1,0,0:0:0:0:
256,192,47835,1,8,0:0:0:0:
256,192,47910,1,0,0:0:0:0:
256,192,47985,1,8,0:0:0:0:
256,192,48135,1,8,0:0:0:0:
256,192,48285,1,0,0:0:0:0:
256,192,48435,1,8,0:0:0:0:
256,192,48585,1,0,0:0:0:0:
256,192,48735,1,8,0:0:0:0:
256,192,48810,1,8,0:0:0:0:
256,192,48885,1,0,0:0:0:0:
256,192,48960,1,0,0:0:0:0:
256,192,49035,1,8,0:0:0:0:
256,192,49185,1,0,0:0:0:0:
256,192,49335,1,0,0:0:0:0:
256,192,49485,1,8,0:0:0:0:
256,192,49635,1,0,0:0:0:0:
256,192,49710,1,0,0:0:0:0:
256,192,49785,1,8,0:0:0:0:
256,192,49935,1,8,0:0:0:0:
256,192,50085,1,0,0:0:0:0:
256,192,50235,1,8,0:0:0:0:
256,192,50310,1,0,0:0:0:0:
256,192,50385,1,8,0:0:0:0:
256,192,50535,1,0,0:0:0:0:
256,192,50685,1,8,0:0:0:0:
256,192,50835,1,0,0:0:0:0:
256,192,50985,1,12,0:0:0:0:
256,192,51135,1,8,0:0:0:0:
256,192,51285,1,12,0:0:0:0:
256,192,51435,1,0,0:0:0:0:
256,192,51585,1,12,0:0:0:0:
256,192,51735,1,0,0:0:0:0:
256,192,52185,1,8,0:0:0:0:
256,192,52635,1,0,0:0:0:0:
256,192,52935,1,8,0:0:0:0:
256,192,53010,1,8,0:0:0:0:
256,192,53085,1,8,0:0:0:0:
256,192,53160,1,0,0:0:0:0:
256,192,53235,1,0,0:0:0:0:
256,192,53385,1,8,0:0:0:0:
256,192,53535,1,0,0:0:0:0:
256,192,53685,1,0,0:0:0:0:
256,192,53835,1,0,0:0:0:0:
256,192,53910,1,0,0:0:0:0:
256,192,53985,1,0,0:0:0:0:
256,192,54285,1,8,0:0:0:0:
256,192,54435,1,0,0:0:0:0:
256,192,54585,1,8,0:0:0:0:
256,192,54735,1,0,0:0:0:0:
256,192,55035,1,8,0:0:0:0:
256,192,55185,1,0,0:0:0:0:
256,192,55285,1,0,0:0:0:0:
256,192,55385,1,0,0:0:0:0:
256,192,55485,1,0,0:0:0:0:
256,192,55585,1,0,0:0:0:0:
256,192,55685,1,0,0:0:0:0:
256,192,55785,1,8,0:0:0:0:
256,192,55935,1,0,0:0:0:0:
256,192,56085,1,8,0:0:0:0:
256,192,56235,1,0,0:0:0:0:
256,192,56310,1,0,0:0:0:0:
256,192,56385,1,12,0:0:0:0:
256,192,56685,1,8,0:0:0:0:
256,192,56835,1,0,0:0:0:0:
256,192,56985,1,8,0:0:0:0:
256,192,57060,1,8,0:0:0:0:
256,192,57135,1,0,0:0:0:0:
256,192,57285,1,0,0:0:0:0:
256,192,57435,1,8,0:0:0:0:
256,192,57510,1,0,0:0:0:0:
256,192,57585,1,8,0:0:0:0:
256,192,57735,1,8,0:0:0:0:
256,192,57885,1,0,0:0:0:0:
256,192,58035,1,8,0:0:0:0:
256,192,58185,1,0,0:0:0:0:
256,192,58335,1,8,0:0:0:0:
256,192,58410,1,8,0:0:0:0:
256,192,58485,1,0,0:0:0:0:
256,192,58560,1,0,0:0:0:0:
256,192,58635,1,8,0:0:0:0:
256,192,58785,1,8,0:0:0:0:
256,192,58935,1,0,0:0:0:0:
256,192,59085,1,8,0:0:0:0:
256,192,59235,1,0,0:0:0:0:
256,192,59385,1,8,0:0:0:0:
256,192,59460,1,8,0:0:0:0:
256,192,59535,1,0,0:0:0:0:
256,192,59610,1,0,0:0:0:0:
256,192,59685,1,8,0:0:0:0:
256,192,59835,1,0,0:0:0:0:
256,192,59985,1,12,0:0:0:0:
256,192,60135,1,0,0:0:0:0:
256,192,60285,1,8,0:0:0:0:
256,192,60435,1,8,0:0:0:0:
256,192,60585,1,0,0:0:0:0:
256,192,60885,1,8,0:0:0:0:
256,192,61185,1,4,0:0:0:0:
256,192,61485,1,8,0:0:0:0:
256,192,61635,1,0,0:0:0:0:
256,192,61710,1,8,0:0:0:0:
256,192,61785,1,8,0:0:0:0:
256,192,61935,1,0,0:0:0:0:
256,192,62085,1,8,0:0:0:0:
256,192,62235,1,0,0:0:0:0:
256,192,62385,1,8,0:0:0:0:
224,160,62535,1,8,0:0:0:0:
256,192,62685,1,0,0:0:0:0:
256,192,62835,1,8,0:0:0:0:
256,192,62910,1,8,0:0:0:0:
256,192,62985,1,0,0:0:0:0:
256,192,63135,1,0,0:0:0:0:
256,192,63285,1,8,0:0:0:0:
256,192,63435,1,0,0:0:0:0:
256,192,63510,1,8,0:0:0:0:
256,192,63585,1,0,0:0:0:0:
256,192,63885,1,8,0:0:0:0:
256,192,64035,1,0,0:0:0:0:
256,192,64110,1,0,0:0:0:0:
256,192,64185,1,8,0:0:0:0:
256,192,64335,1,0,0:0:0:0:
256,192,64485,1,8,0:0:0:0:
256,192,64635,1,8,0:0:0:0:
256,192,64785,1,0,0:0:0:0:
256,192,64935,1,8,0:0:0:0:
256,192,65085,1,8,0:0:0:0:
256,192,65235,1,0,0:0:0:0:
256,192,65385,1,8,0:0:0:0:
256,192,65460,1,0,0:0:0:0:
256,192,65535,1,0,0:0:0:0:
256,192,65610,1,0,0:0:0:0:
256,192,65685,1,8,0:0:0:0:
256,192,65985,1,4,0:0:0:0:
256,192,66285,1,8,0:0:0:0:
256,192,66435,1,0,0:0:0:0:
256,192,66510,1,8,0:0:0:0:
256,192,66585,1,8,0:0:0:0:
256,192,66735,1,0,0:0:0:0:
256,192,66885,1,8,0:0:0:0:
256,192,67035,1,0,0:0:0:0:
256,192,67185,1,8,0:0:0:0:
256,192,67335,1,8,0:0:0:0:
256,192,67485,1,0,0:0:0:0:
256,192,67635,1,8,0:0:0:0:
256,192,67785,1,8,0:0:0:0:
256,192,67935,1,8,0:0:0:0:
256,192,68085,1,0,0:0:0:0:
256,192,68235,1,8,0:0:0:0:
256,192,68385,1,0,0:0:0:0:
256,192,68685,1,8,0:0:0:0:
256,192,68835,1,0,0:0:0:0:
256,192,68910,1,0,0:0:0:0:
256,192,68985,1,8,0:0:0:0:
256,192,69135,1,0,0:0:0:0:
256,192,69285,1,8,0:0:0:0:
256,192,69435,1,0,0:0:0:0:
256,192,69510,1,0,0:0:0:0:
256,192,69585,1,8,0:0:0:0:
256,192,69735,1,8,0:0:0:0:
256,192,69885,1,8,0:0:0:0:
256,192,70035,1,8,0:0:0:0:
256,192,70185,1,0,0:0:0:0:
256,192,70785,1,12,0:0:0:0:
256,192,71085,1,8,0:0:0:0:
256,192,71235,1,0,0:0:0:0:
256,192,71310,1,8,0:0:0:0:
256,192,71385,1,8,0:0:0:0:
256,192,71535,1,0,0:0:0:0:
256,192,71685,1,8,0:0:0:0:
256,192,71835,1,8,0:0:0:0:
256,192,71985,1,0,0:0:0:0:
256,192,72135,1,8,0:0:0:0:
256,192,72285,1,0,0:0:0:0:
256,192,72360,1,8,0:0:0:0:
256,192,72435,1,8,0:0:0:0:
256,192,72510,1,0,0:0:0:0:
256,192,72585,1,8,0:0:0:0:
256,192,72735,1,0,0:0:0:0:
256,192,72885,1,8,0:0:0:0:
256,192,72960,1,0,0:0:0:0:
256,192,73035,1,0,0:0:0:0:
256,192,73110,1,8,0:0:0:0:
256,192,73185,1,0,0:0:0:0:
256,192,73485,1,8,0:0:0:0:
256,192,73635,1,8,0:0:0:0:
256,192,73710,1,8,0:0:0:0:
256,192,73785,1,8,0:0:0:0:
256,192,73935,1,0,0:0:0:0:
256,192,74085,1,8,0:0:0:0:
256,192,74235,1,0,0:0:0:0:
256,192,74385,1,8,0:0:0:0:
256,192,74485,1,0,0:0:0:0:
256,192,74585,1,0,0:0:0:0:
256,192,74685,1,8,0:0:0:0:
256,192,74835,1,0,0:0:0:0:
256,192,74985,1,8,0:0:0:0:
256,192,75060,1,8,0:0:0:0:
256,192,75135,1,0,0:0:0:0:
256,192,75210,1,0,0:0:0:0:
256,192,75285,1,8,0:0:0:0:
256,192,75585,1,4,0:0:0:0:
256,192,75885,1,8,0:0:0:0:
256,192,76035,1,8,0:0:0:0:
256,192,76110,1,0,0:0:0:0:
256,192,76185,1,8,0:0:0:0:
256,192,76335,1,0,0:0:0:0:
256,192,76485,1,8,0:0:0:0:
256,192,76635,1,0,0:0:0:0:
256,192,76785,1,8,0:0:0:0:
256,192,76935,1,8,0:0:0:0:
256,192,77085,1,0,0:0:0:0:
256,192,77235,1,8,0:0:0:0:
256,192,77310,1,0,0:0:0:0:
256,192,77460,1,8,0:0:0:0:
256,192,77535,1,0,0:0:0:0:
256,192,77685,1,8,0:0:0:0:
256,192,77760,1,8,0:0:0:0:
256,192,77835,1,8,0:0:0:0:
256,192,77910,1,8,0:0:0:0:
256,192,77985,1,0,0:0:0:0:
256,192,79785,12,8,80235,0:0:0:0:
256,192,80385,5,4,0:0:0:0:
256,192,80535,1,8,0:0:0:0:
256,192,80685,1,0,0:0:0:0:
256,192,80835,1,8,0:0:0:0:
256,192,80910,1,8,0:0:0:0:
256,192,80985,1,0,0:0:0:0:
256,192,81135,1,0,0:0:0:0:
256,192,81285,1,8,0:0:0:0:
256,192,81360,1,0,0:0:0:0:
256,192,81435,1,8,0:0:0:0:
256,192,81585,1,8,0:0:0:0:
256,192,81735,1,0,0:0:0:0:
256,192,81810,1,8,0:0:0:0:
256,192,81960,1,8,0:0:0:0:
256,192,82035,1,0,0:0:0:0:
256,192,82185,1,8,0:0:0:0:
256,192,82335,1,0,0:0:0:0:
256,192,82485,1,8,0:0:0:0:
256,192,82560,1,8,0:0:0:0:
256,192,82635,1,0,0:0:0:0:
256,192,82710,1,0,0:0:0:0:
256,192,82785,1,8,0:0:0:0:
256,192,83010,1,0,0:0:0:0:
256,192,83235,1,0,0:0:0:0:
256,192,83310,1,0,0:0:0:0:
256,192,83385,1,8,0:0:0:0:
256,192,83535,1,0,0:0:0:0:
256,192,83685,1,8,0:0:0:0:
256,192,83760,1,0,0:0:0:0:
256,192,83835,1,8,0:0:0:0:
256,192,83985,1,4,0:0:0:0:
256,192,84285,1,12,0:0:0:0:
256,192,84585,1,12,0:0:0:0:
256,192,84885,1,0,0:0:0:0:
256,192,84960,1,0,0:0:0:0:
256,192,85035,1,0,0:0:0:0:
256,192,85110,1,0,0:0:0:0:
256,192,85185,1,12,0:0:0:0:
256,192,85410,1,0,0:0:0:0:
256,192,85635,1,0,0:0:0:0:
256,192,85710,1,0,0:0:0:0:
256,192,85785,1,8,0:0:0:0:
256,192,85935,1,0,0:0:0:0:
256,192,86085,1,8,0:0:0:0:
224,192,86160,1,0,0:0:0:0:
256,192,86235,1,0,0:0:0:0:
256,192,86385,1,8,0:0:0:0:
256,192,86460,1,8,0:0:0:0:
256,192,86535,1,0,0:0:0:0:
256,192,86610,1,0,0:0:0:0:
256,192,86685,1,8,0:0:0:0:
256,192,86835,1,0,0:0:0:0:
256,192,86985,1,8,0:0:0:0:
256,192,87060,1,8,0:0:0:0:
256,192,87135,1,0,0:0:0:0:
256,192,87285,1,8,0:0:0:0:
256,192,87360,1,0,0:0:0:0:
256,192,87435,1,0,0:0:0:0:
256,192,87510,1,0,0:0:0:0:
256,192,87585,1,8,0:0:0:0:
256,192,87810,1,0,0:0:0:0:
256,192,88035,1,0,0:0:0:0:
256,192,88185,1,8,0:0:0:0:
256,192,88410,1,0,0:0:0:0:
256,192,88560,1,0,0:0:0:0:
256,192,88635,1,8,0:0:0:0:
256,192,88710,1,0,0:0:0:0:
256,192,88785,1,8,0:0:0:0:
256,192,88935,1,0,0:0:0:0:
256,192,89010,1,0,0:0:0:0:
256,192,89085,1,8,0:0:0:0:
256,192,89235,1,0,0:0:0:0:
256,192,89385,1,8,0:0:0:0:
256,192,89535,1,8,0:0:0:0:
256,192,89685,1,0,0:0:0:0:
256,192,89835,1,8,0:0:0:0:
256,192,89910,1,8,0:0:0:0:
256,192,89985,1,4,0:0:0:0:
256,192,90285,1,0,0:0:0:0:
256,192,90435,1,0,0:0:0:0:
256,192,90510,1,0,0:0:0:0:
256,192,90585,1,8,0:0:0:0:
256,192,90735,1,0,0:0:0:0:
256,192,90885,1,8,0:0:0:0:
256,192,90960,1,0,0:0:0:0:
256,192,91034,1,0,0:0:0:0:
256,192,91184,1,8,0:0:0:0:
256,192,91334,1,8,0:0:0:0:
256,192,91409,1,0,0:0:0:0:
256,192,91559,1,0,0:0:0:0:
256,192,91634,1,8,0:0:0:0:
256,192,91784,1,0,0:0:0:0:
256,192,91934,1,0,0:0:0:0:
256,192,92084,1,8,0:0:0:0:
256,192,92159,1,8,0:0:0:0:
256,192,92234,1,0,0:0:0:0:
256,192,92309,1,0,0:0:0:0:
256,192,92384,1,8,0:0:0:0:
256,192,92610,1,8,0:0:0:0:
256,192,92834,1,0,0:0:0:0:
256,192,92909,1,8,0:0:0:0:
256,192,92984,1,0,0:0:0:0:
256,192,93134,1,8,0:0:0:0:
256,192,93210,1,0,0:0:0:0:
256,192,93284,1,8,0:0:0:0:
256,192,93434,1,0,0:0:0:0:
256,192,93584,1,4,0:0:0:0:
256,192,93809,1,12,0:0:0:0:
256,192,94034,1,12,0:0:0:0:
256,192,94259,1,4,0:0:0:0:
256,192,94484,1,8,0:0:0:0:
256,192,94784,1,4,0:0:0:0:
256,192,94934,1,0,0:0:0:0:
256,192,95009,1,0,0:0:0:0:
256,192,95084,1,8,0:0:0:0:
256,192,95234,1,0,0:0:0:0:
256,192,95384,1,8,0:0:0:0:
256,192,95459,1,0,0:0:0:0:
256,192,95534,1,0,0:0:0:0:
256,192,95609,1,0,0:0:0:0:
256,192,95684,1,8,0:0:0:0:
256,192,95834,1,0,0:0:0:0:
256,192,95984,1,8,0:0:0:0:
256,192,96134,1,0,0:0:0:0:
256,192,96209,1,0,0:0:0:0:
256,192,96284,1,8,0:0:0:0:
256,192,96434,1,8,0:0:0:0:
256,192,96584,1,0,0:0:0:0:
256,192,96659,1,8,0:0:0:0:
256,192,96734,1,8,0:0:0:0:
256,192,96809,1,0,0:0:0:0:
256,192,96884,1,8,0:0:0:0:
256,192,97034,1,0,0:0:0:0:
256,192,97184,1,8,0:0:0:0:
256,192,97259,1,0,0:0:0:0:
256,192,97334,1,8,0:0:0:0:
256,192,97484,1,0,0:0:0:0:
256,192,97559,1,8,0:0:0:0:
256,192,97634,1,0,0:0:0:0:
256,192,97709,1,0,0:0:0:0:
256,192,97784,1,8,0:0:0:0:
256,192,97934,1,8,0:0:0:0:
256,192,98009,1,8,0:0:0:0:
256,192,98084,1,0,0:0:0:0:
256,192,98159,1,0,0:0:0:0:
256,192,98234,1,0,0:0:0:0:
256,192,98384,1,12,0:0:0:0:
256,192,98684,1,12,0:0:0:0:
256,192,98984,1,12,0:0:0:0:
256,192,99284,1,12,0:0:0:0:
256,192,99584,1,4,0:0:0:0:
256,192,100034,1,0,0:0:0:0:
256,192,100184,1,8,0:0:0:0:
256,192,100334,1,0,0:0:0:0:
256,192,100409,1,0,0:0:0:0:
256,192,100484,1,8,0:0:0:0:
256,192,100634,1,8,0:0:0:0:
256,192,100784,1,0,0:0:0:0:
256,192,101084,1,0,0:0:0:0:
256,192,101234,1,0,0:0:0:0:
256,192,101384,1,8,0:0:0:0:
256,192,101534,1,0,0:0:0:0:
256,192,101609,1,0,0:0:0:0:
256,192,101684,1,8,0:0:0:0:
256,192,101834,1,0,0:0:0:0:
256,192,101909,1,8,0:0:0:0:
256,192,101984,1,0,0:0:0:0:
256,192,102284,1,0,0:0:0:0:
256,192,102434,1,0,0:0:0:0:
256,192,102584,1,8,0:0:0:0:
256,192,102734,1,8,0:0:0:0:
256,192,102884,1,0,0:0:0:0:
256,192,103034,1,8,0:0:0:0:
256,192,103184,1,0,0:0:0:0:
256,192,103259,1,0,0:0:0:0:
256,192,103334,1,0,0:0:0:0:
256,192,103484,1,8,0:0:0:0:
256,192,103634,1,0,0:0:0:0:
256,192,103784,1,8,0:0:0:0:
256,192,103934,1,0,0:0:0:0:
256,192,104009,1,0,0:0:0:0:
256,192,104084,1,8,0:0:0:0:
256,192,104384,1,12,0:0:0:0:
256,192,104534,1,0,0:0:0:0:
256,192,104684,1,0,0:0:0:0:
256,192,104834,1,0,0:0:0:0:
256,192,104984,1,8,0:0:0:0:
256,192,105134,1,8,0:0:0:0:
256,192,105284,1,0,0:0:0:0:
256,192,105359,1,0,0:0:0:0:
256,192,105434,1,8,0:0:0:0:
256,192,105584,1,0,0:0:0:0:
256,192,105734,1,0,0:0:0:0:
256,192,105884,1,8,0:0:0:0:
256,192,106034,1,0,0:0:0:0:
256,192,106184,1,8,0:0:0:0:
256,192,106334,1,8,0:0:0:0:
256,192,106484,1,0,0:0:0:0:
256,192,106559,1,0,0:0:0:0:
256,192,106634,1,8,0:0:0:0:
256,192,106709,1,0,0:0:0:0:
256,192,106784,1,8,0:0:0:0:
256,192,106934,1,0,0:0:0:0:
256,192,107084,1,8,0:0:0:0:
256,192,107234,1,0,0:0:0:0:
256,192,107384,1,8,0:0:0:0:
256,192,107534,1,8,0:0:0:0:
256,192,107684,1,0,0:0:0:0:
256,192,107834,1,0,0:0:0:0:
256,192,107984,1,8,0:0:0:0:
256,192,108059,1,8,0:0:0:0:
256,192,108134,1,0,0:0:0:0:
256,192,108209,1,0,0:0:0:0:
256,192,108284,1,8,0:0:0:0:
256,192,108434,1,0,0:0:0:0:
256,192,108584,1,8,0:0:0:0:
256,192,108659,1,0,0:0:0:0:
256,192,108734,1,0,0:0:0:0:
256,192,108809,1,0,0:0:0:0:
256,192,108884,1,8,0:0:0:0:
256,192,109034,1,8,0:0:0:0:
256,192,109184,1,0,0:0:0:0:
256,192,109484,1,0,0:0:0:0:
256,192,109784,1,8,0:0:0:0:
256,192,110084,1,0,0:0:0:0:
256,192,110384,1,0,0:0:0:0:
256,192,110684,1,0,0:0:0:0:
256,192,110984,1,8,0:0:0:0:
256,192,111284,1,0,0:0:0:0:
256,192,111584,1,0,0:0:0:0:
256,192,111884,1,0,0:0:0:0:
256,192,112184,1,8,0:0:0:0:
256,192,112484,1,0,0:0:0:0:
256,192,112784,1,0,0:0:0:0:
256,192,113084,1,0,0:0:0:0:
256,192,113384,1,8,0:0:0:0:
256,192,113684,1,0,0:0:0:0:
256,192,113984,1,8,0:0:0:0:
256,192,114059,1,0,0:0:0:0:
256,192,114134,1,8,0:0:0:0:
256,192,114209,1,8,0:0:0:0:
256,192,114284,1,0,0:0:0:0:
256,192,114434,1,8,0:0:0:0:
256,192,114509,1,8,0:0:0:0:
256,192,114584,1,0,0:0:0:0:
256,192,114659,1,0,0:0:0:0:
256,192,114734,1,8,0:0:0:0:
256,192,114884,1,0,0:0:0:0:
256,192,115034,1,8,0:0:0:0:
256,192,115109,1,0,0:0:0:0:
256,192,115184,1,8,0:0:0:0:
256,192,115334,1,8,0:0:0:0:
256,192,115484,1,0,0:0:0:0:
256,192,115559,1,8,0:0:0:0:
256,192,115709,1,8,0:0:0:0:
256,192,115784,1,0,0:0:0:0:
256,192,115859,1,0,0:0:0:0:
256,192,115934,1,8,0:0:0:0:
256,192,116084,1,0,0:0:0:0:
256,192,116159,1,0,0:0:0:0:
256,192,116234,1,8,0:0:0:0:
256,192,116309,1,8,0:0:0:0:
256,192,116384,1,0,0:0:0:0:
