osu file format v14

[General]
AudioFilename: audio.mp3
AudioLeadIn: 0
PreviewTime: 61131
Countdown: 0
SampleSet: Normal
StackLeniency: 0.7
Mode: 1
LetterboxInBreaks: 0
WidescreenStoryboard: 1

[Editor]
DistanceSpacing: 1.1
BeatDivisor: 4
GridSize: 32
TimelineZoom: 3.499999

[Metadata]
Title:Skrik
TitleUnicode:Skrik
Artist:Chicala Lpis
ArtistUnicode:Chicala Lpis
Creator:Capu
Version:Muzukashii
Source:
Tags:electronic instrumental video game give up treatment vol. volume 5 muse dash trap choir cinematic coryn stingy
BeatmapID:2358278
BeatmapSetID:1128817

[Difficulty]
HPDrainRate:6.5
CircleSize:2
OverallDifficulty:5
ApproachRate:10
SliderMultiplier:1.4
SliderTickRate:1

[Events]
//Background and Video events
0,0,"1247124.jpg",0,-60
//Break Periods
//Storyboard Layer 0 (Background)
//Storyboard Layer 1 (Fail)
//Storyboard Layer 2 (Pass)
//Storyboard Layer 3 (Foreground)
//Storyboard Layer 4 (Overlay)
//Storyboard Sound Samples

[TimingPoints]
1185,300,4,1,0,100,1,0
1705,-125,4,1,0,45,0,0
5905,-100,4,1,0,80,0,0
6505,-125,4,1,0,45,0,0
10705,-66.6666666666667,4,1,0,100,0,0
13105,-100,4,1,0,70,0,0
13183,-100,4,1,0,70,0,0
13185,-100,4,1,0,70,0,1
21583,-100,4,1,0,70,0,1
21585,-100,4,1,0,70,0,0
21733,-100,4,1,0,70,0,0
22033,-100,4,1,0,70,0,0
22333,-100,4,1,0,70,0,0
22633,-100,4,1,0,70,0,0
22783,-100,4,1,0,70,0,0
22785,-100,4,1,0,70,0,1
25183,-100,4,1,0,70,0,1
25185,-100,4,1,0,70,0,0
27583,-100,4,1,0,70,0,0
27585,-100,4,1,0,70,0,1
29533,-100,4,1,0,70,0,1
29535,-100,4,1,0,70,0,0
29983,-100,4,1,0,70,0,0
29985,-100,4,1,0,70,0,1
32383,-100,4,1,0,70,0,1
32385,-100,4,1,0,70,0,0
32610,-100,4,1,0,45,0,0
41910,-100,4,1,0,70,0,0
51583,-100,4,1,0,70,0,0
51733,-100,4,1,0,70,0,0
52183,-100,4,1,0,70,0,0
56083,-100,4,1,0,70,0,0
56120,-100,4,1,0,70,0,0
56233,-100,4,1,0,70,0,0
56283,-100,4,1,0,70,0,0
56333,-100,4,1,0,70,0,0
56383,-100,4,1,0,70,0,0
60583,-100,4,1,0,70,0,0
60883,-100,4,1,0,70,0,0
61183,-100,4,1,0,70,0,0
70783,-100,4,1,0,70,0,0
70785,-100,4,1,0,70,0,1
77983,-100,4,1,0,70,0,1
77985,-100,4,1,0,70,0,0
80383,-100,4,1,0,70,0,0
80385,-100,4,1,0,70,0,1
99583,-100,4,1,0,70,0,1
99585,-100,4,1,0,70,0,0
99883,-100,4,1,0,70,0,0
109485,-100,4,1,0,25,0,0
113908,-100,4,1,0,95,0,0
113985,-100,4,1,0,95,0,1
116383,-100,4,1,0,95,0,1
116385,-100,4,1,0,95,0,0

[HitObjects]
256,192,1185,5,12,0:0:0:0:
256,192,1485,1,12,0:0:0:0:
256,192,1785,1,0,0:0:0:0:
256,192,2085,1,0,0:0:0:0:
256,192,2385,1,8,0:0:0:0:
256,192,2985,1,0,0:0:0:0:
256,192,3285,1,8,0:0:0:0:
256,192,3585,1,8,0:0:0:0:
256,192,3885,1,0,0:0:0:0:
256,192,4185,1,8,0:0:0:0:
256,192,4785,1,0,0:0:0:0:
256,192,5385,1,8,0:0:0:0:
256,192,5985,1,12,0:0:0:0:
256,192,6285,1,12,0:0:0:0:
256,192,6585,1,0,0:0:0:0:
256,192,6885,1,0,0:0:0:0:
256,192,7185,1,8,0:0:0:0:
256,192,7785,1,0,0:0:0:0:
256,192,8085,1,8,0:0:0:0:
256,192,8385,1,8,0:0:0:0:
256,192,8685,1,0,0:0:0:0:
256,192,8985,1,0,0:0:0:0:
256,192,9585,1,8,0:0:0:0:
256,192,10185,1,0,0:0:0:0:
256,192,10485,1,8,0:0:0:0:
256,192,10785,2,4,L|128:192,14,105.000004005432
256,192,13185,1,4,0:0:0:0:
256,192,13485,1,8,0:0:0:0:
256,192,13635,1,0,0:0:0:0:
256,192,13785,1,0,0:0:0:0:
256,192,14085,1,0,0:0:0:0:
256,192,14385,1,8,0:0:0:0:
256,192,14460,1,8,0:0:0:0:
256,192,14535,1,8,0:0:0:0:
256,192,14685,1,0,0:0:0:0:
256,192,14985,1,8,0:0:0:0:
256,192,15135,1,0,0:0:0:0:
256,192,15435,1,0,0:0:0:0:
256,192,15585,1,8,0:0:0:0:
256,192,15885,1,0,0:0:0:0:
256,192,16035,1,0,0:0:0:0:
256,192,16185,1,8,0:0:0:0:
256,192,16485,1,0,0:0:0:0:
256,192,16785,1,8,0:0:0:0:
256,192,16935,1,8,0:0:0:0:
256,192,17085,1,0,0:0:0:0:
256,192,17385,1,8,0:0:0:0:
256,192,17460,1,8,0:0:0:0:
256,192,17535,1,8,0:0:0:0:
256,192,17685,1,0,0:0:0:0:
256,192,18135,1,8,0:0:0:0:
256,192,18435,1,0,0:0:0:0:
256,192,18585,1,0,0:0:0:0:
256,192,18735,1,8,0:0:0:0:
256,192,18885,1,0,0:0:0:0:
256,192,19185,1,8,0:0:0:0:
256,192,19260,1,8,0:0:0:0:
256,192,19335,1,8,0:0:0:0:
256,192,19485,1,0,0:0:0:0:
256,192,19785,1,8,0:0:0:0:
256,192,19935,1,0,0:0:0:0:
256,192,20235,1,0,0:0:0:0:
256,192,20385,1,8,0:0:0:0:
256,192,20685,1,0,0:0:0:0:
256,192,20985,1,8,0:0:0:0:
256,192,21285,1,8,0:0:0:0:
256,192,21435,1,0,0:0:0:0:
256,192,21585,1,12,0:0:0:0:
256,192,21735,1,12,0:0:0:0:
256,192,22035,1,4,0:0:0:0:
256,192,22335,1,4,0:0:0:0:
256,192,22635,1,4,0:0:0:0:
256,192,22785,1,12,0:0:0:0:
256,192,23085,1,8,0:0:0:0:
256,192,23235,1,0,0:0:0:0:
256,192,23385,1,0,0:0:0:0:
256,192,23685,1,0,0:0:0:0:
256,192,23985,1,8,0:0:0:0:
256,192,24060,1,8,0:0:0:0:
256,192,24135,1,8,0:0:0:0:
256,192,24285,1,0,0:0:0:0:
256,192,24585,1,8,0:0:0:0:
256,192,24735,1,0,0:0:0:0:
256,192,25035,1,0,0:0:0:0:
256,192,25185,1,8,0:0:0:0:
256,192,27585,1,4,0:0:0:0:
256,192,27885,1,8,0:0:0:0:
256,192,28035,1,0,0:0:0:0:
256,192,28185,1,0,0:0:0:0:
256,192,28485,1,0,0:0:0:0:
256,192,28785,1,8,0:0:0:0:
256,192,28860,1,8,0:0:0:0:
256,192,28935,1,8,0:0:0:0:
256,192,29085,1,0,0:0:0:0:
256,192,29385,1,8,0:0:0:0:
256,192,29535,1,0,0:0:0:0:
256,192,29985,1,8,0:0:0:0:
256,192,30285,1,0,0:0:0:0:
256,192,30435,1,0,0:0:0:0:
256,192,30585,1,8,0:0:0:0:
256,192,30885,1,0,0:0:0:0:
256,192,31185,1,0,0:0:0:0:
256,192,31335,1,8,0:0:0:0:
256,192,31485,1,8,0:0:0:0:
256,192,31635,1,0,0:0:0:0:
256,192,31785,1,8,0:0:0:0:
256,192,31860,1,8,0:0:0:0:
256,192,31935,1,8,0:0:0:0:
256,192,32085,1,0,0:0:0:0:
256,192,32385,1,0,0:0:0:0:
256,192,32685,1,8,0:0:0:0:
256,192,32985,1,0,0:0:0:0:
256,192,33585,1,8,0:0:0:0:
256,192,34185,1,0,0:0:0:0:
256,192,34785,1,0,0:0:0:0:
256,192,35085,1,8,0:0:0:0:
256,192,35385,1,8,0:0:0:0:
256,192,35985,1,8,0:0:0:0:
256,192,36585,1,0,0:0:0:0:
256,192,37185,1,8,0:0:0:0:
256,192,37485,1,8,0:0:0:0:
256,192,37785,1,0,0:0:0:0:
256,192,38385,1,8,0:0:0:0:
256,192,38985,1,8,0:0:0:0:
256,192,39585,1,0,0:0:0:0:
256,192,39885,1,8,0:0:0:0:
256,192,40185,1,8,0:0:0:0:
256,192,40785,1,8,0:0:0:0:
256,192,41385,1,0,0:0:0:0:
256,192,41985,1,4,0:0:0:0:
256,192,42285,1,8,0:0:0:0:
256,192,42585,1,8,0:0:0:0:
256,192,42735,1,8,0:0:0:0:
256,192,43035,1,8,0:0:0:0:
256,192,43185,1,0,0:0:0:0:
256,192,43335,1,8,0:0:0:0:
256,192,43635,1,0,0:0:0:0:
256,192,43935,1,8,0:0:0:0:
256,192,44085,1,8,0:0:0:0:
256,192,44235,1,8,0:0:0:0:
256,192,44385,1,0,0:0:0:0:
256,192,44685,1,8,0:0:0:0:
256,192,44985,1,8,0:0:0:0:
256,192,45135,1,8,0:0:0:0:
256,192,45585,1,12,0:0:0:0:
256,192,45735,1,12,0:0:0:0:
256,192,46035,1,4,0:0:0:0:
256,192,46335,1,4,0:0:0:0:
256,192,46635,1,12,0:0:0:0:
256,192,46785,1,4,0:0:0:0:
256,192,47085,1,8,0:0:0:0:
256,192,47385,1,8,0:0:0:0:
256,192,47535,1,8,0:0:0:0:
256,192,47835,1,8,0:0:0:0:
256,192,47985,1,0,0:0:0:0:
256,192,48135,1,8,0:0:0:0:
256,192,48435,1,0,0:0:0:0:
256,192,48735,1,8,0:0:0:0:
256,192,48885,1,8,0:0:0:0:
256,192,49035,1,8,0:0:0:0:
256,192,49185,1,0,0:0:0:0:
256,192,49485,1,8,0:0:0:0:
256,192,49785,1,8,0:0:0:0:
256,192,49935,1,8,0:0:0:0:
256,192,50235,1,0,0:0:0:0:
256,192,50385,1,0,0:0:0:0:
256,192,50535,1,8,0:0:0:0:
256,192,50685,1,0,0:0:0:0:
256,192,50835,1,0,0:0:0:0:
256,192,50985,1,12,0:0:0:0:
256,192,51285,1,4,0:0:0:0:
256,192,51585,1,4,0:0:0:0:
256,192,51735,1,0,0:0:0:0:
256,192,52185,1,8,0:0:0:0:
256,192,52635,1,0,0:0:0:0:
256,192,52935,1,8,0:0:0:0:
256,192,53085,1,8,0:0:0:0:
256,192,53235,1,0,0:0:0:0:
256,192,53385,1,8,0:0:0:0:
256,192,53535,1,0,0:0:0:0:
256,192,53835,1,8,0:0:0:0:
256,192,53985,1,0,0:0:0:0:
256,192,54435,1,0,0:0:0:0:
256,192,54585,1,8,0:0:0:0:
256,192,55035,1,0,0:0:0:0:
256,192,55185,1,8,0:0:0:0:
256,192,55385,1,8,0:0:0:0:
256,192,55485,1,8,0:0:0:0:
256,192,55635,1,0,0:0:0:0:
256,192,55785,1,8,0:0:0:0:
256,192,56085,1,8,0:0:0:0:
256,192,56235,1,0,0:0:0:0:
256,192,56385,1,12,0:0:0:0:
256,192,56685,1,0,0:0:0:0:
256,192,56985,1,8,0:0:0:0:
256,192,57135,1,8,0:0:0:0:
256,192,57435,1,8,0:0:0:0:
256,192,57585,1,0,0:0:0:0:
256,192,57735,1,0,0:0:0:0:
256,192,58035,1,8,0:0:0:0:
256,192,58335,1,8,0:0:0:0:
256,192,58485,1,8,0:0:0:0:
256,192,58635,1,0,0:0:0:0:
256,192,58785,1,8,0:0:0:0:
256,192,59085,1,8,0:0:0:0:
256,192,59235,1,0,0:0:0:0:
256,192,59385,1,8,0:0:0:0:
256,192,59685,1,0,0:0:0:0:
256,192,59985,1,8,0:0:0:0:
256,192,60135,1,0,0:0:0:0:
256,192,60285,1,8,0:0:0:0:
256,192,60435,1,0,0:0:0:0:
256,192,60585,1,8,0:0:0:0:
256,192,60885,1,8,0:0:0:0:
256,192,61185,1,4,0:0:0:0:
256,192,61635,1,0,0:0:0:0:
256,192,61785,1,8,0:0:0:0:
256,192,62085,1,8,0:0:0:0:
256,192,62235,1,0,0:0:0:0:
256,192,62535,1,8,0:0:0:0:
256,192,62685,1,0,0:0:0:0:
256,192,62835,1,8,0:0:0:0:
256,192,62985,1,8,0:0:0:0:
256,192,63285,1,8,0:0:0:0:
256,192,63585,1,0,0:0:0:0:
256,192,64035,1,0,0:0:0:0:
256,192,64185,1,8,0:0:0:0:
256,192,64485,1,8,0:0:0:0:
256,192,64635,1,0,0:0:0:0:
256,192,64785,1,0,0:0:0:0:
256,192,65085,1,8,0:0:0:0:
256,192,65385,1,8,0:0:0:0:
256,192,65985,1,4,0:0:0:0:
256,192,66435,1,0,0:0:0:0:
256,192,66585,1,8,0:0:0:0:
256,192,66885,1,8,0:0:0:0:
256,192,67035,1,0,0:0:0:0:
256,192,67335,1,8,0:0:0:0:
256,192,67485,1,0,0:0:0:0:
256,192,67785,1,8,0:0:0:0:
256,192,68085,1,0,0:0:0:0:
256,192,68235,1,0,0:0:0:0:
256,192,68385,1,8,0:0:0:0:
256,192,68685,1,0,0:0:0:0:
256,192,68985,1,8,0:0:0:0:
256,192,69285,1,8,0:0:0:0:
256,192,69585,1,8,0:0:0:0:
256,192,69735,1,8,0:0:0:0:
256,192,69885,1,0,0:0:0:0:
256,192,70185,1,8,0:0:0:0:
256,192,70785,1,4,0:0:0:0:
256,192,71085,1,8,0:0:0:0:
256,192,71235,1,8,0:0:0:0:
256,192,71385,1,8,0:0:0:0:
256,192,71535,1,0,0:0:0:0:
256,192,71685,1,8,0:0:0:0:
256,192,71985,1,0,0:0:0:0:
256,192,72135,1,8,0:0:0:0:
256,192,72285,1,0,0:0:0:0:
256,192,72435,1,8,0:0:0:0:
256,192,72585,1,8,0:0:0:0:
256,192,72885,1,8,0:0:0:0:
256,192,73185,1,0,0:0:0:0:
256,192,73485,1,8,0:0:0:0:
256,192,73635,1,8,0:0:0:0:
256,192,73785,1,8,0:0:0:0:
256,192,73935,1,0,0:0:0:0:
256,192,74085,1,8,0:0:0:0:
256,192,74385,1,0,0:0:0:0:
256,192,74585,1,0,0:0:0:0:
256,192,74685,1,0,0:0:0:0:
256,192,74835,1,8,0:0:0:0:
256,192,74985,1,0,0:0:0:0:
256,192,75060,1,0,0:0:0:0:
256,192,75135,1,0,0:0:0:0:
288,192,75285,1,8,0:0:0:0:
256,192,75585,1,4,0:0:0:0:
256,192,75885,1,8,0:0:0:0:
256,192,76035,1,8,0:0:0:0:
256,192,76185,1,8,0:0:0:0:
256,192,76335,1,0,0:0:0:0:
256,192,76485,1,8,0:0:0:0:
256,192,76785,1,0,0:0:0:0:
256,192,76935,1,8,0:0:0:0:
256,192,77085,1,0,0:0:0:0:
256,192,77235,1,8,0:0:0:0:
256,192,77385,1,8,0:0:0:0:
256,192,77685,1,0,0:0:0:0:
256,192,77760,1,0,0:0:0:0:
256,192,77835,1,0,0:0:0:0:
256,192,77985,1,8,0:0:0:0:
256,192,79785,12,0,80235,0:0:0:0:
256,192,80385,5,12,0:0:0:0:
256,192,80835,1,0,0:0:0:0:
256,192,80910,1,0,0:0:0:0:
256,192,80985,1,0,0:0:0:0:
256,192,81135,1,8,0:0:0:0:
256,192,81285,1,8,0:0:0:0:
256,192,81435,1,0,0:0:0:0:
256,192,81585,1,8,0:0:0:0:
256,192,81885,1,0,0:0:0:0:
256,192,82185,1,8,0:0:0:0:
256,192,82335,1,0,0:0:0:0:
256,192,82485,1,8,0:0:0:0:
256,192,82785,1,8,0:0:0:0:
256,192,83235,1,0,0:0:0:0:
256,192,83310,1,0,0:0:0:0:
256,192,83385,1,0,0:0:0:0:
256,192,83535,1,0,0:0:0:0:
256,192,83685,1,8,0:0:0:0:
256,192,83835,1,8,0:0:0:0:
256,192,83985,1,4,0:0:0:0:
256,192,84285,1,12,0:0:0:0:
256,192,84585,1,12,0:0:0:0:
256,192,85185,1,8,0:0:0:0:
256,192,85635,1,0,0:0:0:0:
256,192,85710,1,0,0:0:0:0:
256,192,85785,1,0,0:0:0:0:
256,192,85935,1,0,0:0:0:0:
256,192,86085,1,8,0:0:0:0:
256,192,86385,1,0,0:0:0:0:
256,192,86535,1,0,0:0:0:0:
256,192,86685,1,8,0:0:0:0:
256,192,86835,1,0,0:0:0:0:
256,192,86985,1,8,0:0:0:0:
256,192,87060,1,8,0:0:0:0:
256,192,87135,1,8,0:0:0:0:
256,192,87285,1,8,0:0:0:0:
256,192,87585,1,12,0:0:0:0:
256,192,88035,1,0,0:0:0:0:
256,192,88185,1,12,0:0:0:0:
256,192,88410,1,0,0:0:0:0:
256,192,88635,1,8,0:0:0:0:
256,192,88785,1,8,0:0:0:0:
256,192,89085,1,8,0:0:0:0:
256,192,89235,1,8,0:0:0:0:
256,192,89385,1,0,0:0:0:0:
256,192,89460,1,0,0:0:0:0:
256,192,89535,1,0,0:0:0:0:
256,192,89685,1,0,0:0:0:0:
256,192,89985,1,12,0:0:0:0:
256,192,90435,1,0,0:0:0:0:
256,192,90510,1,0,0:0:0:0:
256,192,90585,1,0,0:0:0:0:
256,192,90735,1,8,0:0:0:0:
256,192,90885,1,8,0:0:0:0:
256,192,91035,1,0,0:0:0:0:
256,192,91185,1,8,0:0:0:0:
256,192,91485,1,0,0:0:0:0:
256,192,91785,1,8,0:0:0:0:
256,192,91935,1,0,0:0:0:0:
256,192,92085,1,8,0:0:0:0:
256,192,92385,1,8,0:0:0:0:
256,192,92835,1,0,0:0:0:0:
256,192,92910,1,0,0:0:0:0:
256,192,92985,1,0,0:0:0:0:
256,192,93135,1,0,0:0:0:0:
256,192,93285,1,8,0:0:0:0:
256,192,93435,1,8,0:0:0:0:
256,192,93585,1,4,0:0:0:0:
256,192,93810,1,12,0:0:0:0:
256,192,94035,1,12,0:0:0:0:
256,192,94260,1,4,0:0:0:0:
256,192,94485,1,12,0:0:0:0:
256,192,94785,1,4,0:0:0:0:
256,192,94935,1,0,0:0:0:0:
256,192,95085,1,8,0:0:0:0:
256,192,95235,1,8,0:0:0:0:
256,192,95385,1,0,0:0:0:0:
256,192,95535,1,8,0:0:0:0:
256,192,95685,1,0,0:0:0:0:
256,192,95985,1,8,0:0:0:0:
256,192,96135,1,8,0:0:0:0:
256,192,96285,1,0,0:0:0:0:
256,192,96360,1,0,0:0:0:0:
256,192,96435,1,0,0:0:0:0:
256,192,96585,1,8,0:0:0:0:
256,192,96735,1,8,0:0:0:0:
256,192,96885,1,0,0:0:0:0:
256,192,97185,1,4,0:0:0:0:
256,192,97335,1,8,0:0:0:0:
256,192,97560,1,8,0:0:0:0:
256,192,97785,1,8,0:0:0:0:
256,192,98010,1,0,0:0:0:0:
256,192,98235,1,8,0:0:0:0:
256,192,98385,1,12,0:0:0:0:
256,192,98685,1,12,0:0:0:0:
256,192,98985,1,12,0:0:0:0:
256,192,99285,1,12,0:0:0:0:
256,192,99585,1,4,0:0:0:0:
256,192,100185,1,8,0:0:0:0:
256,192,100335,1,0,0:0:0:0:
256,192,100485,1,8,0:0:0:0:
256,192,100635,1,8,0:0:0:0:
256,192,100785,1,0,0:0:0:0:
256,192,101085,1,0,0:0:0:0:
256,192,101385,1,8,0:0:0:0:
256,192,101535,1,0,0:0:0:0:
256,192,101685,1,8,0:0:0:0:
256,192,101835,1,0,0:0:0:0:
256,192,101985,1,0,0:0:0:0:
256,192,102285,1,0,0:0:0:0:
256,192,102585,1,8,0:0:0:0:
256,192,102735,1,8,0:0:0:0:
256,192,103035,1,8,0:0:0:0:
256,192,103185,1,0,0:0:0:0:
256,192,103485,1,8,0:0:0:0:
256,192,103635,1,0,0:0:0:0:
256,192,103785,1,8,0:0:0:0:
256,192,104085,1,8,0:0:0:0:
256,192,104385,1,12,0:0:0:0:
256,192,104685,1,0,0:0:0:0:
256,192,104835,1,0,0:0:0:0:
256,192,104985,1,8,0:0:0:0:
256,192,105135,1,8,0:0:0:0:
256,192,105285,1,0,0:0:0:0:
256,192,105585,1,0,0:0:0:0:
256,192,105885,1,0,0:0:0:0:
256,192,106035,1,0,0:0:0:0:
256,192,106185,1,8,0:0:0:0:
256,192,106335,1,8,0:0:0:0:
256,192,106485,1,0,0:0:0:0:
256,192,106785,1,8,0:0:0:0:
256,192,106935,1,8,0:0:0:0:
256,192,107085,1,0,0:0:0:0:
256,192,107235,1,0,0:0:0:0:
256,192,107385,1,8,0:0:0:0:
256,192,107685,1,0,0:0:0:0:
256,192,107985,1,8,0:0:0:0:
256,192,108135,1,0,0:0:0:0:
256,192,108210,1,0,0:0:0:0:
256,192,108285,1,0,0:0:0:0:
256,192,108435,1,8,0:0:0:0:
256,192,108585,1,8,0:0:0:0:
256,192,108735,1,0,0:0:0:0:
256,192,108885,1,8,0:0:0:0:
256,192,109035,1,8,0:0:0:0:
256,192,109185,1,0,0:0:0:0:
256,192,109785,1,8,0:0:0:0:
256,192,110085,1,0,0:0:0:0:
256,192,110385,1,0,0:0:0:0:
256,192,110985,1,8,0:0:0:0:
256,192,111585,1,0,0:0:0:0:
256,192,112185,1,8,0:0:0:0:
256,192,112485,1,0,0:0:0:0:
256,192,112785,1,0,0:0:0:0:
256,192,113385,1,8,0:0:0:0:
256,192,113985,1,8,0:0:0:0:
256,192,114135,1,0,0:0:0:0:
256,192,114285,1,0,0:0:0:0:
256,192,114435,1,8,0:0:0:0:
256,192,114585,1,0,0:0:0:0:
256,192,114660,1,0,0:0:0:0:
256,192,114735,1,0,0:0:0:0:
256,192,114885,1,8,0:0:0:0:
256,192,115035,1,0,0:0:0:0:
256,192,115185,1,8,0:0:0:0:
256,192,115335,1,8,0:0:0:0:
256,192,115485,1,0,0:0:0:0:
256,192,115560,1,8,0:0:0:0:
256,192,115710,1,8,0:0:0:0:
256,192,115935,1,8,0:0:0:0:
256,192,116085,1,0,0:0:0:0:
256,192,116235,1,8,0:0:0:0:
256,192,116385,1,0,0:0:0:0:
