osu file format v14

[General]
AudioFilename: audio.mp3
AudioLeadIn: 0
PreviewTime: 61131
Countdown: 0
SampleSet: Normal
StackLeniency: 0.7
Mode: 1
LetterboxInBreaks: 0
WidescreenStoryboard: 1

[Editor]
DistanceSpacing: 1.1
BeatDivisor: 4
GridSize: 32
TimelineZoom: 3.499999

[Metadata]
Title:Skrik
TitleUnicode:Skrik
Artist:Chicala Lpis
ArtistUnicode:Chicala Lpis
Creator:Capu
Version:Kantan
Source:
Tags:electronic instrumental video game give up treatment vol. volume 5 muse dash trap choir cinematic coryn stingy
BeatmapID:2358276
BeatmapSetID:1128817

[Difficulty]
HPDrainRate:7
CircleSize:2
OverallDifficulty:3
ApproachRate:10
SliderMultiplier:1.4
SliderTickRate:1

[Events]
//Background and Video events
0,0,"1247124.jpg",0,-60
//Break Periods
//Storyboard Layer 0 (Background)
//Storyboard Layer 1 (Fail)
//Storyboard Layer 2 (Pass)
//Storyboard Layer 3 (Foreground)
//Storyboard Layer 4 (Overlay)
//Storyboard Sound Samples

[TimingPoints]
1185,300,4,1,0,100,1,0
1710,-100,4,1,0,45,0,0
13185,-111.111111111111,4,1,0,70,0,1
21583,-111.111111111111,4,1,0,70,0,1
21585,-111.111111111111,4,1,0,70,0,0
22785,-111.111111111111,4,1,0,70,0,1
25183,-111.111111111111,4,1,0,70,0,1
25185,-111.111111111111,4,1,0,70,0,0
27585,-111.111111111111,4,1,0,70,0,1
29533,-111.111111111111,4,1,0,70,0,1
29535,-111.111111111111,4,1,0,70,0,0
29985,-111.111111111111,4,1,0,70,0,1
32383,-111.111111111111,4,1,0,70,0,1
32385,-111.111111111111,4,1,0,70,0,0
32610,-111.111111111111,4,1,0,45,0,0
41910,-111.111111111111,4,1,0,75,0,0
70785,-111.111111111111,4,1,0,70,0,1
77983,-111.111111111111,4,1,0,70,0,1
77985,-111.111111111111,4,1,0,70,0,0
80385,-111.111111111111,4,1,0,70,0,1
99583,-111.111111111111,4,1,0,70,0,1
99585,-111.111111111111,4,1,0,70,0,0
109485,-111.111111111111,4,1,0,25,0,0
113985,-111.111111111111,4,1,0,95,0,1
116383,-111.111111111111,4,1,0,95,0,1
116385,-111.111111111111,4,1,0,95,0,0

[HitObjects]
256,192,1185,5,0,0:0:0:0:
256,192,1785,1,8,0:0:0:0:
256,192,2985,1,8,0:0:0:0:
256,192,4185,1,8,0:0:0:0:
256,192,5385,1,8,0:0:0:0:
256,192,5985,1,0,0:0:0:0:
256,192,6585,1,8,0:0:0:0:
256,192,7785,1,8,0:0:0:0:
256,192,8985,1,8,0:0:0:0:
256,192,10185,1,8,0:0:0:0:
256,192,10785,2,4,L|96:192,7,140
256,192,13185,1,4,0:0:0:0:
256,192,13485,1,8,0:0:0:0:
256,192,14085,1,8,0:0:0:0:
256,192,14685,1,0,0:0:0:0:
256,192,15585,1,0,0:0:0:0:
256,192,15885,1,8,0:0:0:0:
256,192,16485,1,8,0:0:0:0:
256,192,16785,1,0,0:0:0:0:
256,192,17085,1,8,0:0:0:0:
256,192,17985,1,0,0:0:0:0:
256,192,18285,1,8,0:0:0:0:
256,192,18885,1,8,0:0:0:0:
256,192,19485,1,0,0:0:0:0:
256,192,20085,1,0,0:0:0:0:
256,192,20385,1,8,0:0:0:0:
256,192,20985,1,0,0:0:0:0:
256,192,21585,1,8,0:0:0:0:
256,192,22785,1,12,0:0:0:0:
256,192,23385,1,0,0:0:0:0:
256,160,23985,1,8,0:0:0:0:
256,192,24585,1,8,0:0:0:0:
256,192,25185,1,4,0:0:0:0:
256,192,27585,1,4,0:0:0:0:
256,192,28185,1,8,0:0:0:0:
256,192,28785,1,0,0:0:0:0:
256,192,29085,1,0,0:0:0:0:
256,192,29535,1,0,0:0:0:0:
256,192,29985,1,8,0:0:0:0:
256,192,30585,1,8,0:0:0:0:
256,192,31185,1,8,0:0:0:0:
256,192,31485,1,8,0:0:0:0:
256,192,31785,1,8,0:0:0:0:
256,192,32385,1,0,0:0:0:0:
256,192,32685,1,0,0:0:0:0:
256,192,37185,1,0,0:0:0:0:
256,192,37485,1,0,0:0:0:0:
256,192,41985,1,12,0:0:0:0:
256,192,42585,1,0,0:0:0:0:
256,192,43185,1,8,0:0:0:0:
256,192,44385,1,8,0:0:0:0:
256,192,44985,1,8,0:0:0:0:
256,192,45585,1,0,0:0:0:0:
256,192,46785,1,0,0:0:0:0:
256,192,47385,1,8,0:0:0:0:
256,192,47985,1,8,0:0:0:0:
256,192,48585,1,0,0:0:0:0:
256,192,48885,1,0,0:0:0:0:
256,192,49185,1,8,0:0:0:0:
256,192,49785,1,0,0:0:0:0:
256,192,50385,1,8,0:0:0:0:
256,192,51285,1,8,0:0:0:0:
256,192,51585,1,4,0:0:0:0:
256,192,52185,1,8,0:0:0:0:
256,192,52635,1,0,0:0:0:0:
256,192,53385,1,8,0:0:0:0:
256,192,53985,1,0,0:0:0:0:
256,192,54585,1,8,0:0:0:0:
256,192,55035,1,0,0:0:0:0:
256,192,55785,1,8,0:0:0:0:
256,192,56385,1,0,0:0:0:0:
256,192,56985,1,8,0:0:0:0:
256,192,57585,1,8,0:0:0:0:
256,192,58185,1,0,0:0:0:0:
256,192,58785,1,8,0:0:0:0:
256,192,59085,1,8,0:0:0:0:
256,192,59385,1,8,0:0:0:0:
256,192,59985,1,0,0:0:0:0:
256,192,61185,1,4,0:0:0:0:
256,192,61785,1,8,0:0:0:0:
256,192,62685,1,0,0:0:0:0:
256,192,62985,1,8,0:0:0:0:
256,192,64185,1,8,0:0:0:0:
256,192,65085,1,0,0:0:0:0:
256,192,65385,1,8,0:0:0:0:
256,192,65985,1,4,0:0:0:0:
256,192,66585,1,8,0:0:0:0:
256,192,67485,1,0,0:0:0:0:
256,192,67785,1,8,0:0:0:0:
256,192,68385,1,0,0:0:0:0:
256,192,68985,1,8,0:0:0:0:
256,192,69585,1,0,0:0:0:0:
256,192,69885,1,0,0:0:0:0:
256,192,70785,1,12,0:0:0:0:
256,192,71085,1,8,0:0:0:0:
256,192,71685,1,8,0:0:0:0:
256,192,71985,1,0,0:0:0:0:
256,192,72285,1,8,0:0:0:0:
256,192,73485,1,8,0:0:0:0:
256,192,74085,1,8,0:0:0:0:
256,192,74385,1,0,0:0:0:0:
256,192,74685,1,8,0:0:0:0:
256,192,74985,1,0,0:0:0:0:
256,192,75585,1,4,0:0:0:0:
256,192,75885,1,8,0:0:0:0:
256,192,76485,1,8,0:0:0:0:
256,192,76785,1,0,0:0:0:0:
256,192,77085,1,8,0:0:0:0:
256,192,77685,1,8,0:0:0:0:
256,192,77985,1,0,0:0:0:0:
256,192,79785,12,0,80085,0:0:0:0:
256,192,80385,5,12,0:0:0:0:
256,192,80985,1,0,0:0:0:0:
256,192,81585,1,8,0:0:0:0:
256,192,81885,1,8,0:0:0:0:
256,192,82185,1,0,0:0:0:0:
256,192,82785,1,8,0:0:0:0:
224,192,83385,1,0,0:0:0:0:
256,192,83985,1,12,0:0:0:0:
256,192,85185,1,8,0:0:0:0:
256,192,85785,1,0,0:0:0:0:
256,192,86385,1,8,0:0:0:0:
256,192,86685,1,8,0:0:0:0:
256,192,86985,1,8,0:0:0:0:
256,192,87585,1,0,0:0:0:0:
256,192,88185,1,8,0:0:0:0:
256,192,88785,1,8,0:0:0:0:
256,192,89385,1,0,0:0:0:0:
256,192,89985,1,12,0:0:0:0:
256,192,90885,1,0,0:0:0:0:
256,192,91185,1,8,0:0:0:0:
256,192,91785,1,8,0:0:0:0:
256,192,92385,1,0,0:0:0:0:
256,192,92985,1,0,0:0:0:0:
256,192,93585,1,12,0:0:0:0:
256,192,94785,1,12,0:0:0:0:
256,192,95385,1,0,0:0:0:0:
256,192,95685,1,0,0:0:0:0:
256,192,95985,1,8,0:0:0:0:
256,192,96585,1,0,0:0:0:0:
256,192,97185,1,8,0:0:0:0:
256,192,97485,1,8,0:0:0:0:
256,192,97785,1,8,0:0:0:0:
256,192,98085,1,8,0:0:0:0:
256,192,98385,1,0,0:0:0:0:
256,192,98985,1,0,0:0:0:0:
256,192,99585,1,12,0:0:0:0:
256,192,100185,1,8,0:0:0:0:
256,192,101085,1,0,0:0:0:0:
256,192,101385,1,8,0:0:0:0:
256,192,101985,1,0,0:0:0:0:
256,192,102585,1,8,0:0:0:0:
256,192,103485,1,0,0:0:0:0:
256,192,103785,1,8,0:0:0:0:
256,192,104385,1,4,0:0:0:0:
256,192,104985,1,8,0:0:0:0:
256,192,105585,1,0,0:0:0:0:
256,192,105885,1,0,0:0:0:0:
256,192,106185,1,8,0:0:0:0:
256,192,106785,1,0,0:0:0:0:
256,192,107385,1,8,0:0:0:0:
256,192,107985,1,8,0:0:0:0:
256,192,108285,1,8,0:0:0:0:
256,192,108585,1,0,0:0:0:0:
256,192,108885,1,8,0:0:0:0:
256,192,109185,1,4,0:0:0:0:
256,192,111585,1,0,0:0:0:0:
256,192,113985,1,12,0:0:0:0:
256,192,114285,1,8,0:0:0:0:
256,192,114585,1,8,0:0:0:0:
256,192,115185,1,0,0:0:0:0:
256,192,115485,1,8,0:0:0:0:
256,192,115785,1,0,0:0:0:0:
256,192,116385,1,8,0:0:0:0:
