osu file format v14

[General]
AudioFilename: audio.mp3
AudioLeadIn: 0
PreviewTime: 96937
Countdown: 0
SampleSet: None
StackLeniency: 0.7
Mode: 1
LetterboxInBreaks: 0
WidescreenStoryboard: 1

[Editor]
DistanceSpacing: 0.9
BeatDivisor: 4
GridSize: 32
TimelineZoom: 2.4

[Metadata]
Title:Blackest Luxury Car
TitleUnicode:Blackest Luxury Car
Artist:Chicala Lpis
ArtistUnicode:Chicala Lpis
Creator:Player-
Version:Sleek
Source:BMS
Tags:
BeatmapID:2111519
BeatmapSetID:1008689

[Difficulty]
HPDrainRate:6
CircleSize:5
OverallDifficulty:6
ApproachRate:10
SliderMultiplier:1.4
SliderTickRate:1

[Events]
//Background and Video events
0,0,"imege.png",0,0
//Break Periods
//Storyboard Layer 0 (Background)
//Storyboard Layer 1 (Fail)
//Storyboard Layer 2 (Pass)
//Storyboard Layer 3 (Foreground)
//Storyboard Sound Samples

[TimingPoints]
702,337.078651685393,4,1,0,80,1,0
11488,-90.9090909090909,4,1,0,80,0,0
20589,-92.5925925925926,4,1,0,80,0,0
20673,-94.3396226415094,4,1,0,80,0,0
20758,-96.1538461538461,4,1,0,80,0,0
20842,-98.0392156862745,4,1,0,80,0,0
20926,-100,4,1,0,80,0,0
21600,-98.0392156862745,4,1,0,80,0,0
21685,-96.1538461538461,4,1,0,80,0,0
21769,-94.3396226415094,4,1,0,80,0,0
21853,-92.5925925925926,4,1,0,80,0,0
21937,-90.9090909090909,4,1,0,80,0,0
64072,-100,4,1,0,80,0,0
70645,-99.009900990099,4,1,0,80,0,0
70730,-98.0392156862745,4,1,0,80,0,0
70814,-97.0873786407767,4,1,0,80,0,0
70982,-96.1538461538461,4,1,0,80,0,0
71319,-95.2380952380952,4,1,0,80,0,0
71488,-94.3396226415094,4,1,0,80,0,0
71825,-93.4579439252336,4,1,0,80,0,0
71994,-92.5925925925926,4,1,0,80,0,0
72331,-91.743119266055,4,1,0,80,0,0
72499,-90.9090909090909,4,1,0,80,0,0
72836,-90.0900900900901,4,1,0,80,0,0
73173,-89.2857142857143,4,1,0,80,0,0
73342,-88.4955752212389,4,1,0,80,0,0
73426,-87.719298245614,4,1,0,80,0,0
73510,-86.9565217391304,4,1,0,80,0,0
73679,-86.2068965517241,4,1,0,80,0,0
74016,-85.4700854700855,4,1,0,80,0,0
74185,-84.7457627118644,4,1,0,80,0,0
74522,-84.0336134453781,4,1,0,80,0,0
74690,-83.3333333333333,4,1,0,80,0,0
74859,-82.6446280991736,4,1,0,80,0,0
75196,-81.9672131147541,4,1,0,80,0,0
75701,-81.3008130081301,4,1,0,80,0,0
75870,-68.4931506849315,4,1,0,80,0,0
76207,-89.2857142857143,4,1,0,80,0,0
97780,-73.5294117647059,4,1,0,80,0,1
122050,-73.5294117647059,4,1,0,80,0,0
123398,-90.9090909090909,4,1,0,80,0,0

[HitObjects]
217,209,702,5,4,0:0:0:0:
316,223,1039,1,0,0:0:0:0:
292,208,1207,1,0,0:0:0:0:
268,182,1376,1,8,0:0:0:0:
298,225,1544,1,0,0:0:0:0:
299,268,1881,1,0,0:0:0:0:
226,270,2050,1,8,0:0:0:0:
273,216,2218,1,0,0:0:0:0:
221,223,2555,1,0,0:0:0:0:
233,242,2640,1,0,0:0:0:0:
221,223,2724,1,0,0:0:0:0:
233,258,2893,1,0,0:0:0:0:
209,246,3061,1,0,0:0:0:0:
222,239,3230,1,0,0:0:0:0:
230,251,3398,1,8,0:0:0:0:
245,262,3567,1,0,0:0:0:0:
220,258,3904,1,0,0:0:0:0:
214,254,3988,1,0,0:0:0:0:
214,251,4072,1,8,0:0:0:0:
234,252,4241,1,0,0:0:0:0:
272,251,4409,1,8,0:0:0:0:
273,264,4578,1,0,0:0:0:0:
244,235,4746,1,0,0:0:0:0:
235,229,4831,1,0,0:0:0:0:
239,227,4915,1,8,0:0:0:0:
237,226,4999,1,8,0:0:0:0:
237,229,5084,1,0,0:0:0:0:
237,236,5252,1,8,0:0:0:0:
293,287,5589,1,8,0:0:0:0:
206,226,5758,1,8,0:0:0:0:
253,248,5926,1,8,0:0:0:0:
249,245,6010,1,8,0:0:0:0:
253,245,6095,1,0,0:0:0:0:
248,250,6263,1,0,0:0:0:0:
274,250,6432,1,8,0:0:0:0:
306,230,6769,1,8,0:0:0:0:
314,282,6937,1,0,0:0:0:0:
263,254,7106,1,8,0:0:0:0:
290,246,7275,1,0,0:0:0:0:
277,242,7359,1,0,0:0:0:0:
281,242,7443,1,8,0:0:0:0:
271,243,7612,1,0,0:0:0:0:
267,233,7780,1,8,0:0:0:0:
261,227,7949,1,0,0:0:0:0:
264,225,8033,1,0,0:0:0:0:
266,225,8117,1,0,0:0:0:0:
290,236,8286,1,0,0:0:0:0:
326,272,8454,1,0,0:0:0:0:
326,272,8623,1,0,0:0:0:0:
256,192,8791,12,8,9803,0:0:0:0:
200,270,10140,5,8,0:0:0:0:
245,284,10308,1,0,0:0:0:0:
245,284,10645,1,0,0:0:0:0:
260,316,10982,1,0,0:0:0:0:
260,316,11067,1,0,0:0:0:0:
248,223,11151,1,8,0:0:0:0:
273,231,11235,1,0,0:0:0:0:
272,231,11319,1,8,0:0:0:0:
268,250,11488,1,4,0:0:0:0:
244,262,11825,1,8,0:0:0:0:
287,249,11994,1,0,0:0:0:0:
243,226,12331,1,0,0:0:0:0:
272,238,12499,1,8,0:0:0:0:
243,226,12668,1,8,0:0:0:0:
255,217,12836,1,0,0:0:0:0:
315,313,13173,1,0,0:0:0:0:
306,299,13342,1,8,0:0:0:0:
340,236,13679,1,8,0:0:0:0:
283,231,13848,1,0,0:0:0:0:
267,204,14016,1,8,0:0:0:0:
260,213,14100,1,8,0:0:0:0:
259,212,14185,1,0,0:0:0:0:
261,211,14353,1,8,0:0:0:0:
256,201,14522,1,8,0:0:0:0:
267,204,14690,1,0,0:0:0:0:
281,251,15027,1,0,0:0:0:0:
278,244,15196,1,8,0:0:0:0:
242,207,15280,1,0,0:0:0:0:
261,211,15364,1,8,0:0:0:0:
377,276,15449,1,8,0:0:0:0:
277,208,15533,1,0,0:0:0:0:
308,220,15701,1,8,0:0:0:0:
198,108,16039,1,8,0:0:0:0:
268,200,16376,1,8,0:0:0:0:
227,170,16460,1,0,0:0:0:0:
230,165,16544,1,8,0:0:0:0:
266,165,16713,1,8,0:0:0:0:
292,197,16797,1,8,0:0:0:0:
244,197,16881,1,0,0:0:0:0:
283,262,17050,1,8,0:0:0:0:
299,259,17218,1,8,0:0:0:0:
316,258,17387,1,0,0:0:0:0:
323,255,17724,1,0,0:0:0:0:
324,253,17893,1,8,0:0:0:0:
323,226,18061,1,8,0:0:0:0:
323,226,18230,1,0,0:0:0:0:
277,220,18314,1,0,0:0:0:0:
261,216,18398,1,0,0:0:0:0:
277,220,18567,1,8,0:0:0:0:
267,186,18735,1,0,0:0:0:0:
286,180,19072,1,0,0:0:0:0:
290,180,19157,1,0,0:0:0:0:
292,180,19241,1,8,0:0:0:0:
300,182,19409,1,0,0:0:0:0:
301,200,19494,1,0,0:0:0:0:
294,198,19578,1,0,0:0:0:0:
316,198,19746,1,8,0:0:0:0:
316,197,19915,1,8,0:0:0:0:
315,197,20084,1,0,0:0:0:0:
308,201,20421,1,0,0:0:0:0:
257,236,20589,1,8,0:0:0:0:
243,248,20673,1,0,0:0:0:0:
247,246,20758,1,8,0:0:0:0:
263,249,20842,1,8,0:0:0:0:
270,250,20926,1,0,0:0:0:0:
307,250,21095,1,8,0:0:0:0:
283,309,21432,1,8,0:0:0:0:
202,240,21600,1,0,0:0:0:0:
318,276,21685,1,0,0:0:0:0:
313,270,21769,1,8,0:0:0:0:
313,270,21853,1,8,0:0:0:0:
270,250,21937,1,8,0:0:0:0:
254,235,22106,1,0,0:0:0:0:
200,191,22275,1,12,0:0:0:0:
330,264,22612,1,8,0:0:0:0:
327,260,22780,1,0,0:0:0:0:
316,305,23117,1,0,0:0:0:0:
316,305,23286,1,8,0:0:0:0:
293,294,23454,1,8,0:0:0:0:
192,281,23623,1,0,0:0:0:0:
321,311,23960,1,0,0:0:0:0:
328,303,24128,1,8,0:0:0:0:
281,261,24466,1,8,0:0:0:0:
271,184,24550,1,0,0:0:0:0:
271,184,24634,1,8,0:0:0:0:
274,256,24803,1,8,0:0:0:0:
311,191,24887,1,8,0:0:0:0:
311,191,24971,1,0,0:0:0:0:
342,251,25140,1,8,0:0:0:0:
282,237,25308,1,8,0:0:0:0:
280,231,25477,1,0,0:0:0:0:
316,251,25814,1,0,0:0:0:0:
327,250,25982,1,8,0:0:0:0:
260,215,26067,1,0,0:0:0:0:
260,215,26151,1,8,0:0:0:0:
212,200,26235,1,0,0:0:0:0:
219,198,26319,1,0,0:0:0:0:
264,172,26488,1,8,0:0:0:0:
288,239,26825,1,8,0:0:0:0:
235,201,26994,1,8,0:0:0:0:
227,206,27162,1,0,0:0:0:0:
205,150,27246,1,8,0:0:0:0:
221,160,27331,1,0,0:0:0:0:
241,208,27499,1,8,0:0:0:0:
285,223,27584,1,8,0:0:0:0:
244,208,27668,1,0,0:0:0:0:
264,206,27836,1,0,0:0:0:0:
288,236,28005,1,0,0:0:0:0:
290,229,28061,1,0,0:0:0:0:
293,227,28117,1,0,0:0:0:0:
299,227,28173,1,0,0:0:0:0:
279,211,28258,1,0,0:0:0:0:
285,208,28342,1,8,0:0:0:0:
346,277,28510,1,0,0:0:0:0:
276,233,28679,1,8,0:0:0:0:
282,228,28848,1,8,0:0:0:0:
288,236,29016,1,0,0:0:0:0:
285,284,29353,1,0,0:0:0:0:
276,277,29522,1,8,0:0:0:0:
243,279,29859,1,8,0:0:0:0:
243,256,29943,1,8,0:0:0:0:
245,255,30027,1,0,0:0:0:0:
239,197,30196,1,8,0:0:0:0:
239,197,30280,1,8,0:0:0:0:
244,197,30364,1,8,0:0:0:0:
291,224,30533,1,8,0:0:0:0:
239,197,30701,1,8,0:0:0:0:
239,197,30870,1,0,0:0:0:0:
255,248,31207,1,0,0:0:0:0:
259,233,31376,1,8,0:0:0:0:
201,212,31460,1,0,0:0:0:0:
201,212,31544,1,8,0:0:0:0:
209,217,31628,1,0,0:0:0:0:
214,218,31713,1,0,0:0:0:0:
252,233,31881,1,0,0:0:0:0:
276,295,32050,1,0,0:0:0:0:
276,295,32218,1,0,0:0:0:0:
252,233,32724,1,8,0:0:0:0:
272,230,32808,1,0,0:0:0:0:
281,231,32893,1,8,0:0:0:0:
291,240,32977,1,8,0:0:0:0:
217,161,33061,1,4,0:0:0:0:
283,209,33398,1,8,0:0:0:0:
368,294,33567,1,0,0:0:0:0:
345,271,33735,1,8,0:0:0:0:
263,225,33819,1,8,0:0:0:0:
208,139,33904,1,0,0:0:0:0:
288,223,34072,1,8,0:0:0:0:
294,248,34241,1,0,0:0:0:0:
270,290,34578,1,0,0:0:0:0:
273,223,34746,1,8,0:0:0:0:
275,236,34915,1,0,0:0:0:0:
262,231,35084,1,8,0:0:0:0:
231,220,35252,1,0,0:0:0:0:
259,218,35336,1,0,0:0:0:0:
261,222,35421,1,8,0:0:0:0:
260,220,35589,1,8,0:0:0:0:
265,215,35673,1,0,0:0:0:0:
265,215,35758,1,8,0:0:0:0:
279,230,35926,1,8,0:0:0:0:
230,178,36095,1,8,0:0:0:0:
251,180,36263,1,0,0:0:0:0:
199,162,36600,1,0,0:0:0:0:
272,245,36769,1,8,0:0:0:0:
245,276,36937,1,8,0:0:0:0:
256,254,37022,1,8,0:0:0:0:
264,264,37106,1,0,0:0:0:0:
266,275,37275,1,8,0:0:0:0:
276,265,37443,1,8,0:0:0:0:
256,246,37612,1,0,0:0:0:0:
262,243,37949,1,0,0:0:0:0:
270,246,38033,1,8,0:0:0:0:
270,246,38117,1,0,0:0:0:0:
273,246,38201,1,0,0:0:0:0:
277,272,38286,1,8,0:0:0:0:
291,221,38623,1,0,0:0:0:0:
274,235,38791,1,8,0:0:0:0:
326,238,38960,1,8,0:0:0:0:
335,233,39128,1,0,0:0:0:0:
270,209,39297,1,8,0:0:0:0:
187,138,39381,1,8,0:0:0:0:
285,217,39466,1,0,0:0:0:0:
208,202,39634,1,0,0:0:0:0:
211,193,39803,1,8,0:0:0:0:
282,210,39971,1,8,0:0:0:0:
279,208,40140,1,0,0:0:0:0:
278,202,40308,1,8,0:0:0:0:
254,209,40645,1,0,0:0:0:0:
269,212,40730,1,0,0:0:0:0:
267,211,40814,1,8,0:0:0:0:
222,177,40898,1,0,0:0:0:0:
222,177,40982,1,8,0:0:0:0:
257,186,41319,1,8,0:0:0:0:
285,203,41404,1,8,0:0:0:0:
279,200,41488,1,8,0:0:0:0:
301,203,41657,1,0,0:0:0:0:
251,180,41825,1,8,0:0:0:0:
227,148,41994,1,8,0:0:0:0:
248,156,42162,1,0,0:0:0:0:
252,156,42331,1,8,0:0:0:0:
276,269,42668,1,8,0:0:0:0:
293,254,42836,1,0,0:0:0:0:
277,288,43005,1,8,0:0:0:0:
369,303,43342,1,8,0:0:0:0:
240,255,43426,1,0,0:0:0:0:
240,255,43510,1,8,0:0:0:0:
181,232,43595,1,0,0:0:0:0:
184,235,43679,1,0,0:0:0:0:
302,284,44016,1,0,0:0:0:0:
307,281,44100,1,0,0:0:0:0:
307,281,44185,1,12,0:0:0:0:
330,278,44353,1,8,0:0:0:0:
376,295,44437,1,8,0:0:0:0:
369,296,44522,1,0,0:0:0:0:
336,299,44690,1,0,0:0:0:0:
354,283,44859,1,8,0:0:0:0:
361,283,45027,1,0,0:0:0:0:
337,326,45364,1,0,0:0:0:0:
348,315,45533,1,8,0:0:0:0:
296,277,45701,1,0,0:0:0:0:
330,267,45870,1,8,0:0:0:0:
271,255,46039,1,0,0:0:0:0:
243,243,46123,1,0,0:0:0:0:
237,241,46207,1,8,0:0:0:0:
271,240,46376,1,8,0:0:0:0:
243,224,46460,1,0,0:0:0:0:
245,224,46544,1,8,0:0:0:0:
315,249,46713,1,8,0:0:0:0:
302,245,46881,1,8,0:0:0:0:
302,245,47050,1,0,0:0:0:0:
336,282,47387,1,0,0:0:0:0:
331,255,47555,1,8,0:0:0:0:
405,272,47724,1,8,0:0:0:0:
326,155,47808,1,8,0:0:0:0:
270,229,47893,1,0,0:0:0:0:
361,280,48061,1,8,0:0:0:0:
271,276,48230,1,8,0:0:0:0:
326,259,48398,1,0,0:0:0:0:
314,254,48735,1,0,0:0:0:0:
313,253,48819,1,8,0:0:0:0:
316,254,48904,1,0,0:0:0:0:
313,255,48988,1,0,0:0:0:0:
230,183,49072,1,8,0:0:0:0:
299,290,49409,1,0,0:0:0:0:
338,265,49578,1,8,0:0:0:0:
377,296,49746,1,8,0:0:0:0:
348,259,49915,1,0,0:0:0:0:
251,239,50084,1,8,0:0:0:0:
209,206,50168,1,8,0:0:0:0:
199,200,50252,1,8,0:0:0:0:
255,208,50421,1,0,0:0:0:0:
252,188,50589,1,8,0:0:0:0:
236,203,50758,1,0,0:0:0:0:
313,297,50926,1,0,0:0:0:0:
197,132,51095,1,8,0:0:0:0:
257,168,51432,1,0,0:0:0:0:
254,168,51516,1,0,0:0:0:0:
255,168,51600,1,8,0:0:0:0:
282,183,51685,1,8,0:0:0:0:
287,183,51769,1,8,0:0:0:0:
288,175,52106,1,8,0:0:0:0:
295,226,52275,1,8,0:0:0:0:
307,256,52443,1,0,0:0:0:0:
283,216,52612,1,0,0:0:0:0:
346,239,52696,1,0,0:0:0:0:
326,233,52780,1,8,0:0:0:0:
219,186,52949,1,8,0:0:0:0:
270,192,53117,1,0,0:0:0:0:
261,243,53454,1,8,0:0:0:0:
344,251,53623,1,0,0:0:0:0:
293,250,53791,1,8,0:0:0:0:
301,251,54128,1,8,0:0:0:0:
304,248,54213,1,0,0:0:0:0:
231,191,54297,1,8,0:0:0:0:
266,191,54381,1,8,0:0:0:0:
266,191,54466,1,0,0:0:0:0:
330,215,54634,1,12,0:0:0:0:
208,221,54971,1,8,0:0:0:0:
221,224,55140,1,0,0:0:0:0:
238,241,55308,1,8,0:0:0:0:
225,240,55393,1,8,0:0:0:0:
296,237,55477,1,0,0:0:0:0:
301,235,55645,1,8,0:0:0:0:
262,235,55814,1,0,0:0:0:0:
283,236,55982,1,8,0:0:0:0:
283,235,56319,1,8,0:0:0:0:
261,211,56488,1,0,0:0:0:0:
275,228,56825,1,0,0:0:0:0:
270,227,56909,1,0,0:0:0:0:
268,226,56994,1,8,0:0:0:0:
195,199,57162,1,8,0:0:0:0:
208,180,57331,1,0,0:0:0:0:
231,252,57499,1,8,0:0:0:0:
203,237,57836,1,8,0:0:0:0:
211,236,58005,1,0,0:0:0:0:
299,287,58089,1,0,0:0:0:0:
299,287,58173,1,8,0:0:0:0:
294,274,58258,1,0,0:0:0:0:
295,270,58342,1,8,0:0:0:0:
328,312,58510,1,8,0:0:0:0:
256,265,58679,1,0,0:0:0:0:
362,255,58763,1,0,0:0:0:0:
357,269,58848,1,8,0:0:0:0:
265,258,59016,1,8,0:0:0:0:
289,256,59185,1,0,0:0:0:0:
425,260,59269,1,0,0:0:0:0:
425,260,59353,1,0,0:0:0:0:
409,245,59522,1,0,0:0:0:0:
365,240,59606,1,0,0:0:0:0:
351,236,59690,1,8,0:0:0:0:
376,218,59859,1,8,0:0:0:0:
380,220,60027,1,0,0:0:0:0:
368,278,60364,1,8,0:0:0:0:
284,243,60533,1,0,0:0:0:0:
304,229,60701,1,8,0:0:0:0:
190,165,60786,1,8,0:0:0:0:
279,223,60870,1,0,0:0:0:0:
303,222,61039,1,8,0:0:0:0:
225,156,61207,1,0,0:0:0:0:
268,232,61376,1,8,0:0:0:0:
289,175,61713,1,8,0:0:0:0:
266,184,61881,1,0,0:0:0:0:
239,172,62218,1,0,0:0:0:0:
231,174,62303,1,0,0:0:0:0:
231,174,62387,1,8,0:0:0:0:
206,177,62555,1,8,0:0:0:0:
209,178,62724,1,0,0:0:0:0:
344,289,62893,1,0,0:0:0:0:
330,273,63061,1,8,0:0:0:0:
351,262,63230,1,0,0:0:0:0:
356,313,63567,1,0,0:0:0:0:
358,310,63735,1,8,0:0:0:0:
343,278,64072,1,4,0:0:0:0:
312,231,65421,1,12,0:0:0:0:
342,308,65926,1,8,0:0:0:0:
289,250,66095,1,0,0:0:0:0:
302,311,66432,1,8,0:0:0:0:
272,256,66600,1,0,0:0:0:0:
284,308,66937,1,8,0:0:0:0:
279,247,67106,1,0,0:0:0:0:
269,311,67443,1,8,0:0:0:0:
303,321,67780,1,8,0:0:0:0:
274,224,67949,1,0,0:0:0:0:
288,214,68033,1,0,0:0:0:0:
293,211,68117,1,8,0:0:0:0:
297,208,68286,1,0,0:0:0:0:
292,203,68623,1,8,0:0:0:0:
288,267,68791,1,0,0:0:0:0:
286,217,69128,1,8,0:0:0:0:
289,257,69297,1,0,0:0:0:0:
279,234,69634,1,8,0:0:0:0:
291,251,69803,1,0,0:0:0:0:
283,225,70140,1,8,0:0:0:0:
261,220,70477,1,8,0:0:0:0:
244,245,70645,1,0,0:0:0:0:
306,264,70730,1,0,0:0:0:0:
303,261,70814,1,8,0:0:0:0:
285,261,70982,1,0,0:0:0:0:
288,263,71319,1,8,0:0:0:0:
272,249,71488,1,0,0:0:0:0:
275,257,71825,1,8,0:0:0:0:
274,259,71994,1,0,0:0:0:0:
301,264,72331,1,8,0:0:0:0:
296,264,72499,1,0,0:0:0:0:
303,220,72836,1,8,0:0:0:0:
292,213,73173,1,8,0:0:0:0:
339,246,73342,1,0,0:0:0:0:
339,246,73426,1,0,0:0:0:0:
339,246,73510,1,8,0:0:0:0:
329,234,73679,1,0,0:0:0:0:
340,229,74016,1,8,0:0:0:0:
339,228,74185,1,0,0:0:0:0:
336,232,74522,1,8,0:0:0:0:
329,234,74690,1,8,0:0:0:0:
338,267,74859,1,0,0:0:0:0:
338,267,75196,1,0,0:0:0:0:
252,182,75701,1,0,0:0:0:0:
261,193,75870,1,8,0:0:0:0:
331,291,76207,1,4,0:0:0:0:
326,269,76376,1,0,0:0:0:0:
357,293,76544,1,8,0:0:0:0:
359,208,76600,1,8,0:0:0:0:
366,210,76657,1,8,0:0:0:0:
379,210,76713,1,0,0:0:0:0:
291,217,76881,1,8,0:0:0:0:
287,228,77050,1,8,0:0:0:0:
278,251,77134,1,8,0:0:0:0:
275,250,77218,1,8,0:0:0:0:
247,255,77303,1,8,0:0:0:0:
247,255,77387,1,0,0:0:0:0:
320,285,77555,1,0,0:0:0:0:
330,286,77724,1,8,0:0:0:0:
385,318,78061,1,0,0:0:0:0:
393,333,78145,1,0,0:0:0:0:
393,333,78230,1,8,0:0:0:0:
304,273,78398,1,8,0:0:0:0:
303,271,78567,1,0,0:0:0:0:
275,275,78735,1,0,0:0:0:0:
284,273,78904,1,8,0:0:0:0:
215,85,79072,1,0,0:0:0:0:
258,226,79114,1,8,0:0:0:0:
322,258,79241,1,8,0:0:0:0:
359,247,79283,1,8,0:0:0:0:
310,236,79409,1,0,0:0:0:0:
337,172,79451,1,8,0:0:0:0:
414,180,79578,1,0,0:0:0:0:
240,66,79746,1,0,0:0:0:0:
423,221,79789,1,8,0:0:0:0:
395,256,79915,1,8,0:0:0:0:
395,256,79957,1,8,0:0:0:0:
376,267,80084,1,0,0:0:0:0:
368,281,80126,1,8,0:0:0:0:
243,192,80252,1,0,0:0:0:0:
402,328,80505,1,0,0:0:0:0:
326,284,80758,1,0,0:0:0:0:
263,211,80926,1,8,0:0:0:0:
258,204,81010,1,0,0:0:0:0:
244,205,81095,1,0,0:0:0:0:
245,208,81179,1,0,0:0:0:0:
246,211,81263,1,8,0:0:0:0:
253,190,81600,1,4,0:0:0:0:
320,217,81769,1,0,0:0:0:0:
334,127,81937,1,8,0:0:0:0:
263,166,81994,1,0,0:0:0:0:
263,166,82050,1,0,0:0:0:0:
263,166,82106,1,8,0:0:0:0:
255,198,82275,1,8,0:0:0:0:
220,155,82443,1,8,0:0:0:0:
266,205,82527,1,8,0:0:0:0:
271,209,82612,1,8,0:0:0:0:
274,210,82696,1,8,0:0:0:0:
291,213,82780,1,0,0:0:0:0:
255,233,82949,1,0,0:0:0:0:
252,239,83117,1,8,0:0:0:0:
290,250,83454,1,0,0:0:0:0:
334,189,83539,1,0,0:0:0:0:
338,206,83623,1,8,0:0:0:0:
266,147,83791,1,8,0:0:0:0:
292,146,83960,1,0,0:0:0:0:
323,150,84128,1,0,0:0:0:0:
266,147,84297,1,8,0:0:0:0:
220,130,84466,1,0,0:0:0:0:
410,289,84508,1,8,0:0:0:0:
269,166,84634,1,8,0:0:0:0:
258,170,84676,1,8,0:0:0:0:
326,185,84803,1,0,0:0:0:0:
223,54,84845,1,8,0:0:0:0:
302,161,84971,1,0,0:0:0:0:
295,255,85140,1,0,0:0:0:0:
330,309,85182,1,8,0:0:0:0:
339,263,85308,1,8,0:0:0:0:
330,253,85350,1,8,0:0:0:0:
283,227,85477,1,0,0:0:0:0:
283,227,85519,1,8,0:0:0:0:
305,168,85645,1,0,0:0:0:0:
212,183,85814,1,8,0:0:0:0:
262,199,85898,1,8,0:0:0:0:
262,199,85982,1,0,0:0:0:0:
306,213,86151,1,8,0:0:0:0:
356,279,86488,1,0,0:0:0:0:
352,275,86657,1,8,0:0:0:0:
280,207,86994,1,8,0:0:0:0:
324,183,87106,1,8,0:0:0:0:
327,186,87218,1,8,0:0:0:0:
387,203,87331,1,8,0:0:0:0:
320,209,87443,1,8,0:0:0:0:
261,198,87555,1,8,0:0:0:0:
278,198,87668,1,0,0:0:0:0:
297,218,87836,1,8,0:0:0:0:
295,215,87921,1,8,0:0:0:0:
297,216,88005,1,8,0:0:0:0:
316,218,88089,1,8,0:0:0:0:
330,225,88173,1,0,0:0:0:0:
249,203,88342,1,0,0:0:0:0:
247,187,88510,1,8,0:0:0:0:
305,271,88848,1,0,0:0:0:0:
305,271,88932,1,0,0:0:0:0:
305,271,89016,1,8,0:0:0:0:
235,207,89185,1,8,0:0:0:0:
240,217,89353,1,0,0:0:0:0:
223,220,89522,1,0,0:0:0:0:
262,225,89690,1,8,0:0:0:0:
403,129,89859,1,8,0:0:0:0:
257,276,89901,1,0,0:0:0:0:
271,190,90027,1,0,0:0:0:0:
271,260,90069,1,0,0:0:0:0:
193,163,90196,1,8,0:0:0:0:
273,254,90238,1,0,0:0:0:0:
239,260,90364,1,0,0:0:0:0:
213,178,90533,1,8,0:0:0:0:
276,206,90575,1,0,0:0:0:0:
219,186,90701,1,0,0:0:0:0:
285,213,90744,1,0,0:0:0:0:
232,192,90870,1,8,0:0:0:0:
296,213,90912,1,0,0:0:0:0:
241,212,91039,1,0,0:0:0:0:
254,219,91291,1,0,0:0:0:0:
316,276,91544,1,0,0:0:0:0:
265,255,91797,1,0,0:0:0:0:
225,232,91966,1,0,0:0:0:0:
225,232,92050,1,8,0:0:0:0:
208,245,92387,1,4,0:0:0:0:
246,246,92555,1,0,0:0:0:0:
247,258,92724,1,0,0:0:0:0:
263,238,92780,1,8,0:0:0:0:
263,234,92836,1,8,0:0:0:0:
267,234,92893,1,0,0:0:0:0:
300,136,93061,1,0,0:0:0:0:
378,258,93117,1,0,0:0:0:0:
373,256,93173,1,0,0:0:0:0:
373,256,93230,1,8,0:0:0:0:
306,243,93314,1,8,0:0:0:0:
289,203,93398,1,0,0:0:0:0:
276,213,93482,1,0,0:0:0:0:
264,209,93567,1,8,0:0:0:0:
211,220,93735,1,0,0:0:0:0:
250,195,93904,1,8,0:0:0:0:
239,195,94241,1,0,0:0:0:0:
240,186,94325,1,0,0:0:0:0:
218,232,94409,1,0,0:0:0:0:
295,224,94578,1,0,0:0:0:0:
299,228,94662,1,0,0:0:0:0:
304,228,94746,1,8,0:0:0:0:
306,240,94915,1,8,0:0:0:0:
206,179,95084,1,4,0:0:0:0:
256,192,95252,12,0,97106,0:0:0:0:
298,235,97780,5,4,0:0:0:0:
318,278,98117,1,8,0:0:0:0:
424,292,98286,1,0,0:0:0:0:
261,173,98623,1,0,0:0:0:0:
215,162,98791,1,8,0:0:0:0:
266,167,98960,1,8,0:0:0:0:
258,96,99044,1,0,0:0:0:0:
283,217,99128,1,0,0:0:0:0:
292,217,99297,1,0,0:0:0:0:
205,111,99466,1,0,0:0:0:0:
279,102,99634,1,8,0:0:0:0:
264,176,99803,1,8,0:0:0:0:
277,176,99887,1,8,0:0:0:0:
262,148,99971,1,0,0:0:0:0:
236,140,100055,1,0,0:0:0:0:
247,147,100140,1,8,0:0:0:0:
222,169,100308,1,0,0:0:0:0:
265,177,100477,1,8,0:0:0:0:
364,270,100814,1,8,0:0:0:0:
320,250,100982,1,0,0:0:0:0:
288,225,101067,1,0,0:0:0:0:
352,267,101151,1,8,0:0:0:0:
283,270,101319,1,0,0:0:0:0:
309,269,101488,1,8,0:0:0:0:
303,266,101657,1,8,0:0:0:0:
289,270,101825,1,8,0:0:0:0:
288,264,101909,1,8,0:0:0:0:
213,197,101994,1,0,0:0:0:0:
212,183,102162,1,8,0:0:0:0:
245,192,102331,1,0,0:0:0:0:
236,210,102415,1,0,0:0:0:0:
231,206,102499,1,0,0:0:0:0:
253,210,102668,1,8,0:0:0:0:
260,206,102752,1,8,0:0:0:0:
192,160,102836,1,0,0:0:0:0:
240,184,103005,1,8,0:0:0:0:
277,205,103173,1,0,0:0:0:0:
291,187,103510,1,8,0:0:0:0:
259,206,103679,1,0,0:0:0:0:
246,223,104016,1,0,0:0:0:0:
257,220,104185,1,8,0:0:0:0:
286,255,104353,1,8,0:0:0:0:
286,255,104437,1,8,0:0:0:0:
286,255,104522,1,0,0:0:0:0:
304,275,104690,1,0,0:0:0:0:
283,259,104859,1,8,0:0:0:0:
224,156,105027,1,8,0:0:0:0:
217,219,105112,1,0,0:0:0:0:
181,209,105196,1,8,0:0:0:0:
267,201,105364,1,0,0:0:0:0:
237,193,105449,1,0,0:0:0:0:
237,193,105533,1,8,0:0:0:0:
252,204,105701,1,0,0:0:0:0:
310,161,105870,1,12,0:0:0:0:
214,213,106207,1,8,0:0:0:0:
278,218,106376,1,4,0:0:0:0:
252,204,106713,1,0,0:0:0:0:
229,211,106881,1,12,0:0:0:0:
245,253,107218,1,8,0:0:0:0:
244,244,107387,1,4,0:0:0:0:
179,182,107724,1,8,0:0:0:0:
237,157,107893,1,4,0:0:0:0:
187,200,108061,1,8,0:0:0:0:
229,219,108230,1,4,0:0:0:0:
252,183,108398,1,0,0:0:0:0:
297,199,108567,1,12,0:0:0:0:
318,278,108904,1,8,0:0:0:0:
424,292,109073,1,0,0:0:0:0:
261,173,109410,1,0,0:0:0:0:
215,162,109578,1,8,0:0:0:0:
266,167,109747,1,8,0:0:0:0:
258,96,109831,1,0,0:0:0:0:
283,217,109915,1,0,0:0:0:0:
292,217,110084,1,0,0:0:0:0:
205,111,110253,1,0,0:0:0:0:
279,102,110421,1,8,0:0:0:0:
264,176,110590,1,8,0:0:0:0:
277,176,110674,1,8,0:0:0:0:
262,148,110758,1,0,0:0:0:0:
236,140,110842,1,0,0:0:0:0:
247,147,110927,1,8,0:0:0:0:
222,169,111095,1,0,0:0:0:0:
265,177,111264,1,8,0:0:0:0:
364,270,111601,1,8,0:0:0:0:
320,250,111769,1,0,0:0:0:0:
288,225,111854,1,0,0:0:0:0:
352,267,111938,1,8,0:0:0:0:
283,270,112106,1,0,0:0:0:0:
309,269,112275,1,8,0:0:0:0:
303,266,112444,1,8,0:0:0:0:
289,270,112612,1,8,0:0:0:0:
288,264,112696,1,8,0:0:0:0:
213,197,112781,1,0,0:0:0:0:
212,183,112949,1,8,0:0:0:0:
245,192,113118,1,0,0:0:0:0:
236,212,113454,1,8,0:0:0:0:
289,203,113623,1,0,0:0:0:0:
287,164,113707,1,0,0:0:0:0:
280,195,113791,1,8,0:0:0:0:
285,198,113960,1,0,0:0:0:0:
291,187,114297,1,8,0:0:0:0:
259,206,114466,1,0,0:0:0:0:
246,223,114803,1,0,0:0:0:0:
257,220,114972,1,8,0:0:0:0:
286,255,115140,1,8,0:0:0:0:
286,255,115224,1,8,0:0:0:0:
286,255,115309,1,0,0:0:0:0:
304,275,115477,1,0,0:0:0:0:
283,259,115646,1,8,0:0:0:0:
224,156,115814,1,8,0:0:0:0:
217,219,115899,1,0,0:0:0:0:
181,209,115983,1,8,0:0:0:0:
267,201,116151,1,0,0:0:0:0:
237,193,116236,1,0,0:0:0:0:
237,193,116320,1,8,0:0:0:0:
252,204,116488,1,0,0:0:0:0:
310,161,116657,1,12,0:0:0:0:
215,210,116994,1,8,0:0:0:0:
286,204,117162,1,4,0:0:0:0:
310,245,117499,1,0,0:0:0:0:
315,244,117668,1,12,0:0:0:0:
328,253,118005,1,8,0:0:0:0:
324,260,118173,1,4,0:0:0:0:
287,270,118510,1,8,0:0:0:0:
223,226,118679,1,4,0:0:0:0:
214,199,118848,1,8,0:0:0:0:
249,198,119016,1,4,0:0:0:0:
267,218,119185,1,0,0:0:0:0:
279,220,119353,1,12,0:0:0:0:
239,221,119690,1,8,0:0:0:0:
304,231,119859,1,4,0:0:0:0:
251,205,120196,1,0,0:0:0:0:
310,229,120364,1,12,0:0:0:0:
277,232,120701,1,8,0:0:0:0:
287,232,120870,1,4,0:0:0:0:
258,235,121207,1,8,0:0:0:0:
281,236,121376,1,4,0:0:0:0:
285,237,121544,1,8,0:0:0:0:
258,207,121713,1,4,0:0:0:0:
249,172,121881,1,0,0:0:0:0:
290,206,122050,1,12,0:0:0:0:
268,250,123398,1,4,0:0:0:0:
244,262,123735,1,8,0:0:0:0:
287,249,123904,1,0,0:0:0:0:
243,226,124241,1,0,0:0:0:0:
272,238,124409,1,8,0:0:0:0:
243,226,124578,1,8,0:0:0:0:
255,217,124746,1,0,0:0:0:0:
315,313,125083,1,0,0:0:0:0:
306,299,125252,1,8,0:0:0:0:
340,236,125589,1,8,0:0:0:0:
283,231,125758,1,0,0:0:0:0:
267,204,125926,1,8,0:0:0:0:
260,213,126010,1,8,0:0:0:0:
259,212,126095,1,0,0:0:0:0:
261,211,126263,1,8,0:0:0:0:
256,201,126432,1,8,0:0:0:0:
267,204,126600,1,0,0:0:0:0:
281,251,126937,1,0,0:0:0:0:
278,244,127106,1,8,0:0:0:0:
242,207,127190,1,0,0:0:0:0:
261,211,127274,1,8,0:0:0:0:
377,276,127359,1,8,0:0:0:0:
277,208,127443,1,0,0:0:0:0:
308,220,127611,1,8,0:0:0:0:
198,108,127949,1,8,0:0:0:0:
268,200,128286,1,8,0:0:0:0:
227,170,128370,1,0,0:0:0:0:
230,165,128454,1,8,0:0:0:0:
266,165,128623,1,8,0:0:0:0:
292,197,128707,1,8,0:0:0:0:
244,197,128791,1,0,0:0:0:0:
283,262,128960,1,8,0:0:0:0:
299,259,129128,1,8,0:0:0:0:
316,258,129297,1,0,0:0:0:0:
323,255,129634,1,0,0:0:0:0:
324,253,129803,1,8,0:0:0:0:
323,226,129971,1,8,0:0:0:0:
323,226,130140,1,0,0:0:0:0:
277,220,130224,1,0,0:0:0:0:
261,216,130308,1,0,0:0:0:0:
277,220,130477,1,8,0:0:0:0:
267,186,130645,1,0,0:0:0:0:
286,180,130982,1,0,0:0:0:0:
290,180,131067,1,0,0:0:0:0:
292,180,131151,1,8,0:0:0:0:
300,182,131319,1,0,0:0:0:0:
301,200,131404,1,0,0:0:0:0:
294,198,131488,1,0,0:0:0:0:
316,198,131656,1,8,0:0:0:0:
316,197,131825,1,8,0:0:0:0:
315,197,131994,1,0,0:0:0:0:
308,201,132331,1,0,0:0:0:0:
257,236,132499,1,8,0:0:0:0:
243,248,132583,1,0,0:0:0:0:
185,98,132668,1,8,0:0:0:0:
251,126,132836,1,12,0:0:0:0:
307,250,133005,1,0,0:0:0:0:
223,218,133342,1,8,0:0:0:0:
222,210,133679,1,8,0:0:0:0:
155,177,133848,1,8,0:0:0:0:
171,176,134016,1,0,0:0:0:0:
